#TITLE:Nergal Burning;
#SUBTITLE:;
#ARTIST:DJ Sharpnel;
#TITLETRANSLIT:;
#SUBTITLETRANSLIT:;
#ARTISTTRANSLIT:;
#CREDIT:C. Grab;
#BANNER:nergal bn.png;
#BACKGROUND:nergal bg.png;
#LYRICSPATH:;
#CDTITLE:maxxcd.png;
#MUSIC:NERGAL BURNING.ogg;
#OFFSET:-0.070;
#SAMPLESTART:244.517;
#SAMPLELENGTH:20.584;
#SELECTABLE:YES;
#BPMS:0.000=186.550;
#STOPS:;
#BGCHANGES:;
// cache tags:
#FIRSTBEAT:4.000;
#LASTBEAT:1068.000;
#SONGFILENAME:Songs/SHARPNELSTREAMZ v2/Nergal Burning/Nergal.sm;
#HASMUSIC:1;
#HASBANNER:1;
#MUSICLENGTH:344.816;
// end cache tags

//---------------dance-single - 16+ (SMMaxX)----------------
#NOTES:
     dance-single:
     16+ (SMMaxX):
     Challenge:
     16:
     1.000,1.000,0.223,0.235,1.000,3295.000,77.000,81.000,27.000,0.000:
0000
0000
0000
0000
,
1000
0000
0001
0000
1001
0000
0000
0000
1000
0000
0000
0000
1001
0000
0001
0100
,
0010
0000
0100
0000
0110
0000
0000
0000
0010
0000
0000
0000
0110
0000
0100
0001
,
1000
0000
0100
0000
1100
0000
0000
0000
1000
0000
0000
0000
1100
0000
0100
0010
,
0001
0000
0100
0000
0101
0000
0000
0000
0100
0000
0000
0000
0101
0000
0001
0010
,
0200
0000
0310
0000
0110
0000
0000
0000
0100
0000
0000
0000
0110
0000
0010
0001
,
1000
0000
0010
0000
1010
0000
0000
0000
1000
0000
0000
0000
1010
0000
0010
0100
,
0001
0000
0010
0000
0011
0000
0000
0000
0010
0000
0000
0000
0011
0000
0001
0100
,
0010
0000
0000
0000
0000
0000
1000
0000
0010
0000
1000
0000
0010
0000
0000
0000
0000
0000
0100
0000
0000
0001
0000
0000
0100
0000
0000
0000
0000
0000
0010
0000
0000
0000
0000
0000
2100
0000
0000
0000
0000
0000
0000
0000
0000
0000
0000
0000
,
3100
0000
0010
0000
0110
0000
0000
0000
0100
0000
0000
0000
0110
0000
0010
0001
,
1000
0000
0001
0000
1001
0000
0000
0000
1000
0000
0000
0000
1001
0000
0001
0100
,
0010
0000
1000
0000
1010
0000
0000
0000
0010
0000
0000
0000
1010
0000
1000
0001
,
0010
0000
0001
0000
0011
0000
0000
0000
0010
0000
0000
0000
0011
0000
0001
1000
,
0020
0000
0130
0000
0110
0000
0000
0000
0010
0000
0000
0000
0110
0000
0100
0001
,
1000
0000
0100
0000
1100
0000
0000
0000
1000
0000
0000
0000
1100
0000
0100
0010
,
0001
0000
0100
0000
0101
0000
0000
0000
0001
0000
0000
0000
0101
0000
0100
0001
,
1000
0000
0000
0000
0000
0000
0001
0000
1000
0000
0001
0000
1000
0000
0000
0000
0000
0000
0001
0000
0000
0100
0000
0000
0001
0000
0000
0000
0000
0000
0010
0000
0000
0000
0000
0000
1200
0000
0000
0000
0000
0000
0000
0000
0000
0000
0000
0000
,
1300
0000
0001
0000
1001
0000
0000
0000
1000
0000
0000
0000
1001
0000
0001
0010
,
0100
0000
0010
0000
0110
0000
0000
0000
0100
0000
0000
0000
0110
0000
0010
0001
,
1000
0000
0010
0000
1010
0000
0000
0000
1000
0000
0000
0000
1010
0000
0010
0100
,
0001
0000
0010
0000
0011
0000
0000
0000
0010
0000
0000
0000
0011
0000
0001
0100
,
0020
0000
0130
0000
0110
0000
0000
0000
0010
0000
0000
0000
0110
0000
0100
0001
,
1000
0000
0100
0000
1100
0000
0000
0000
1000
0000
0000
0000
1100
0000
0100
0010
,
0001
0000
0100
0000
0101
0000
0000
0000
0100
0000
0000
0000
0101
0000
0001
0010
,
0100
0000
0000
0000
0000
0000
1000
0000
0100
0000
1000
0000
0100
0000
0000
0000
0000
0000
0010
0000
0000
0001
0000
0000
0010
0000
0000
0000
0000
0000
0100
0000
0000
0000
0000
0000
2010
0000
0000
0000
0000
0000
0000
0000
0000
0000
0000
0000
,
3010
0000
0100
0000
0110
0000
0000
0000
0010
0000
0000
0000
0110
0000
0100
0001
,
1000
0000
0001
0000
1001
0000
0000
0000
1000
0000
0000
0000
1001
0000
0001
0010
,
0100
0000
1000
0000
1100
0000
0000
0000
0100
0000
0000
0000
1100
0000
1000
0001
,
0100
0000
0001
0000
0101
0000
0000
0000
0100
0000
0000
0000
0101
0000
0001
1000
,
0200
0000
0310
0000
0110
0000
0000
0000
0100
0000
0000
0000
0110
0000
0010
0001
,
1000
0000
0010
0000
1010
0000
0000
0000
1000
0000
0000
0000
1010
0000
0010
0100
,
0001
1000
0100
0010
0001
0010
0100
1000
0001
1000
0010
0100
0010
1000
0001
0010
,
0100
1000
0001
0100
0001
0010
0100
0010
0001
1000
0001
0100
0010
0100
0001
1000
,
0100
M012
0M00
0M03
,
1M00
0010
0000
0010
000M
0010
0000
0000
M100
0001
00M0
0001
M000
0001
0M00
0000
,
M000
0000
0M00
0000
00M0
M000
000M
0M00
00M0
0M00
M000
000M
M000
00M0
0M00
000M
,
1000
0010
1000
0001
1000
0100
0010
0100
,
1000
0001
0100
0010
0100
0001
0010
0100
,
1000
0000
0001
0000
0200
0300
0001
0000
2000
3000
0100
0000
0020
0030
0001
0000
,
0020
0030
0001
0000
2000
3000
0001
0000
0200
0300
0010
0000
2000
3000
0100
0000
,
1100
1000
0001
0100
0010
1000
0100
1000
,
0001
0100
0001
1000
0100
0010
0001
0100
,
0001
0000
1000
0000
0200
0300
1000
0000
0002
0003
1000
0000
0020
0030
0100
0000
,
0020
0000
0000
0030
0000
0000
1000
0000
0010
0000
1000
0000
0010
0000
0000
0000
0000
0000
0100
0000
0000
0001
0000
0000
0100
0000
0000
0000
0000
0000
0010
0000
0000
0000
0000
0000
2100
0000
0000
0000
0000
0000
3001
0000
0000
0000
0000
0000
,
1001
0000
1000
0000
0010
0000
1000
0000
0001
0000
0010
0000
0001
0000
1000
0001
,
0100
0010
0100
0001
0010
0100
1000
0001
,
0100
0000
0001
0000
2000
3000
0100
0000
0020
0030
0001
0000
2000
3000
0010
1000
,
0001
0000
1000
0000
0002
0003
0010
0000
0200
0300
1000
0000
0020
0030
0100
0000
,
0101
0000
0001
0000
0010
0000
0001
0000
1000
0000
0010
0000
0100
0000
0001
0010
,
0100
1000
0100
1000
0001
0100
0010
1000
,
0100
0000
0010
0000
0002
0003
1000
0000
0020
0030
1000
0000
0002
0003
0100
0001
,
0010
0000
0000
0000
0000
0000
0001
0000
0010
0000
0001
0000
0010
0000
0000
0000
0000
0000
0100
0000
0000
1000
0000
0000
0100
0000
0000
0000
0000
0000
0010
0000
0000
0000
0000
0000
0102
0000
0000
0000
0000
0000
0103
0000
0000
0000
0000
0000
,
0010
1000
0001
0010
0001
1000
0010
0100
0001
1000
0100
1000
0001
0010
0001
1000
,
0010
0100
0010
1000
0100
0010
0100
1000
0010
1000
0001
0100
0001
1000
0100
0010
,
0100
1000
0001
1000
0100
0010
0100
1000
0001
0010
0100
0010
0001
1000
0001
0010
,
0001
1000
0100
0010
0100
1000
0001
0100
0001
0010
0100
0010
0001
1000
0010
1000
,
0001
0100
0010
0100
0001
1000
0100
0010
0100
1000
0001
0010
0001
1000
0010
0100
,
0001
0010
0001
1000
0010
0100
0010
1000
0001
0010
0001
1000
0010
0100
0001
1000
,
0100
0010
0100
1000
0001
0100
0010
1000
0100
0010
0100
1000
0010
0100
0001
1000
,
0100
1000
0010
0100
0001
1000
0100
1000
0010
0100
0001
0010
0100
1000
0001
0100
,
0010
0100
0001
1000
0100
1000
0010
1000
0001
0100
0010
1000
0001
0010
0100
1000
,
0001
0100
0001
1000
0100
0010
0001
0100
0010
0100
0001
1000
0100
1000
0010
0100
,
0001
0010
0100
0010
0001
1000
0001
0100
0010
0100
0001
1000
0100
0010
0001
0100
,
0001
1000
0100
0010
0100
1000
0010
0100
0010
1000
0001
0010
0100
1000
0100
0010
,
0001
1000
0010
0100
0010
1000
0001
0010
0100
0010
0001
1000
0010
1000
0001
0100
,
0010
0100
0001
1000
0100
0010
0001
1000
0100
1000
0001
0100
0010
1000
0001
1000
,
0100
1000
0001
0010
0100
0010
0001
1000
0001
0010
0001
0100
0010
1000
0100
0010
,
0100
1000
0001
0100
0010
0100
0001
1000
0100
0010
0100
1000
0010
0100
0001
1000
,
0100
1000
0001
0100
0010
1000
0100
0010
0001
1000
0010
0100
0010
1000
0001
0100
,
0001
1000
0100
1000
0001
0100
0010
0100
0001
0010
0001
0100
0010
1000
0100
0010
,
0001
0010
0100
0010
0001
1000
0010
0100
0001
1000
0100
0010
0100
1000
0010
0100
,
0001
0010
0100
0010
0001
1000
0010
0100
0001
1000
0100
0010
0001
0100
0001
1000
,
0100
1000
0010
1000
0001
0100
0001
1000
0100
0010
0001
0010
0100
1000
0010
0100
,
0001
1000
0100
1000
0001
0100
0010
1000
0001
0010
0100
1000
0010
0100
0001
0010
,
0100
0010
0001
0010
0100
0010
0001
0010
0100
0010
0001
0010
0100
1000
0001
0100
,
0010
0000
0000
0000
0000
0000
1000
0000
0010
0000
1000
0000
0010
0000
0000
0000
0000
0000
0100
0000
0000
0001
0000
0000
0100
0000
0000
0000
0000
0000
0010
0000
0000
0000
0000
0000
2100
0000
0000
0000
0000
0000
0000
0000
0000
0000
0000
0000
,
3001
0100
0001
1000
0100
0010
0001
1000
0001
0100
0001
1000
0100
0010
0001
1000
,
0001
0100
0001
0010
0100
0010
0001
1000
0001
0100
0001
0010
0100
0010
0001
1000
,
0010
0100
0010
1000
0100
0010
0100
1000
0010
0100
0010
1000
0100
0010
0100
1000
,
0001
0100
0001
0010
0100
0010
0100
1000
0010
0100
0010
1000
0001
1000
0100
1000
,
0001
0100
0001
0010
0100
0010
0001
1000
0001
0100
0001
0010
0100
0010
0001
1000
,
0010
0100
0010
1000
0001
0010
0001
1000
0010
0100
0010
1000
0001
0010
0001
1000
,
0100
0010
0001
0100
0010
0100
0001
1000
0100
0010
0001
0100
0010
0100
0001
1000
,
0010
0100
0010
1000
0001
0010
0001
1000
0010
0100
0010
1000
0100
0010
0100
1000
,
0001
0100
0001
1000
0100
0010
0001
1000
0001
0100
0001
1000
0100
0010
0001
1000
,
0001
0100
0001
0010
0100
0010
0001
1000
0001
0100
0001
0010
0100
0010
0001
1000
,
0010
0100
0010
1000
0100
0010
0100
1000
0010
0100
0010
1000
0100
0010
0100
1000
,
0001
0100
0001
0010
0100
0010
0100
1000
0010
0100
0010
1000
0001
1000
0100
1000
,
0001
0100
0001
0010
0100
0010
0001
1000
0001
0100
0001
0010
0100
0010
0001
1000
,
0010
0100
0010
1000
0001
0010
0001
1000
0010
0100
0010
1000
0001
0010
0001
1000
,
0010
0100
0010
1000
0010
0100
0010
1000
0010
0100
0010
1000
0010
0100
0001
0010
,
0100
0000
0110
1001
,
2000
0000
0000
0010
0000
0000
3001
0000
2000
0000
0000
0010
0000
0000
3001
0000
,
2000
0000
0000
0100
0000
0000
3001
0000
2000
0000
0000
0100
0000
0000
3001
0000
,
2000
0000
0000
0100
0000
0000
3010
0000
2000
0000
0000
0100
0000
0000
3010
0000
,
2000
0000
0000
0100
0000
0000
3010
0000
0010
0000
0000
0100
0000
0000
0001
0000
,
0002
0000
0000
0010
0000
0000
1003
0000
0002
0000
0000
0010
0000
0000
1003
0000
,
0002
0000
0000
0100
0000
0000
1003
0000
0002
0000
0000
0100
0000
0000
1003
0000
,
0002
0000
0000
0010
0000
0000
1003
0000
0002
0000
0000
0010
0000
0000
1003
0000
,
0002
0000
0000
0100
0000
0000
0013
0000
0002
0000
0000
1000
0000
0000
0013
0000
,
0110
0100
1000
0100
0010
0001
1000
0010
,
1000
0001
0010
0100
1000
0010
0100
0010
,
1000
0001
0010
0100
1000
0001
0100
0010
,
0100
0001
0010
0001
0100
0010
1000
0001
,
1000
0100
0010
0001
1000
0010
0100
0010
,
1000
0001
0010
0100
0010
0001
1000
0010
,
1000
0001
0010
0100
0010
0001
1000
0010
0100
0010
1000
0001
0100
0001
0010
0100
,
1000
0000
0000
0000
0000
0000
0100
0000
0010
0000
0100
0000
0010
0000
0000
0000
0000
0000
0001
0000
0000
1000
0000
0000
0001
0000
0000
0000
0000
0000
0100
0000
0000
0000
0000
0000
1020
0000
0000
0000
0000
0000
0000
0000
0000
0000
0000
0000
,
1030
0100
1000
0001
0100
0010
1000
0001
1000
0100
1000
0001
0100
0010
1000
0001
,
1000
0100
1000
0010
0100
0010
1000
0001
1000
0100
1000
0010
0100
0010
1000
0001
,
0010
0100
0010
0001
0100
0010
0100
0001
0010
0100
0010
0001
0100
0010
0100
0001
,
1000
0100
1000
0010
0100
0010
0100
0001
0010
0100
0010
0001
1000
0001
0100
0001
,
1000
0100
1000
0010
0100
0010
1000
0001
1000
0100
1000
0010
0100
0010
1000
0001
,
0010
0100
0010
0001
1000
0010
1000
0001
0010
0100
0010
0001
1000
0010
1000
0001
,
0100
0010
1000
0100
0010
0100
1000
0001
0100
0010
1000
0100
0010
0100
1000
0001
,
0010
0100
0010
0001
1000
0010
1000
0001
0010
0100
0010
0001
0100
0010
0100
0001
,
1000
0100
1000
0001
0100
0010
1000
0001
1000
0100
1000
0001
0100
0010
1000
0001
,
1000
0100
1000
0010
0100
0010
1000
0001
1000
0100
1000
0010
0100
0010
1000
0001
,
0010
0100
0010
0001
0100
0010
0100
0001
0010
0100
0010
0001
0100
0010
0100
0001
,
1000
0100
1000
0010
0100
0010
0100
0001
0010
0100
0010
0001
1000
0001
0100
0001
,
1000
0100
1000
0010
0100
0010
1000
0001
1000
0100
1000
0010
0100
0010
1000
0001
,
0010
0100
0010
0001
1000
0010
1000
0001
0010
0100
0010
0001
1000
0010
1000
0001
,
0100
0010
1000
0100
0010
0100
1000
0001
0100
0010
1000
0100
0010
0100
1000
0001
,
0100
0000
0000
0000
0000
0000
0010
0000
1000
0000
0010
0000
1000
0000
0000
0000
0000
0000
0001
0000
0000
0100
0000
0000
0001
0000
0000
0000
0000
0000
0010
0000
0000
0000
0000
0000
2100
0000
0000
0000
0000
0000
0000
0000
0000
0000
0000
0000
,
3001
0100
0010
1000
0010
1000
0001
0100
0001
0010
0100
1000
0001
0010
0001
1000
,
0001
0100
0010
1000
0010
1000
0001
0100
0001
0010
0100
1000
0001
0010
0001
1000
,
0001
0100
0010
1000
0010
1000
0001
0100
0001
0010
0100
1000
0001
0010
0001
1000
,
0001
0100
0010
1000
0010
1000
0001
0100
0001
0010
0100
1000
0001
0010
0001
1000
,
0010
0100
0010
1000
0001
0100
0001
0010
0100
1000
0100
1000
0001
0100
0010
1000
,
0010
0100
0010
1000
0001
0100
0001
0010
0100
1000
0100
1000
0001
0100
0010
1000
,
0010
0100
0010
1000
0001
0100
0001
0010
0100
1000
0100
1000
0001
0100
0010
1000
,
0010
0000
0000
0000
0000
0000
0100
0000
0001
0000
0100
0000
0001
0000
0000
0000
0000
0000
1000
0000
0000
0010
0000
0000
1000
0000
0000
0000
0000
0000
0100
0000
0000
0000
0000
0000
0012
0000
0000
0000
0000
0000
0000
0000
0000
0000
0000
0000
,
1003
0010
0100
0001
0100
0001
1000
0010
1000
0100
0010
0001
1000
0100
1000
0001
,
1000
0010
0100
0001
0100
0001
1000
0010
1000
0100
0010
0001
1000
0100
1000
0001
,
1000
0010
0100
0001
0100
0001
1000
0010
1000
0100
0010
0001
1000
0100
1000
0001
,
1000
0010
0100
0001
0100
0001
1000
0010
1000
0100
0010
0001
1000
0100
1000
0001
,
0100
0010
0100
0001
1000
0010
1000
0100
0010
0001
0010
0001
1000
0010
0100
0001
,
0100
0010
0100
0001
1000
0010
1000
0100
0010
0001
0010
0001
1000
0010
0100
0001
,
0100
0010
0100
0001
1000
0010
1000
0100
0010
0001
0010
0001
1000
0010
0100
0001
,
0100
0010
0100
0001
1000
0010
1000
0100
0010
0001
0010
0001
1000
0010
0100
0001
,
0010
0100
1000
0001
0100
0001
1000
0100
0010
0100
1000
0010
0100
0001
1000
0001
,
0010
0100
0010
0001
1000
0001
0100
0010
0100
0001
0010
0001
0100
0001
1000
0010
,
0100
0001
1000
0100
0010
0001
0100
0001
1000
0001
0100
0010
1000
0001
0010
0100
,
1000
0001
0100
0001
0010
0100
0010
0001
1000
0010
0100
0001
0100
0010
1000
0001
,
0010
0001
1000
0001
0100
0010
0100
0001
1000
0001
0010
0100
1000
0001
0100
0010
,
1000
0001
0010
0100
0010
0001
1000
0100
0010
0100
1000
0001
0100
0010
1000
0100
,
0010
0001
1000
0100
1000
0001
0010
0001
0010
0100
1000
0010
1000
0001
0100
0010
,
1000
0000
0000
0000
0000
0000
0001
0000
0100
0000
0001
0000
0100
0000
0000
0000
0000
0000
0010
0000
0000
1000
0000
0000
0010
0000
0000
0000
0000
0000
0100
0000
0000
0000
0000
0000
0012
0000
0000
0000
0000
0000
0000
0000
0000
0003
0000
0000
,
1000
0010
1000
0001
0010
0001
1000
0010
0100
0010
1000
0100
0010
0001
1000
0001
,
0100
0010
0100
0001
1000
0001
0010
0100
0010
0001
0100
0001
0010
0001
1000
0100
,
0010
0001
1000
0010
0100
0001
0010
0001
1000
0001
0010
0100
1000
0001
0100
0010
,
1000
0001
0010
0001
0100
0010
0100
0001
1000
0100
0010
0001
0010
0100
1000
0001
,
0100
0001
1000
0001
0010
0100
0010
0001
1000
0001
0100
0010
1000
0001
0010
0100
,
1000
0001
0100
0010
0100
0001
1000
0010
0100
0010
1000
0001
0010
0100
1000
0010
,
0100
0001
1000
0010
1000
0001
0100
0001
0100
0010
1000
0100
1000
0001
0010
0100
,
0010
0000
0000
0000
0000
0000
0001
0000
1000
0000
0001
0000
1000
0000
0000
0000
0000
0000
0010
0000
0000
0100
0000
0000
0010
0000
0000
0000
0000
0000
0100
0000
0000
0000
0000
0000
0012
0000
0000
0000
0000
0000
0000
0000
0000
0003
0000
0000
,
0010
0100
1000
0001
0100
0001
1000
0100
0010
0100
1000
0010
0100
0001
1000
0001
,
0010
0100
0010
0001
1000
0001
0100
0010
0100
0001
0010
0001
0100
0001
1000
0010
,
0100
0001
1000
0100
0010
0001
0100
0001
1000
0001
0100
0010
1000
0001
0010
0100
,
1000
0001
0100
0001
0010
0100
0010
0001
1000
0010
0100
0001
0100
0010
1000
0001
,
0010
0001
1000
0001
0100
0010
0100
0001
1000
0001
0010
0100
1000
0001
0100
0010
,
1000
0001
0010
0100
0010
0001
1000
0100
0010
0100
1000
0001
0100
0010
1000
0100
,
0010
0001
1000
0100
1000
0001
0010
0001
0010
0100
1000
0010
1000
0001
0100
0010
,
1000
0000
0000
0000
0000
0000
0001
0000
0100
0000
0001
0000
0100
0000
0000
0000
0000
0000
0010
0000
0000
1000
0000
0000
0010
0000
0000
0000
0000
0000
0100
0000
0000
0000
0000
0000
0012
0000
0000
0000
0000
0000
0000
0000
0000
0003
0000
0000
,
1000
0010
0100
0001
0100
0010
0100
0001
0010
0100
1000
0001
0100
0001
0010
0100
,
0010
0001
1000
0010
0100
0010
1000
0001
0010
0001
1000
0100
0010
0001
1000
0010
,
0100
0001
0010
0100
1000
0001
0100
0001
0010
0001
1000
0010
0100
0010
1000
0001
,
0100
0001
1000
0100
1000
0001
0100
0001
0010
0100
1000
0010
1000
0001
1000
0100
,
1000
0001
0100
0001
1000
0100
0010
0001
1000
0001
0100
0001
1000
0100
1000
0001
,
1000
0010
0100
0001
0010
0001
1000
0010
0100
0010
1000
0100
0010
0001
0100
0001
,
1000
0010
1000
0001
0100
0010
1000
0001
0010
0100
1000
0010
0100
0010
1000
0001
,
0020
0000
0000
0000
0000
0000
0000
0030
,
0220
0000
0000
0000
0000
0000
0000
0330
,
0002
0000
0000
0010
0000
0000
1003
0000
0002
0000
0000
0010
0000
0000
1003
0000
,
0002
0000
0000
0100
0000
0000
1003
0000
0002
0000
0000
0100
0000
0000
1003
0000
,
0002
0000
0000
0100
0000
0000
0013
0000
0002
0000
0000
0100
0000
0000
0013
0000
,
0002
0000
0000
0100
0000
0000
0013
0000
0010
0000
0000
0100
0000
0000
1000
0000
,
2000
0000
0000
0010
0000
0000
3001
0000
2000
0000
0000
0010
0000
0000
3001
0000
,
2000
0000
0000
0100
0000
0000
3001
0000
2000
0000
0000
0100
0000
0000
3001
0000
,
2000
0000
0000
0010
0000
0000
3001
0000
2000
0000
0000
0010
0000
0000
3001
0000
,
2000
0000
0000
0100
0000
0000
3010
0000
2000
0000
0000
3001
0010
0100
1000
0001
,
1000
0001
0100
0010
0000
0100
0000
0001
,
1000
0000
0100
0000
0010
0000
0001
0000
0000
0000
0000
1000
0010
0100
0001
1000
,
0001
1000
0100
0010
0000
0100
0000
1000
,
0001
0000
0100
0000
0001
0000
0010
0000
0010
0000
0000
0100
0000
0000
1000
0000
,
2000
0000
0000
0010
0000
0000
3001
0000
2000
0000
0000
0010
0000
0000
3001
0000
,
2000
0000
0000
0100
0000
0000
3001
0000
2000
0000
0000
0100
0000
0000
3001
0000
,
2000
0000
0000
0010
0000
0000
3001
0000
2000
0000
0000
0010
0000
0000
3001
0000
,
0100
0010
1000
0001
0010
0100
0010
0001
1000
0001
0100
0010
1000
0100
0010
0100
,
2000
0000
0000
0000
0000
0000
0000
0000
3000
0000
0000
0001
0010
0100
1000
0001
,
0100
0010
1000
0001
0010
0001
0100
0001
1000
0010
0100
0001
1000
0100
0010
0001
,
1000
0010
1000
0001
0010
0100
1000
0010
0100
0010
1000
0001
0010
0001
0100
0010
,
1000
0100
0010
0100
1000
0001
1000
0010
0100
0010
1000
0001
0010
0100
1000
0010
,
1000
0001
0010
0100
0010
0001
0100
0010
0100
0001
1000
0100
0010
0001
0010
0100
,
1000
0001
0100
0010
0100
0001
1000
0100
0010
0100
1000
0001
0100
0001
1000
0010
,
0100
0010
1000
0001
0010
0100
1000
0001
0010
0001
1000
0010
0100
0001
1000
0001
,
0010
0001
1000
0100
0010
0100
1000
0001
1000
0100
1000
0010
0100
0001
0010
0100
,
0010
0001
1000
0010
0100
0010
1000
0001
0010
0100
0010
0001
0100
0010
1000
0001
,
0010
0001
1000
0010
0100
0001
0010
0100
1000
0001
0100
0010
0100
0001
1000
0010
,
1000
0001
0010
0001
1000
0010
0100
0010
1000
0100
1000
0010
0100
0001
0010
0100
,
1000
0100
0010
0100
1000
0001
0100
0010
1000
0001
0010
0100
0010
0001
0100
0010
,
1000
0100
0010
0100
1000
0001
0100
0010
1000
0001
0010
0100
1000
0010
1000
0001
,
0010
0001
0100
0001
1000
0010
1000
0001
0010
0100
1000
0100
0010
0001
0100
0010
,
1000
0001
0010
0001
1000
0010
0100
0001
1000
0100
0010
0001
0100
0010
1000
0100
,
0010
0100
1000
0100
0010
0100
1000
0100
0010
0100
1000
0100
0010
0001
1000
0010
,
0100
0000
0000
0000
0000
0000
0001
0000
0100
0000
0001
0000
0100
0000
0000
0000
0000
0000
0010
0000
0000
1000
0000
0000
0010
0000
0000
0000
0000
0000
0100
0000
0000
0000
0000
0000
0012
0000
0000
0000
0000
0000
0000
0000
0000
0000
0000
0000
,
0013
0100
1000
0001
0100
0001
0010
0001
1000
0100
0010
0001
1000
0010
0100
0001
,
1000
0100
1000
0001
0100
0010
1000
0100
0010
0100
1000
0001
0100
0001
0010
0100
,
1000
0010
0100
0010
1000
0001
1000
0100
0010
0100
1000
0001
0100
0010
1000
0100
,
1000
0001
0100
0010
0100
0001
0010
0100
0010
0001
1000
0010
0100
0001
0100
0010
,
1000
0001
0010
0100
0010
0001
1000
0010
0100
0010
1000
0001
0010
0001
1000
0100
,
0010
0100
1000
0001
0100
0010
1000
0001
0100
0001
1000
0100
0010
0001
1000
0001
,
0100
0001
1000
0010
0100
0010
1000
0001
1000
0010
1000
0100
0010
0001
0100
0010
,
0100
0001
1000
0100
0010
0100
1000
0001
0100
0010
0100
0001
0010
0100
1000
0001
,
0100
0001
1000
0100
0010
0001
0100
0010
1000
0001
0010
0100
0010
0001
1000
0100
,
1000
0001
0100
0001
1000
0100
0010
0100
1000
0010
1000
0100
0010
0001
0100
0010
,
1000
0010
0100
0010
1000
0001
0010
0100
1000
0001
0100
0010
0100
0001
0010
0100
,
1000
0010
0100
0010
1000
0001
0010
0100
1000
0001
0100
0010
1000
0100
1000
0001
,
0100
0001
0010
0001
1000
0100
1000
0001
0100
0010
1000
0010
0100
0001
0010
0100
,
1000
0001
0100
0001
1000
0100
0010
0001
1000
0010
0100
0001
0010
0100
1000
0010
,
0100
0010
1000
0010
0100
0010
1000
0010
0100
0010
1000
0010
0100
0001
1000
0100
,
0010
0000
0000
0000
0000
0000
0001
0000
0010
0000
0001
0000
0010
0000
0000
0000
0000
0000
0100
0000
0000
1000
0000
0000
0100
0000
0000
0000
0000
0000
0010
0000
0000
0000
0000
0000
0102
0000
0000
0000
0000
0000
0000
0000
0000
0000
0000
0000
,
1003
0100
1000
0001
0100
0010
1000
0001
1000
0100
1000
0001
0100
0010
1000
0001
,
1000
0100
1000
0010
0100
0010
1000
0001
1000
0100
1000
0010
0100
0010
1000
0001
,
0010
0100
0010
0001
0100
0010
0100
0001
0010
0100
0010
0001
0100
0010
0100
0001
,
1000
0100
1000
0010
0100
0010
0100
0001
0010
0100
0010
0001
1000
0001
0100
0001
,
1000
0100
1000
0010
0100
0010
1000
0001
1000
0100
1000
0010
0100
0010
1000
0001
,
0010
0100
0010
0001
1000
0010
1000
0001
0010
0100
0010
0001
1000
0010
1000
0001
,
0100
0010
1000
0100
0010
0100
1000
0001
0100
0010
1000
0100
0010
0100
1000
0001
,
0010
0100
0010
0001
1000
0010
1000
0001
0010
0100
0010
0001
0100
0010
0100
0001
,
1000
0100
1000
0001
0100
0010
1000
0001
1000
0100
1000
0001
0100
0010
1000
0001
,
1000
0100
1000
0010
0100
0010
1000
0001
1000
0100
1000
0010
0100
0010
1000
0001
,
0010
0100
0010
0001
0100
0010
0100
0001
0010
0100
0010
0001
0100
0010
0100
0001
,
1000
0100
1000
0010
0100
0010
0100
0001
0010
0100
0010
0001
1000
0001
0100
0001
,
1000
0100
1000
0010
0100
0010
1000
0001
1000
0100
1000
0010
0100
0010
1000
0001
,
0010
0100
0010
0001
1000
0010
1000
0001
0010
0100
0010
0001
1000
0010
1000
0001
,
0100
0010
0100
0001
1000
0100
0010
0001
0100
0010
0100
0001
1000
0100
0010
0001
,
0100
0001
0100
0001
0100
0001
0100
0001
0100
0001
0100
0001
0100
0001
0100
0001
,
1000
0100
1000
0001
0100
0010
1000
0001
1000
0100
1000
0001
0100
0010
1000
0001
,
1000
0100
1000
0010
0100
0010
1000
0001
1000
0100
1000
0010
0100
0010
1000
0001
,
0010
0100
0010
0001
0100
0010
0100
0001
0010
0100
0010
0001
0100
0010
0100
0001
,
1000
0100
1000
0010
0100
0010
0100
0001
0010
0100
0010
0001
1000
0001
0100
0001
,
1000
0100
1000
0010
0100
0010
1000
0001
1000
0100
1000
0010
0100
0010
1000
0001
,
0010
0100
0010
0001
1000
0010
1000
0001
0010
0100
0010
0001
1000
0010
1000
0001
,
0100
0010
1000
0100
0010
0100
1000
0001
0100
0010
1000
0100
0010
0100
1000
0001
,
0010
0100
0010
0001
1000
0010
1000
0001
0010
0100
0010
0001
0100
0010
0100
0001
,
1000
0100
1000
0001
0100
0010
1000
0001
1000
0100
1000
0001
0100
0010
1000
0001
,
1000
0100
1000
0010
0100
0010
1000
0001
1000
0100
1000
0010
0100
0010
1000
0001
,
0010
0100
0010
0001
0100
0010
0100
0001
0010
0100
0010
0001
0100
0010
0100
0001
,
1000
0100
1000
0010
0100
0010
0100
0001
0010
0100
0010
0001
1000
0001
0100
0001
,
1000
0100
1000
0010
0100
0010
1000
0001
1000
0100
1000
0010
0100
0010
1000
0001
,
0010
0100
0010
0001
1000
0010
1000
0001
0010
0100
0010
0001
1000
0010
1000
0001
,
0100
0010
1000
0100
0010
0100
1000
0001
0100
0010
1000
0100
0010
0100
1000
0001
,
0100
0000
0000
0000
0000
0000
0001
0000
0100
0000
0001
0000
0100
0000
0000
0000
0000
0000
0010
0000
0000
1000
0000
0000
0010
0000
0000
0000
0000
0000
0100
0000
0000
0000
0000
0000
0012
0000
0000
0000
0000
0000
0000
0000
0000
0000
0000
0000
,
1003
0010
0100
0001
0000
1000
0000
0100
,
0010
0001
0010
0100
0000
0000
0000
0000
,
1000
0010
1000
0100
0000
0010
0000
0100
,
1000
0001
0100
0010
0000
0100
0001
0010
,
0100
0010
0001
0010
0000
0100
1000
0010
,
0100
0010
1000
0001
0000
0010
0001
0100
,
0001
0010
0100
1000
0000
0100
1000
0010
,
0001
0010
1000
0002
0000
0000
0000
0000
,
0003
0000
0000
0000
,
0000
0000
0000
0000
,
0000
0000
0000
0000
,
0000
0000
0000
0000
,
0000
0000
0000
0000
,
MMMM
0000
0000
0000
;

//---------------dance-single - 15 (SMMaxX)----------------
#NOTES:
     dance-single:
     15 (SMMaxX):
     Hard:
     15:
     1.000,1.000,0.235,0.252,1.000,2908.000,81.000,87.000,27.000,0.000:
0000
0000
0000
0000
,
1000
0000
0001
0000
1001
0000
0000
0000
1000
0000
0000
0000
1001
0000
0001
0100
,
0010
0000
0100
0000
0110
0000
0000
0000
0010
0000
0000
0000
0110
0000
0100
0001
,
1000
0000
0100
0000
1100
0000
0000
0000
1000
0000
0000
0000
1100
0000
0100
0010
,
0001
0000
0100
0000
0101
0000
0000
0000
0100
0000
0000
0000
0101
0000
0001
0010
,
0200
0000
0310
0000
0110
0000
0000
0000
0100
0000
0000
0000
0110
0000
0010
0001
,
1000
0000
0010
0000
1010
0000
0000
0000
1000
0000
0000
0000
1010
0000
0010
0100
,
0001
0000
0010
0000
0011
0000
0000
0000
0010
0000
0000
0000
0011
0000
0001
0100
,
0010
0000
0000
0000
0000
0000
1000
0000
0010
0000
1000
0000
0010
0000
0000
0000
0000
0000
0100
0000
0000
0001
0000
0000
0100
0000
0000
0000
0000
0000
0010
0000
0000
0000
0000
0000
2100
0000
0000
0000
0000
0000
0000
0000
0000
0000
0000
0000
,
3100
0000
0010
0000
0110
0000
0000
0000
0100
0000
0000
0000
0110
0000
0010
0001
,
1000
0000
0001
0000
1001
0000
0000
0000
1000
0000
0000
0000
1001
0000
0001
0100
,
0010
0000
1000
0000
1010
0000
0000
0000
0010
0000
0000
0000
1010
0000
1000
0001
,
0010
0000
0001
0000
0011
0000
0000
0000
0010
0000
0000
0000
0011
0000
0001
1000
,
0020
0000
0130
0000
0110
0000
0000
0000
0010
0000
0000
0000
0110
0000
0100
0001
,
1000
0000
0100
0000
1100
0000
0000
0000
1000
0000
0000
0000
1100
0000
0100
0010
,
0001
0000
0100
0000
0101
0000
0000
0000
0001
0000
0000
0000
0101
0000
0100
0001
,
1000
0000
0000
0000
0000
0000
0001
0000
1000
0000
0001
0000
1000
0000
0000
0000
0000
0000
0001
0000
0000
0100
0000
0000
0001
0000
0000
0000
0000
0000
0010
0000
0000
0000
0000
0000
1200
0000
0000
0000
0000
0000
0000
0000
0000
0000
0000
0000
,
1300
0000
0001
0000
1001
0000
0000
0000
1000
0000
0000
0000
1001
0000
0001
0010
,
0100
0000
0010
0000
0110
0000
0000
0000
0100
0000
0000
0000
0110
0000
0010
0001
,
1000
0000
0010
0000
1010
0000
0000
0000
1000
0000
0000
0000
1010
0000
0010
0100
,
0001
0000
0010
0000
0011
0000
0000
0000
0010
0000
0000
0000
0011
0000
0001
0100
,
0020
0000
0130
0000
0110
0000
0000
0000
0010
0000
0000
0000
0110
0000
0100
0001
,
1000
0000
0100
0000
1100
0000
0000
0000
1000
0000
0000
0000
1100
0000
0100
0010
,
0001
0000
0100
0000
0101
0000
0000
0000
0100
0000
0000
0000
0101
0000
0001
0010
,
0100
0000
0000
0000
0000
0000
1000
0000
0100
0000
1000
0000
0100
0000
0000
0000
0000
0000
0010
0000
0000
0001
0000
0000
0010
0000
0000
0000
0000
0000
0100
0000
0000
0000
0000
0000
2010
0000
0000
0000
0000
0000
0000
0000
0000
0000
0000
0000
,
3010
0000
0100
0000
0110
0000
0000
0000
0010
0000
0000
0000
0110
0000
0100
0001
,
1000
0000
0001
0000
1001
0000
0000
0000
1000
0000
0000
0000
1001
0000
0001
0010
,
0100
0000
1000
0000
1100
0000
0000
0000
0100
0000
0000
0000
1100
0000
1000
0001
,
0100
0000
0001
0000
0101
0000
0000
0000
0100
0000
0000
0000
0101
0000
0001
1000
,
0200
0000
0310
0000
0110
0000
0000
0000
0100
0000
0000
0000
0110
0000
0010
0001
,
1000
0000
0010
0000
1010
0000
0000
0000
1000
0000
0000
0000
1010
0000
0010
0100
,
0001
1000
0100
0010
0001
0010
0100
1000
0001
1000
0010
0100
0010
1000
0001
0010
,
0100
1000
0001
0100
0001
0010
0100
0010
0001
1000
0001
0100
0010
0100
0001
1000
,
0100
M012
0M00
0M03
,
1M00
0010
0000
0010
000M
0010
0000
0000
M100
0001
00M0
0001
M000
0001
0M00
0000
,
M000
0000
0M00
0000
00M0
M000
000M
0M00
00M0
0M00
M000
000M
M000
00M0
0M00
000M
,
1000
0010
1000
0001
1000
0100
0010
0100
,
1000
0001
0100
0010
0100
0001
0010
0100
,
1000
0000
0001
0000
0200
0300
0001
0000
2000
3000
0100
0000
0020
0030
0001
0000
,
0020
0030
0001
0000
2000
3000
0001
0000
0200
0300
0010
0000
2000
3000
0100
0000
,
1100
1000
0001
0100
0010
1000
0100
1000
,
0001
0100
0001
1000
0100
0010
0001
0100
,
0001
0000
1000
0000
0200
0300
1000
0000
0002
0003
1000
0000
0020
0030
0100
0000
,
0020
0000
0000
0030
0000
0000
1000
0000
0010
0000
1000
0000
0010
0000
0000
0000
0000
0000
0100
0000
0000
0001
0000
0000
0100
0000
0000
0000
0000
0000
0010
0000
0000
0000
0000
0000
2100
0000
0000
0000
0000
0000
3001
0000
0000
0000
0000
0000
,
1001
0000
1000
0000
0010
0000
1000
0000
0001
0000
0010
0000
0001
0000
1000
0001
,
0100
0010
0100
0001
0010
0100
1000
0001
,
0100
0000
0001
0000
2000
3000
0100
0000
0020
0030
0001
0000
2000
3000
0010
1000
,
0002
0003
1000
0000
0002
0003
0010
0000
0200
0300
1000
0000
0020
0030
0100
0000
,
0101
0000
0001
0000
0010
0000
0001
0000
1000
0000
0010
0000
0100
0000
0001
0010
,
0100
1000
0100
1000
0001
0100
0010
1000
,
0100
0000
0010
0000
0002
0003
1000
0000
0020
0030
1000
0000
0002
0003
0100
0001
,
0020
0000
0000
0030
0000
0000
0001
0000
0010
0000
0001
0000
0010
0000
0000
0000
0000
0000
0100
0000
0000
1000
0000
0000
0100
0000
0000
0000
0000
0000
0010
0000
0000
0000
0000
0000
0102
0000
0000
0000
0000
0000
0103
0000
0000
0000
0000
0000
,
0010
1000
0010
0000
0100
0001
0100
0000
0001
0010
0001
0000
1000
0100
1000
0000
,
0001
1000
0001
0000
0100
0001
0100
0000
0001
0010
0001
0000
1000
0100
1000
0000
,
0010
0100
0010
0000
1000
0001
1000
0000
0100
0010
0100
0000
0010
0001
0010
0000
,
0001
1000
0001
0000
0100
0010
0100
0000
0010
1000
0010
0000
1000
0100
1000
0000
,
0001
1000
0001
0000
0010
0001
0010
0000
0100
0010
0100
0000
0010
0001
0010
0000
,
0100
1000
0100
0000
1000
0010
1000
0000
0001
0100
0001
0000
1000
0001
1000
0000
,
0100
0010
0100
1000
0001
0100
0010
1000
0100
0010
0100
1000
0010
0100
0001
1000
,
0100
1000
0010
0100
0001
1000
0100
1000
0010
0100
0001
0010
0100
1000
0001
0100
,
0010
0000
1000
0000
0001
0010
0100
0000
0010
0000
0001
0000
1000
0010
0100
0000
,
0010
0000
0100
0000
0001
1000
0100
0000
0010
0000
0100
0000
1000
0001
0100
0000
,
0010
0000
1000
0000
0001
0010
0100
0000
0010
0000
0001
0000
1000
0001
0100
0000
,
0010
0000
1000
0000
0001
0010
0100
0000
0010
0000
0001
0000
0100
0010
1000
0000
,
0100
0000
1000
0000
0001
0100
0010
0000
0100
0000
0001
0000
1000
0100
0010
0000
,
0100
0000
0010
0000
0001
1000
0010
0000
0100
0000
0001
0000
1000
0001
0010
0000
,
0100
0000
1000
0000
0001
0100
0010
0000
0100
0000
0001
0000
1000
0100
0010
0000
,
0100
0000
0000
0000
0000
0000
1000
0000
0010
0000
1000
0000
0010
0000
0000
0000
0000
0000
0100
0000
0000
0001
0000
0000
0100
0000
0000
0000
0000
0000
0001
0000
0000
0000
0000
0000
0012
0000
0000
0000
0000
0000
0000
0000
0000
0000
0000
0000
,
0013
0000
0100
0000
1000
0001
0100
0000
0010
0000
0100
0000
0001
1000
0100
0000
,
0010
0000
0001
0000
1000
0010
0100
0000
0001
0000
1000
0000
0100
0010
0001
0000
,
0100
0000
0001
0000
1000
0100
0010
0000
0100
0000
1000
0000
0001
0100
0010
0000
,
1000
0000
0100
0000
0010
0001
0100
0000
0010
0000
1000
0000
0001
0010
0100
0000
,
0010
0000
0001
0000
1000
0010
0100
0000
0001
0000
1000
0000
0100
0010
0001
0000
,
1000
0000
0010
0000
1000
0001
0010
0000
0100
0000
1000
0000
0010
0100
0001
0010
,
0100
0010
0001
0010
0100
0010
0001
0010
0100
0010
0001
0010
0100
0010
0001
1000
,
0010
0000
0000
0000
0000
0000
1000
0000
0010
0000
1000
0000
0010
0000
0000
0000
0000
0000
0100
0000
0000
0001
0000
0000
0100
0000
0000
0000
0000
0000
0010
0000
0000
0000
0000
0000
2100
0000
0000
0000
0000
0000
0000
0000
0000
0000
0000
0000
,
3001
0100
0001
1000
0100
0010
0001
1000
0001
0100
0001
1000
0100
0010
0001
1000
,
0001
0100
0001
0010
0100
0010
0001
1000
0001
0100
0001
0010
0100
0010
0001
1000
,
0010
0100
0010
1000
0100
0010
0100
1000
0010
0100
0010
1000
0100
0010
0100
1000
,
0001
0100
0001
0010
0100
0010
0100
1000
0010
0100
0010
1000
0001
1000
0100
1000
,
0001
0100
0001
0010
0100
0010
0001
1000
0001
0100
0001
0010
0100
0010
0001
1000
,
0010
0100
0010
1000
0001
0010
0001
1000
0010
0100
0010
1000
0001
0010
0001
1000
,
0100
0010
0001
0100
0010
0100
0001
1000
0100
0010
0001
0100
0010
0100
0001
1000
,
0010
0100
0010
1000
0001
0010
0001
1000
0010
0100
0010
1000
0100
0010
0100
1000
,
0001
0100
0001
1000
0100
0010
0001
1000
0001
0100
0001
1000
0100
0010
0001
1000
,
0001
0100
0001
0010
0100
0010
0001
1000
0001
0100
0001
0010
0100
0010
0001
1000
,
0010
0100
0010
1000
0100
0010
0100
1000
0010
0100
0010
1000
0100
0010
0100
1000
,
0001
0100
0001
0010
0100
0010
0100
1000
0010
0100
0010
1000
0001
1000
0100
1000
,
0001
0100
0001
0010
0100
0010
0001
1000
0001
0100
0001
0010
0100
0010
0001
1000
,
0010
0100
0010
1000
0001
0010
0001
1000
0010
0100
0010
1000
0001
0010
0001
1000
,
0010
0100
0010
1000
0010
0100
0010
1000
0010
0100
0010
1000
0010
0100
0001
0010
,
0100
0000
0110
1001
,
2000
0000
0000
0010
0000
0000
3001
0000
2000
0000
0000
0010
0000
0000
3001
0000
,
2000
0000
0000
0100
0000
0000
3001
0000
2000
0000
0000
0100
0000
0000
3001
0000
,
2000
0000
0000
0100
0000
0000
3010
0000
2000
0000
0000
0100
0000
0000
3010
0000
,
2000
0000
0000
0100
0000
0000
3010
0000
0010
0000
0000
0100
0000
0000
0001
0000
,
0002
0000
0000
0010
0000
0000
1003
0000
0002
0000
0000
0010
0000
0000
1003
0000
,
0002
0000
0000
0100
0000
0000
1003
0000
0002
0000
0000
0100
0000
0000
1003
0000
,
0002
0000
0000
0010
0000
0000
1003
0000
0002
0000
0000
0010
0000
0000
1003
0000
,
0002
0000
0000
0100
0000
0000
0013
0000
0002
0000
0000
1000
0000
0000
0013
0000
,
0110
0100
1000
0100
0010
0001
1000
0010
,
1000
0001
0010
0100
1000
0010
0100
0010
,
1000
0001
0010
0100
1000
0001
0100
0010
,
0100
0001
0010
0001
0100
0010
1000
0001
,
1000
0100
0010
0001
1000
0010
0100
0010
,
1000
0001
0010
0100
0010
0001
1000
0010
,
1000
0001
0010
0100
0010
0001
1000
0010
0100
0010
1000
0001
0100
0001
0010
0100
,
1000
0000
0000
0000
0000
0000
0100
0000
0010
0000
0100
0000
0010
0000
0000
0000
0000
0000
0001
0000
0000
1000
0000
0000
0001
0000
0000
0000
0000
0000
0100
0000
0000
0000
0000
0000
1020
0000
0000
0000
0000
0000
0000
0000
0000
0000
0000
0000
,
1030
0100
1000
0001
0100
0010
1000
0001
1000
0100
1000
0001
0100
0010
1000
0001
,
1000
0100
1000
0010
0100
0010
1000
0001
1000
0100
1000
0010
0100
0010
1000
0001
,
0010
0100
0010
0001
0100
0010
0100
0001
0010
0100
0010
0001
0100
0010
0100
0001
,
1000
0100
1000
0010
0100
0010
0100
0001
0010
0100
0010
0001
1000
0001
0100
0001
,
1000
0100
1000
0010
0100
0010
1000
0001
1000
0100
1000
0010
0100
0010
1000
0001
,
0010
0100
0010
0001
1000
0010
1000
0001
0010
0100
0010
0001
1000
0010
1000
0001
,
0100
0010
1000
0100
0010
0100
1000
0001
0100
0010
1000
0100
0010
0100
1000
0001
,
0010
0100
0010
0001
1000
0010
1000
0001
0010
0100
0010
0001
0100
0010
0100
0001
,
1000
0100
1000
0001
0100
0010
1000
0001
1000
0100
1000
0001
0100
0010
1000
0001
,
1000
0100
1000
0010
0100
0010
1000
0001
1000
0100
1000
0010
0100
0010
1000
0001
,
0010
0100
0010
0001
0100
0010
0100
0001
0010
0100
0010
0001
0100
0010
0100
0001
,
1000
0100
1000
0010
0100
0010
0100
0001
0010
0100
0010
0001
1000
0001
0100
0001
,
1000
0100
1000
0010
0100
0010
1000
0001
1000
0100
1000
0010
0100
0010
1000
0001
,
0010
0100
0010
0001
1000
0010
1000
0001
0010
0100
0010
0001
1000
0010
1000
0001
,
0100
0010
1000
0100
0010
0100
1000
0001
0100
0010
1000
0100
0010
0100
1000
0001
,
0100
0000
0000
0000
0000
0000
0010
0000
1000
0000
0010
0000
1000
0000
0000
0000
0000
0000
0001
0000
0000
0100
0000
0000
0001
0000
0000
0000
0000
0000
0010
0000
0000
0000
0000
0000
2100
0000
0000
0000
0000
0000
0000
0000
0000
0000
0000
0000
,
3001
0100
0010
1000
0010
1000
0001
0100
0001
0010
0100
1000
0001
0010
0001
1000
,
0001
0100
0010
1000
0010
1000
0001
0100
0001
0010
0100
1000
0001
0010
0001
1000
,
0001
0100
0010
1000
0010
1000
0001
0100
0001
0010
0100
1000
0001
0010
0001
1000
,
0001
0100
0010
1000
0010
1000
0001
0100
0001
0010
0100
1000
0001
0010
0001
1000
,
0010
0100
0010
1000
0001
0100
0001
0010
0100
1000
0100
1000
0001
0100
0010
1000
,
0010
0100
0010
1000
0001
0100
0001
0010
0100
1000
0100
1000
0001
0100
0010
1000
,
0010
0100
0010
1000
0001
0100
0001
0010
0100
1000
0100
1000
0001
0100
0010
1000
,
0010
0000
0000
0000
0000
0000
0100
0000
0001
0000
0100
0000
0001
0000
0000
0000
0000
0000
1000
0000
0000
0010
0000
0000
1000
0000
0000
0000
0000
0000
0100
0000
0000
0000
0000
0000
0012
0000
0000
0000
0000
0000
0000
0000
0000
0003
0000
0000
,
1000
0010
0100
0001
0100
0001
1000
0010
1000
0100
0010
0001
1000
0100
1000
0001
,
1000
0010
0100
0001
0100
0001
1000
0010
1000
0100
0010
0001
1000
0100
1000
0001
,
1000
0010
0100
0001
0100
0001
1000
0010
1000
0100
0010
0001
1000
0100
1000
0001
,
1000
0010
0100
0001
0100
0001
1000
0010
1000
0100
0010
0001
1000
0100
1000
0001
,
0100
0010
0100
0001
1000
0010
1000
0100
0010
0001
0010
0001
1000
0010
0100
0001
,
0100
0010
0100
0001
1000
0010
1000
0100
0010
0001
0010
0001
1000
0010
0100
0001
,
0100
0010
0100
0001
1000
0010
1000
0100
0010
0001
0010
0001
1000
0010
0100
0001
,
0100
0010
0100
0001
1000
0010
1000
0100
0010
0001
0010
0001
1000
0010
0100
0001
,
0010
0100
0010
0000
0100
1000
0100
0000
1000
0001
1000
0000
0010
0100
0001
0000
,
1000
0001
1000
0000
0100
0010
0100
0000
0010
0001
0010
0000
0001
1000
0010
0000
,
0100
0010
0100
0000
0001
0100
0001
0000
1000
0100
1000
0000
0001
0100
0010
0000
,
1000
0010
1000
0000
0001
0100
0001
0000
1000
0100
1000
0000
0010
1000
0100
0000
,
0010
0001
0010
0000
0001
1000
0001
0000
0100
0001
0100
0000
0010
1000
0001
0000
,
1000
0100
1000
0000
0100
0010
0100
0000
1000
0010
1000
0000
0001
1000
0010
0000
,
0100
0001
0100
0000
0001
0010
0001
0000
1000
0100
1000
0000
0001
0010
0100
0000
,
1000
0000
0000
0000
0000
0000
0001
0000
0100
0000
0001
0000
0100
0000
0000
0000
0000
0000
0010
0000
0000
1000
0000
0000
0010
0000
0000
0000
0000
0000
0100
0000
0000
0000
0000
0000
0012
0000
0000
0000
0000
0000
0000
0000
0000
0003
0000
0000
,
0010
0100
0010
0000
0001
1000
0001
0000
0100
0001
0100
0000
0010
1000
0001
0000
,
1000
0100
1000
0000
0001
0010
0001
0000
0010
0100
0010
0000
0001
1000
0010
0000
,
0100
0001
0100
0000
0010
1000
0010
0000
1000
0100
1000
0000
0001
0010
0100
0000
,
1000
0001
1000
0000
0100
1000
0100
0000
0010
0001
0010
0000
0100
1000
0010
0000
,
0100
0001
0100
0000
0010
1000
0010
0000
1000
0001
1000
0000
0100
0010
0001
0000
,
0100
0010
0100
0000
0010
1000
0010
0000
1000
0001
1000
0000
0001
0010
0100
0000
,
1000
0010
1000
0000
0001
0100
0001
0000
0010
0001
0010
0000
0100
1000
0001
0000
,
0010
0000
0000
0000
0000
0000
0001
0000
1000
0000
0001
0000
1000
0000
0000
0000
0000
0000
0010
0000
0000
0100
0000
0000
0010
0000
0000
0000
0000
0000
0100
0000
0000
0000
0000
0000
0012
0000
0000
0000
0000
0000
0000
0000
0000
0003
0000
0000
,
0010
0100
0010
0000
0100
1000
0100
0000
1000
0001
1000
0000
0010
0100
0001
0000
,
1000
0001
1000
0000
0100
0010
0100
0000
0010
0001
0010
0000
0001
1000
0010
0000
,
0100
0010
0100
0000
0001
0100
0001
0000
1000
0100
1000
0000
0001
0100
0010
0000
,
1000
0010
1000
0000
0001
0100
0001
0000
1000
0100
1000
0000
0010
1000
0100
0000
,
0010
0001
0010
0000
0001
1000
0001
0000
0100
0001
0100
0000
0010
1000
0001
0000
,
1000
0100
1000
0000
0100
0010
0100
0000
1000
0010
1000
0000
0001
1000
0010
0000
,
0100
0001
0100
0000
0001
0010
0001
0000
1000
0100
1000
0000
0001
0010
0100
0000
,
1000
0000
0000
0000
0000
0000
0001
0000
0100
0000
0001
0000
0100
0000
0000
0000
0000
0000
0010
0000
0000
1000
0000
0000
0010
0000
0000
0000
0000
0000
0100
0000
0000
0000
0000
0000
0012
0000
0000
0000
0000
0000
0000
0000
0000
0003
0000
0000
,
1000
0010
1000
0000
0001
0100
0010
0000
0100
0001
0100
0000
0010
1000
0100
0000
,
0010
0001
0010
0000
0001
1000
0010
0000
0100
0001
0100
0000
0010
1000
0100
0000
,
0010
0100
0010
0000
0001
1000
0010
0000
0100
0001
0100
0000
0010
1000
0100
0000
,
0010
0001
0010
0000
0100
1000
0001
0000
0100
0010
0100
0000
0001
0010
0100
0000
,
0010
0001
0010
0000
0001
1000
0010
0000
0100
0001
0100
0000
0010
1000
0100
0000
,
0010
0001
0010
0000
0001
1000
0010
0000
0100
0001
0100
0000
0010
1000
0100
0000
,
1000
0010
1000
0001
0100
0010
1000
0001
0010
0100
1000
0010
0100
0010
1000
0001
,
0020
0000
0000
0000
0000
0000
0000
0030
,
0220
0000
0000
0000
0000
0000
0000
0330
,
0002
0000
0000
0010
0000
0000
1003
0000
0002
0000
0000
0010
0000
0000
1003
0000
,
0002
0000
0000
0100
0000
0000
1003
0000
0002
0000
0000
0100
0000
0000
1003
0000
,
0002
0000
0000
0100
0000
0000
0013
0000
0002
0000
0000
0100
0000
0000
0013
0000
,
0002
0000
0000
0100
0000
0000
0013
0000
0010
0000
0000
0100
0000
0000
1000
0000
,
2000
0000
0000
0010
0000
0000
3001
0000
2000
0000
0000
0010
0000
0000
3001
0000
,
2000
0000
0000
0100
0000
0000
3001
0000
2000
0000
0000
0100
0000
0000
3001
0000
,
2000
0000
0000
0010
0000
0000
3001
0000
2000
0000
0000
0010
0000
0000
3001
0000
,
2000
0000
0000
0100
0000
0000
3010
0000
2000
0000
0000
3001
0010
0100
1000
0001
,
1000
0001
0100
0010
0000
0100
0000
0001
,
1000
0000
0100
0000
0010
0000
0001
0000
0000
0000
0000
1000
0010
0100
0001
1000
,
0001
1000
0100
0010
0000
0100
0000
1000
,
0001
0000
0100
0000
0001
0000
0010
0000
0010
0000
0000
0100
0000
0000
1000
0000
,
2000
0000
0000
0010
0000
0000
3001
0000
2000
0000
0000
0010
0000
0000
3001
0000
,
2000
0000
0000
0100
0000
0000
3001
0000
2000
0000
0000
0100
0000
0000
3001
0000
,
2000
0000
0000
0010
0000
0000
3001
0000
2000
0000
0000
0010
0000
0000
3001
0000
,
0100
0010
1000
0001
0010
0100
0010
0001
1000
0001
0100
0010
1000
0100
0010
0100
,
2000
0000
0000
0000
0000
0000
0000
0000
3000
0000
0000
0001
0010
0100
1000
0001
,
0100
0000
0001
0000
1000
0100
0010
0000
0100
0000
1000
0000
0001
0100
0010
0000
,
0100
0000
0010
0000
1000
0001
0010
0000
0100
0000
0010
0000
0001
1000
0010
0000
,
0100
0000
0001
0000
1000
0100
0010
0000
0100
0000
1000
0000
0001
1000
0010
0000
,
0100
0000
0001
0000
1000
0100
0010
0000
0100
0000
1000
0000
0010
0100
0001
0000
,
0010
0000
0001
0000
1000
0010
0100
0000
0010
0000
1000
0000
0001
0010
0100
0000
,
0010
0000
0100
0000
1000
0001
0100
0000
0010
0000
1000
0000
0001
1000
0100
0000
,
0010
0000
0001
0000
1000
0010
0100
0000
0010
0000
1000
0000
0001
0010
0100
0000
,
0010
0000
0000
0000
0000
0000
0001
0000
0100
0000
0001
0000
0100
0000
0000
0000
0000
0000
0010
0000
0000
1000
0000
0000
0010
0000
0000
0000
0000
0000
1000
0000
0000
0000
0000
0000
2100
0000
0000
0000
0000
0000
0000
0000
0000
0000
0000
0000
,
3100
0000
0010
0000
0001
1000
0010
0000
0100
0000
0010
0000
1000
0001
0010
0000
,
0100
0000
1000
0000
0001
0100
0010
0000
1000
0000
0001
0000
0010
0100
1000
0000
,
0010
0000
1000
0000
0001
0010
0100
0000
0010
0000
0001
0000
1000
0010
0100
0000
,
0001
0000
0010
0000
0100
1000
0010
0000
0100
0000
0001
0000
1000
0100
0010
0000
,
0100
0000
1000
0000
0001
0100
0010
0000
1000
0000
0001
0000
0010
0100
1000
0000
,
0001
0000
0100
0000
0001
1000
0100
0000
0010
0000
0001
0000
0100
0010
1000
0100
,
0010
0100
1000
0100
0010
0100
1000
0100
0010
0100
1000
0100
0010
0100
1000
0001
,
0100
0000
0000
0000
0000
0000
0001
0000
0100
0000
0001
0000
0100
0000
0000
0000
0000
0000
0010
0000
0000
1000
0000
0000
0010
0000
0000
0000
0000
0000
0100
0000
0000
0000
0000
0000
0012
0000
0000
0000
0000
0000
0000
0000
0000
0000
0000
0000
,
0013
0000
0001
0000
1000
0010
0100
0000
0010
0000
1000
0000
0001
0010
0100
0000
,
0010
0000
0100
0000
1000
0001
0100
0000
0010
0000
0100
0000
0001
1000
0100
0000
,
0010
0000
0001
0000
1000
0010
0100
0000
0010
0000
1000
0000
0001
1000
0100
0000
,
0010
0000
0001
0000
1000
0010
0100
0000
0010
0000
1000
0000
0100
0010
0001
0000
,
0100
0000
0001
0000
1000
0100
0010
0000
0100
0000
1000
0000
0001
0100
0010
0000
,
0100
0000
0010
0000
1000
0001
0010
0000
0100
0000
1000
0000
0001
1000
0010
0000
,
0100
0000
0001
0000
1000
0100
0010
0000
0100
0000
1000
0000
0001
0100
0010
0000
,
0100
0000
0000
0000
0000
0000
0001
0000
0010
0000
0001
0000
0010
0000
0000
0000
0000
0000
0100
0000
0000
1000
0000
0000
0100
0000
0000
0000
0000
0000
1000
0000
0000
0000
0000
0000
2010
0000
0000
0000
0000
0000
0000
0000
0000
0000
0000
0000
,
3010
0000
0100
0000
0001
1000
0100
0000
0010
0000
0100
0000
1000
0001
0100
0000
,
0010
0000
1000
0000
0001
0010
0100
0000
1000
0000
0001
0000
0100
0010
1000
0000
,
0100
0000
1000
0000
0001
0100
0010
0000
0100
0000
0001
0000
1000
0100
0010
0000
,
0001
0000
0100
0000
0010
1000
0100
0000
0010
0000
0001
0000
1000
0010
0100
0000
,
0010
0000
1000
0000
0001
0010
0100
0000
1000
0000
0001
0000
0100
0010
1000
0000
,
0001
0000
0010
0000
0001
1000
0010
0000
0100
0000
0001
0000
0010
0100
1000
0010
,
0100
0010
1000
0010
0100
0010
1000
0010
0100
0010
1000
0010
0100
0010
1000
0001
,
0010
0000
0000
0000
0000
0000
0001
0000
0010
0000
0001
0000
0010
0000
0000
0000
0000
0000
0100
0000
0000
1000
0000
0000
0100
0000
0000
0000
0000
0000
0010
0000
0000
0000
0000
0000
0102
0000
0000
0000
0000
0000
0000
0000
0000
0000
0000
0000
,
1003
0100
1000
0001
0100
0010
1000
0001
1000
0100
1000
0001
0100
0010
1000
0001
,
1000
0100
1000
0010
0100
0010
1000
0001
1000
0100
1000
0010
0100
0010
1000
0001
,
0010
0100
0010
0001
0100
0010
0100
0001
0010
0100
0010
0001
0100
0010
0100
0001
,
1000
0100
1000
0010
0100
0010
0100
0001
0010
0100
0010
0001
1000
0001
0100
0001
,
1000
0100
1000
0010
0100
0010
1000
0001
1000
0100
1000
0010
0100
0010
1000
0001
,
0010
0100
0010
0001
1000
0010
1000
0001
0010
0100
0010
0001
1000
0010
1000
0001
,
0100
0010
1000
0100
0010
0100
1000
0001
0100
0010
1000
0100
0010
0100
1000
0001
,
0010
0100
0010
0001
1000
0010
1000
0001
0010
0100
0010
0001
0100
0010
0100
0001
,
1000
0100
1000
0001
0100
0010
1000
0001
1000
0100
1000
0001
0100
0010
1000
0001
,
1000
0100
1000
0010
0100
0010
1000
0001
1000
0100
1000
0010
0100
0010
1000
0001
,
0010
0100
0010
0001
0100
0010
0100
0001
0010
0100
0010
0001
0100
0010
0100
0001
,
1000
0100
1000
0010
0100
0010
0100
0001
0010
0100
0010
0001
1000
0001
0100
0001
,
1000
0100
1000
0010
0100
0010
1000
0001
1000
0100
1000
0010
0100
0010
1000
0001
,
0010
0100
0010
0001
1000
0010
1000
0001
0010
0100
0010
0001
1000
0010
1000
0001
,
0100
0010
0100
0001
1000
0100
0010
0001
0100
0010
0100
0001
1000
0100
0010
0001
,
0100
0000
0000
0000
0000
0000
0010
0000
1000
0000
0010
0000
1000
0000
0000
0000
0000
0000
0001
0000
0000
0100
0000
0000
0001
0000
0000
0000
0000
0000
0010
0000
0000
0000
0000
0000
2100
0000
0000
0000
0000
0000
0000
0000
0000
0000
0000
0000
,
3001
0010
0001
1000
0010
0100
0001
1000
0001
0010
0001
1000
0010
0100
0001
1000
,
0001
0010
0001
0100
0010
0100
0001
1000
0001
0010
0001
0100
0010
0100
0001
1000
,
0100
0010
0100
1000
0010
0100
0010
1000
0100
0010
0100
1000
0010
0100
0010
1000
,
0001
0010
0001
0100
0010
0100
0010
1000
0100
0010
0100
1000
0001
1000
0010
1000
,
0001
0010
0001
0100
0010
0100
0001
1000
0001
0010
0001
0100
0010
0100
0001
1000
,
0100
0010
0100
1000
0001
0100
0001
1000
0100
0010
0100
1000
0001
0100
0001
1000
,
0010
0100
0001
0010
0100
0010
0001
1000
0010
0100
0001
0010
0100
0010
0001
1000
,
0100
0010
0100
1000
0001
0100
0001
1000
0100
0010
0100
1000
0010
0100
0010
1000
,
0001
0010
0001
1000
0010
0100
0001
1000
0001
0010
0001
1000
0010
0100
0001
1000
,
0001
0010
0001
0100
0010
0100
0001
1000
0001
0010
0001
0100
0010
0100
0001
1000
,
0100
0010
0100
1000
0010
0100
0010
1000
0100
0010
0100
1000
0010
0100
0010
1000
,
0001
0010
0001
0100
0010
0100
0010
1000
0100
0010
0100
1000
0001
1000
0010
1000
,
0001
0010
0001
0100
0010
0100
0001
1000
0001
0010
0001
0100
0010
0100
0001
1000
,
0100
0010
0100
1000
0001
0100
0001
1000
0100
0010
0100
1000
0001
0100
0001
1000
,
0010
0100
0001
0010
0100
0010
0001
1000
0010
0100
0001
0010
0100
0010
0001
1000
,
0010
0000
0000
0000
0000
0000
1000
0000
0010
0000
1000
0000
0010
0000
0000
0000
0000
0000
0100
0000
0000
0001
0000
0000
0100
0000
0000
0000
0000
0000
0010
0000
0000
0000
0000
0000
2100
0000
0000
0000
0000
0000
0000
0000
0000
0000
0000
0000
,
3001
0010
0100
1000
0000
0001
0000
0100
,
0010
1000
0010
0100
0000
0000
0000
0000
,
0001
0010
0001
0100
0000
0010
0000
0100
,
0001
1000
0100
0010
0000
0100
1000
0010
,
0100
0010
1000
0010
0000
0100
0001
0010
,
0100
0010
0001
1000
0000
0010
1000
0100
,
1000
0010
0100
0001
0000
0100
0001
0010
,
1000
0010
0001
2000
0000
0000
0000
0000
,
3000
0000
0000
0000
,
0000
0000
0000
0000
,
0000
0000
0000
0000
,
0000
0000
0000
0000
,
0000
0000
0000
0000
,
MMMM
0000
0000
0000
;

//---------------dance-single - 14 (SMMaxX)----------------
#NOTES:
     dance-single:
     14 (SMMaxX):
     Medium:
     14:
     1.000,1.000,0.241,0.258,1.000,2700.000,83.000,89.000,27.000,0.000:
0000
0000
0000
0000
,
1000
0000
0001
0000
1001
0000
0000
0000
1000
0000
0000
0000
1001
0000
0001
0100
,
0010
0000
0100
0000
0110
0000
0000
0000
0010
0000
0000
0000
0110
0000
0100
0001
,
1000
0000
0100
0000
1100
0000
0000
0000
1000
0000
0000
0000
1100
0000
0100
0010
,
0001
0000
0100
0000
0101
0000
0000
0000
0100
0000
0000
0000
0101
0000
0001
0010
,
0200
0000
0310
0000
0110
0000
0000
0000
0100
0000
0000
0000
0110
0000
0010
0001
,
1000
0000
0010
0000
1010
0000
0000
0000
1000
0000
0000
0000
1010
0000
0010
0100
,
0001
0000
0010
0000
0011
0000
0000
0000
0010
0000
0000
0000
0011
0000
0001
0100
,
0010
0000
0000
0000
0000
0000
1000
0000
0010
0000
1000
0000
0010
0000
0000
0000
0000
0000
0100
0000
0000
0001
0000
0000
0100
0000
0000
0000
0000
0000
0010
0000
0000
0000
0000
0000
2100
0000
0000
0000
0000
0000
0000
0000
0000
0000
0000
0000
,
3100
0000
0010
0000
0110
0000
0000
0000
0100
0000
0000
0000
0110
0000
0010
0001
,
1000
0000
0001
0000
1001
0000
0000
0000
1000
0000
0000
0000
1001
0000
0001
0100
,
0010
0000
1000
0000
1010
0000
0000
0000
0010
0000
0000
0000
1010
0000
1000
0001
,
0010
0000
0001
0000
0011
0000
0000
0000
0010
0000
0000
0000
0011
0000
0001
1000
,
0020
0000
0130
0000
0110
0000
0000
0000
0010
0000
0000
0000
0110
0000
0100
0001
,
1000
0000
0100
0000
1100
0000
0000
0000
1000
0000
0000
0000
1100
0000
0100
0010
,
0001
0000
0100
0000
0101
0000
0000
0000
0001
0000
0000
0000
0101
0000
0100
0001
,
1000
0000
0000
0000
0000
0000
0001
0000
1000
0000
0001
0000
1000
0000
0000
0000
0000
0000
0001
0000
0000
0100
0000
0000
0001
0000
0000
0000
0000
0000
0010
0000
0000
0000
0000
0000
1200
0000
0000
0000
0000
0000
0000
0000
0000
0000
0000
0000
,
1300
0000
0001
0000
1001
0000
0000
0000
1000
0000
0000
0000
1001
0000
0001
0010
,
0100
0000
0010
0000
0110
0000
0000
0000
0100
0000
0000
0000
0110
0000
0010
0001
,
1000
0000
0010
0000
1010
0000
0000
0000
1000
0000
0000
0000
1010
0000
0010
0100
,
0001
0000
0010
0000
0011
0000
0000
0000
0010
0000
0000
0000
0011
0000
0001
0100
,
0020
0000
0130
0000
0110
0000
0000
0000
0010
0000
0000
0000
0110
0000
0100
0001
,
1000
0000
0100
0000
1100
0000
0000
0000
1000
0000
0000
0000
1100
0000
0100
0010
,
0001
0000
0100
0000
0101
0000
0000
0000
0100
0000
0000
0000
0101
0000
0001
0010
,
0100
0000
0000
0000
0000
0000
1000
0000
0100
0000
1000
0000
0100
0000
0000
0000
0000
0000
0010
0000
0000
0001
0000
0000
0010
0000
0000
0000
0000
0000
0100
0000
0000
0000
0000
0000
2010
0000
0000
0000
0000
0000
0000
0000
0000
0000
0000
0000
,
3010
0000
0100
0000
0110
0000
0000
0000
0010
0000
0000
0000
0110
0000
0100
0001
,
1000
0000
0001
0000
1001
0000
0000
0000
1000
0000
0000
0000
1001
0000
0001
0010
,
0100
0000
1000
0000
1100
0000
0000
0000
0100
0000
0000
0000
1100
0000
1000
0001
,
0100
0000
0001
0000
0101
0000
0000
0000
0100
0000
0000
0000
0101
0000
0001
1000
,
0200
0000
0310
0000
0110
0000
0000
0000
0100
0000
0000
0000
0110
0000
0010
0001
,
1000
0000
0010
0000
1010
0000
0000
0000
1000
0000
0000
0000
1010
0000
0010
0100
,
0001
1000
0100
0010
0001
0010
0100
1000
0001
1000
0010
0100
0010
1000
0001
0010
,
0100
1000
0001
0100
0001
0010
0100
0010
0001
1000
0001
0100
0010
0100
0001
1000
,
0100
M012
0M00
0M03
,
1M00
0010
0000
0010
000M
0010
0000
0000
M100
0001
00M0
0001
M000
0001
0M00
0000
,
M000
0000
0M00
0000
00M0
M000
000M
0M00
00M0
0M00
M000
000M
M000
00M0
0M00
000M
,
1000
0010
1000
0001
1000
0100
0010
0100
,
1000
0001
0100
0010
0100
0001
0010
0100
,
1000
0000
0001
0000
0200
0300
0001
0000
2000
3000
0100
0000
0020
0030
0001
0000
,
0020
0030
0001
0000
2000
3000
0001
0000
0200
0300
0010
0000
2000
3000
0100
0000
,
1100
1000
0001
0100
0010
1000
0100
1000
,
0001
0100
0001
1000
0100
0010
0001
0100
,
0001
0000
1000
0000
0200
0300
1000
0000
0002
0003
1000
0000
0020
0030
0100
0000
,
0020
0000
0000
0030
0000
0000
1000
0000
0010
0000
1000
0000
0010
0000
0000
0000
0000
0000
0100
0000
0000
0001
0000
0000
0100
0000
0000
0000
0000
0000
0010
0000
0000
0000
0000
0000
2100
0000
0000
0000
0000
0000
3001
0000
0000
0000
0000
0000
,
1001
0000
1000
0000
0010
0000
1000
0000
0001
0000
0010
0000
0001
0000
1000
0001
,
0100
0010
0100
0001
0010
0100
1000
0001
,
0100
0000
0001
0000
2000
3000
0100
0000
0020
0030
0001
0000
2000
3000
0010
1000
,
0002
0003
1000
0000
0002
0003
0010
0000
0200
0300
1000
0000
0020
0030
0100
0000
,
0101
0000
0001
0000
0010
0000
0001
0000
1000
0000
0010
0000
0100
0000
0001
0010
,
0100
1000
0100
1000
0001
0100
0010
1000
,
0100
0000
0010
0000
0002
0003
1000
0000
0020
0030
1000
0000
0002
0003
0100
0001
,
0020
0000
0000
0030
0000
0000
0001
0000
0010
0000
0001
0000
0010
0000
0000
0000
0000
0000
0100
0000
0000
1000
0000
0000
0100
0000
0000
0000
0000
0000
0010
0000
0000
0000
0000
0000
0102
0000
0000
0000
0000
0000
0103
0000
0000
0000
0000
0000
,
0010
1000
0010
0000
0100
0001
0100
0000
0001
0010
0001
0000
1000
0100
1000
0000
,
0001
1000
0001
0000
0100
0001
0100
0000
0001
0010
0001
0000
1000
0100
1000
0000
,
0010
0100
0010
0000
1000
0001
1000
0000
0100
0010
0100
0000
0010
0001
0010
0000
,
0001
1000
0001
0000
0100
0010
0100
0000
0010
1000
0010
0000
1000
0100
1000
0000
,
0001
1000
0001
0000
0010
0001
0010
0000
0100
0010
0100
0000
0010
0001
0010
0000
,
0100
1000
0100
0000
1000
0010
1000
0000
0001
0100
0001
0000
1000
0001
1000
0000
,
0100
0010
0100
1000
0001
0100
0010
1000
0100
0010
0100
1000
0010
0100
0001
1000
,
0100
1000
0010
0100
0001
1000
0100
1000
0010
0100
0001
0010
0100
1000
0001
0100
,
0010
0000
1000
0000
0001
0010
0100
0000
0010
0000
0001
0000
1000
0010
0100
0000
,
0010
0000
0100
0000
0001
1000
0100
0000
0010
0000
0100
0000
1000
0001
0100
0000
,
0010
0000
1000
0000
0001
0010
0100
0000
0010
0000
0001
0000
1000
0001
0100
0000
,
0010
0000
1000
0000
0001
0010
0100
0000
0010
0000
0001
0000
0100
0010
1000
0000
,
0100
0000
1000
0000
0001
0100
0010
0000
0100
0000
0001
0000
1000
0100
0010
0000
,
0100
0000
0010
0000
0001
1000
0010
0000
0100
0000
0001
0000
1000
0001
0010
0000
,
0100
0000
1000
0000
0001
0100
0010
0000
0100
0000
0001
0000
1000
0100
0010
0000
,
0100
0000
0000
0000
0000
0000
1000
0000
0010
0000
1000
0000
0010
0000
0000
0000
0000
0000
0100
0000
0000
0001
0000
0000
0100
0000
0000
0000
0000
0000
0001
0000
0000
0000
0000
0000
0012
0000
0000
0000
0000
0000
0000
0000
0000
0000
0000
0000
,
0013
0000
0100
0000
1000
0001
0100
0000
0010
0000
0100
0000
0001
1000
0100
0000
,
0010
0000
0001
0000
1000
0010
0100
0000
0001
0000
1000
0000
0100
0010
0001
0000
,
0100
0000
0001
0000
1000
0100
0010
0000
0100
0000
1000
0000
0001
0100
0010
0000
,
1000
0000
0100
0000
0010
0001
0100
0000
0010
0000
1000
0000
0001
0010
0100
0000
,
0010
0000
0001
0000
1000
0010
0100
0000
0001
0000
1000
0000
0100
0010
0001
0000
,
1000
0000
0010
0000
1000
0001
0010
0000
0100
0000
1000
0000
0010
0100
0001
0010
,
0100
0010
0001
0010
0100
0010
0001
0010
0100
0010
0001
0010
0100
0010
0001
1000
,
0010
0000
0000
0000
0000
0000
1000
0000
0010
0000
1000
0000
0010
0000
0000
0000
0000
0000
0100
0000
0000
0001
0000
0000
0100
0000
0000
0000
0000
0000
0010
0000
0000
0000
0000
0000
2100
0000
0000
0000
0000
0000
0000
0000
0000
0000
0000
0000
,
3001
0100
0001
1000
0100
0010
0001
1000
0001
0100
0001
1000
0100
0010
0001
1000
,
0001
0100
0001
0010
0100
0010
0001
1000
0001
0100
0001
0010
0100
0010
0001
1000
,
0010
0100
0010
1000
0100
0010
0100
1000
0010
0100
0010
1000
0100
0010
0100
1000
,
0001
0100
0001
0010
0100
0010
0100
1000
0010
0100
0010
1000
0001
1000
0100
1000
,
0001
0100
0001
0010
0100
0010
0001
1000
0001
0100
0001
0010
0100
0010
0001
1000
,
0010
0100
0010
1000
0001
0010
0001
1000
0010
0100
0010
1000
0001
0010
0001
1000
,
0100
0010
0001
0100
0010
0100
0001
1000
0100
0010
0001
0100
0010
0100
0001
1000
,
0010
0100
0010
1000
0001
0010
0001
1000
0010
0100
0010
1000
0100
0010
0100
1000
,
0001
0100
0001
1000
0100
0010
0001
1000
0001
0100
0001
1000
0100
0010
0001
1000
,
0001
0100
0001
0010
0100
0010
0001
1000
0001
0100
0001
0010
0100
0010
0001
1000
,
0010
0100
0010
1000
0100
0010
0100
1000
0010
0100
0010
1000
0100
0010
0100
1000
,
0001
0100
0001
0010
0100
0010
0100
1000
0010
0100
0010
1000
0001
1000
0100
1000
,
0001
0100
0001
0010
0100
0010
0001
1000
0001
0100
0001
0010
0100
0010
0001
1000
,
0010
0100
0010
1000
0001
0010
0001
1000
0010
0100
0010
1000
0001
0010
0001
1000
,
0010
0100
0010
1000
0010
0100
0010
1000
0010
0100
0010
1000
0010
0100
0001
0010
,
0100
0000
0110
1001
,
2000
0000
0000
0010
0000
0000
3001
0000
2000
0000
0000
0010
0000
0000
3001
0000
,
2000
0000
0000
0100
0000
0000
3001
0000
2000
0000
0000
0100
0000
0000
3001
0000
,
2000
0000
0000
0100
0000
0000
3010
0000
2000
0000
0000
0100
0000
0000
3010
0000
,
2000
0000
0000
0100
0000
0000
3010
0000
0010
0000
0000
0100
0000
0000
0001
0000
,
0002
0000
0000
0010
0000
0000
1003
0000
0002
0000
0000
0010
0000
0000
1003
0000
,
0002
0000
0000
0100
0000
0000
1003
0000
0002
0000
0000
0100
0000
0000
1003
0000
,
0002
0000
0000
0010
0000
0000
1003
0000
0002
0000
0000
0010
0000
0000
1003
0000
,
0002
0000
0000
0100
0000
0000
0013
0000
0002
0000
0000
1000
0000
0000
0013
0000
,
0110
0100
1000
0100
0010
0001
1000
0010
,
1000
0001
0010
0100
1000
0010
0100
0010
,
1000
0001
0010
0100
1000
0001
0100
0010
,
0100
0001
0010
0001
0100
0010
1000
0001
,
1000
0100
0010
0001
1000
0010
0100
0010
,
1000
0001
0010
0100
0010
0001
1000
0010
,
1000
0001
0010
0100
0010
0001
1000
0010
0100
0010
1000
0001
0100
0001
0010
0100
,
1000
0000
0000
0000
0000
0000
0100
0000
0010
0000
0100
0000
0010
0000
0000
0000
0000
0000
0001
0000
0000
1000
0000
0000
0001
0000
0000
0000
0000
0000
0100
0000
0000
0000
0000
0000
1020
0000
0000
0000
0000
0000
0000
0000
0000
0000
0000
0000
,
1030
0100
1000
0001
0100
0010
1000
0001
1000
0100
1000
0001
0100
0010
1000
0001
,
1000
0100
1000
0010
0100
0010
1000
0001
1000
0100
1000
0010
0100
0010
1000
0001
,
0010
0100
0010
0001
0100
0010
0100
0001
0010
0100
0010
0001
0100
0010
0100
0001
,
1000
0100
1000
0010
0100
0010
0100
0001
0010
0100
0010
0001
1000
0001
0100
0001
,
1000
0100
1000
0010
0100
0010
1000
0001
1000
0100
1000
0010
0100
0010
1000
0001
,
0010
0100
0010
0001
1000
0010
1000
0001
0010
0100
0010
0001
1000
0010
1000
0001
,
0100
0010
1000
0100
0010
0100
1000
0001
0100
0010
1000
0100
0010
0100
1000
0001
,
0010
0100
0010
0001
1000
0010
1000
0001
0010
0100
0010
0001
0100
0010
0100
0001
,
1000
0100
1000
0001
0100
0010
1000
0001
1000
0100
1000
0001
0100
0010
1000
0001
,
1000
0100
1000
0010
0100
0010
1000
0001
1000
0100
1000
0010
0100
0010
1000
0001
,
0010
0100
0010
0001
0100
0010
0100
0001
0010
0100
0010
0001
0100
0010
0100
0001
,
1000
0100
1000
0010
0100
0010
0100
0001
0010
0100
0010
0001
1000
0001
0100
0001
,
1000
0100
1000
0010
0100
0010
1000
0001
1000
0100
1000
0010
0100
0010
1000
0001
,
0010
0100
0010
0001
1000
0010
1000
0001
0010
0100
0010
0001
1000
0010
1000
0001
,
0100
0010
1000
0100
0010
0100
1000
0001
0100
0010
1000
0100
0010
0100
1000
0001
,
0100
0000
0000
0000
0000
0000
0010
0000
1000
0000
0010
0000
1000
0000
0000
0000
0000
0000
0001
0000
0000
0100
0000
0000
0001
0000
0000
0000
0000
0000
0010
0000
0000
0000
0000
0000
2100
0000
0000
0000
0000
0000
0000
0000
0000
0000
0000
0000
,
3001
0100
0001
0100
0001
0010
0100
1000
,
0001
0100
0001
0100
0001
0010
0100
1000
,
0001
0100
0001
0100
0001
0010
0100
1000
,
0001
0100
0001
0100
0001
0010
0100
1000
,
0010
0100
0010
0100
0001
0010
0100
1000
,
0010
0100
0010
0100
0001
0010
0100
1000
,
0010
0100
0010
0100
0001
0010
0100
1000
,
0010
0000
0000
0000
0000
0000
0100
0000
0001
0000
0100
0000
0001
0000
0000
0000
0000
0000
1000
0000
0000
0010
0000
0000
1000
0000
0000
0000
0000
0000
0100
0000
0000
0000
0000
0000
0012
0000
0000
0000
0000
0000
0000
0000
0000
0003
0000
0000
,
1000
0100
1000
0100
1000
0010
0100
0001
,
1000
0100
1000
0100
1000
0010
0100
0001
,
1000
0100
1000
0100
1000
0010
0100
0001
,
1000
0100
1000
0100
1000
0010
0100
0001
,
0010
0100
0010
0100
1000
0010
0100
0001
,
0010
0100
0010
0100
1000
0010
0100
0001
,
0010
0001
1000
0001
0100
0010
0100
0001
1000
0100
0010
0001
0010
0100
1000
0001
,
0010
0100
0010
0100
1000
0010
0100
0001
,
0010
0100
0010
0000
0100
1000
0100
0000
1000
0001
1000
0000
0010
0100
0001
0000
,
1000
0001
1000
0000
0100
0010
0100
0000
0010
0001
0010
0000
0001
1000
0010
0000
,
0100
0010
0100
0000
0001
0100
0001
0000
1000
0100
1000
0000
0001
0100
0010
0000
,
1000
0010
1000
0000
0001
0100
0001
0000
1000
0100
1000
0000
0010
1000
0100
0000
,
0010
0001
0010
0000
0001
1000
0001
0000
0100
0001
0100
0000
0010
1000
0001
0000
,
1000
0100
1000
0000
0100
0010
0100
0000
1000
0010
1000
0000
0001
1000
0010
0000
,
0100
0001
0100
0000
0001
0010
0001
0000
1000
0100
1000
0000
0001
0010
0100
0000
,
1000
0000
0000
0000
0000
0000
0001
0000
0100
0000
0001
0000
0100
0000
0000
0000
0000
0000
0010
0000
0000
1000
0000
0000
0010
0000
0000
0000
0000
0000
0100
0000
0000
0000
0000
0000
0012
0000
0000
0000
0000
0000
0000
0000
0000
0003
0000
0000
,
0010
0100
0010
0000
0001
1000
0001
0000
0100
0001
0100
0000
0010
1000
0001
0000
,
1000
0100
1000
0000
0001
0010
0001
0000
0010
0100
0010
0000
0001
1000
0010
0000
,
0100
0001
0100
0000
0010
1000
0010
0000
1000
0100
1000
0000
0001
0010
0100
0000
,
1000
0001
1000
0000
0100
1000
0100
0000
0010
0001
0010
0000
0100
1000
0010
0000
,
0100
0001
0100
0000
0010
1000
0010
0000
1000
0001
1000
0000
0100
0010
0001
0000
,
0100
0010
0100
0000
0010
1000
0010
0000
1000
0001
1000
0000
0001
0010
0100
0000
,
1000
0010
1000
0000
0001
0100
0001
0000
0010
0001
0010
0000
0100
1000
0001
0000
,
0010
0000
0000
0000
0000
0000
0001
0000
1000
0000
0001
0000
1000
0000
0000
0000
0000
0000
0010
0000
0000
0100
0000
0000
0010
0000
0000
0000
0000
0000
0100
0000
0000
0000
0000
0000
0012
0000
0000
0000
0000
0000
0000
0000
0000
0003
0000
0000
,
0010
0100
0010
0000
0100
1000
0100
0000
1000
0001
1000
0000
0010
0100
0001
0000
,
1000
0001
1000
0000
0100
0010
0100
0000
0010
0001
0010
0000
0001
1000
0010
0000
,
0100
0010
0100
0000
0001
0100
0001
0000
1000
0100
1000
0000
0001
0100
0010
0000
,
1000
0010
1000
0000
0001
0100
0001
0000
1000
0100
1000
0000
0010
1000
0100
0000
,
0010
0001
0010
0000
0001
1000
0001
0000
0100
0001
0100
0000
0010
1000
0001
0000
,
1000
0100
1000
0000
0100
0010
0100
0000
1000
0010
1000
0000
0001
1000
0010
0000
,
0100
0001
0100
0000
0001
0010
0001
0000
1000
0100
1000
0000
0001
0010
0100
0000
,
1000
0000
0000
0000
0000
0000
0001
0000
0100
0000
0001
0000
0100
0000
0000
0000
0000
0000
0010
0000
0000
1000
0000
0000
0010
0000
0000
0000
0000
0000
0100
0000
0000
0000
0000
0000
0012
0000
0000
0000
0000
0000
0000
0000
0000
0003
0000
0000
,
1000
0010
1000
0000
0001
0100
0010
0000
0100
0001
0100
0000
0010
1000
0100
0000
,
0010
0001
0010
0000
0001
1000
0010
0000
0100
0001
0100
0000
0010
1000
0100
0000
,
0010
0100
0010
0000
0001
1000
0010
0000
0100
0001
0100
0000
0010
1000
0100
0000
,
0010
0001
0010
0000
0100
1000
0001
0000
0100
0010
0100
0000
0001
0010
0100
0000
,
0010
0001
0010
0000
0001
1000
0010
0000
0100
0001
0100
0000
0010
1000
0100
0000
,
0010
0001
0010
0000
0001
1000
0010
0000
0100
0001
0100
0000
0010
1000
0100
0000
,
1000
0010
1000
0001
0100
0010
1000
0001
0010
0100
1000
0010
0100
0010
1000
0001
,
0020
0000
0000
0000
0000
0000
0000
0030
,
0220
0000
0000
0000
0000
0000
0000
0330
,
0002
0000
0000
0010
0000
0000
1003
0000
0002
0000
0000
0010
0000
0000
1003
0000
,
0002
0000
0000
0100
0000
0000
1003
0000
0002
0000
0000
0100
0000
0000
1003
0000
,
0002
0000
0000
0100
0000
0000
0013
0000
0002
0000
0000
0100
0000
0000
0013
0000
,
0002
0000
0000
0100
0000
0000
0013
0000
0010
0000
0000
0100
0000
0000
1000
0000
,
2000
0000
0000
0010
0000
0000
3001
0000
2000
0000
0000
0010
0000
0000
3001
0000
,
2000
0000
0000
0100
0000
0000
3001
0000
2000
0000
0000
0100
0000
0000
3001
0000
,
2000
0000
0000
0010
0000
0000
3001
0000
2000
0000
0000
0010
0000
0000
3001
0000
,
2000
0000
0000
0100
0000
0000
3010
0000
2000
0000
0000
3001
0010
0100
1000
0001
,
1000
0001
0100
0010
0000
0100
0000
0001
,
1000
0000
0100
0000
0010
0000
0001
0000
0000
0000
0000
1000
0010
0100
0001
1000
,
0001
1000
0100
0010
0000
0100
0000
1000
,
0001
0000
0100
0000
0001
0000
0010
0000
0010
0000
0000
0100
0000
0000
1000
0000
,
2000
0000
0000
0010
0000
0000
3001
0000
2000
0000
0000
0010
0000
0000
3001
0000
,
2000
0000
0000
0100
0000
0000
3001
0000
2000
0000
0000
0100
0000
0000
3001
0000
,
2000
0000
0000
0010
0000
0000
3001
0000
2000
0000
0000
0010
0000
0000
3001
0000
,
0100
0010
1000
0001
0010
0100
0010
0001
1000
0001
0100
0010
1000
0100
0010
0100
,
2000
0000
0000
0000
0000
0000
0000
0000
3000
0000
0000
0001
0010
0100
1000
0001
,
0100
0000
0001
0000
1000
0100
0010
0000
0100
0000
1000
0000
0001
0100
0010
0000
,
0100
0000
0010
0000
1000
0001
0010
0000
0100
0000
0010
0000
0001
1000
0010
0000
,
0100
0000
0001
0000
1000
0100
0010
0000
0100
0000
1000
0000
0001
1000
0010
0000
,
0100
0000
0001
0000
1000
0100
0010
0000
0100
0000
1000
0000
0010
0100
0001
0000
,
0010
0000
0001
0000
1000
0010
0100
0000
0010
0000
1000
0000
0001
0010
0100
0000
,
0010
0000
0100
0000
1000
0001
0100
0000
0010
0000
1000
0000
0001
1000
0100
0000
,
0010
0000
0001
0000
1000
0010
0100
0000
0010
0000
1000
0000
0001
0010
0100
0000
,
0010
0000
0000
0000
0000
0000
0001
0000
0100
0000
0001
0000
0100
0000
0000
0000
0000
0000
0010
0000
0000
1000
0000
0000
0010
0000
0000
0000
0000
0000
1000
0000
0000
0000
0000
0000
2100
0000
0000
0000
0000
0000
0000
0000
0000
0000
0000
0000
,
3100
0000
0010
0000
0001
1000
0010
0000
0100
0000
0010
0000
1000
0001
0010
0000
,
0100
0000
1000
0000
0001
0100
0010
0000
1000
0000
0001
0000
0010
0100
1000
0000
,
0010
0000
1000
0000
0001
0010
0100
0000
0010
0000
0001
0000
1000
0010
0100
0000
,
0001
0000
0010
0000
0100
1000
0010
0000
0100
0000
0001
0000
1000
0100
0010
0000
,
0100
0000
1000
0000
0001
0100
0010
0000
1000
0000
0001
0000
0010
0100
1000
0000
,
0001
0000
0100
0000
0001
1000
0100
0000
0010
0000
0001
0000
0100
0010
1000
0100
,
0010
0100
1000
0100
0010
0100
1000
0100
0010
0100
1000
0100
0010
0100
1000
0001
,
0100
0000
0000
0000
0000
0000
0001
0000
0100
0000
0001
0000
0100
0000
0000
0000
0000
0000
0010
0000
0000
1000
0000
0000
0010
0000
0000
0000
0000
0000
0100
0000
0000
0000
0000
0000
0012
0000
0000
0000
0000
0000
0000
0000
0000
0000
0000
0000
,
0013
0000
0001
0000
1000
0010
0100
0000
0010
0000
1000
0000
0001
0010
0100
0000
,
0010
0000
0100
0000
1000
0001
0100
0000
0010
0000
0100
0000
0001
1000
0100
0000
,
0010
0000
0001
0000
1000
0010
0100
0000
0010
0000
1000
0000
0001
1000
0100
0000
,
0010
0000
0001
0000
1000
0010
0100
0000
0010
0000
1000
0000
0100
0010
0001
0000
,
0100
0000
0001
0000
1000
0100
0010
0000
0100
0000
1000
0000
0001
0100
0010
0000
,
0100
0000
0010
0000
1000
0001
0010
0000
0100
0000
1000
0000
0001
1000
0010
0000
,
0100
0000
0001
0000
1000
0100
0010
0000
0100
0000
1000
0000
0001
0100
0010
0000
,
0100
0000
0000
0000
0000
0000
0001
0000
0010
0000
0001
0000
0010
0000
0000
0000
0000
0000
0100
0000
0000
1000
0000
0000
0100
0000
0000
0000
0000
0000
1000
0000
0000
0000
0000
0000
2010
0000
0000
0000
0000
0000
0000
0000
0000
0000
0000
0000
,
3010
0000
0100
0000
0001
1000
0100
0000
0010
0000
0100
0000
1000
0001
0100
0000
,
0010
0000
1000
0000
0001
0010
0100
0000
1000
0000
0001
0000
0100
0010
1000
0000
,
0100
0000
1000
0000
0001
0100
0010
0000
0100
0000
0001
0000
1000
0100
0010
0000
,
0001
0000
0100
0000
0010
1000
0100
0000
0010
0000
0001
0000
1000
0010
0100
0000
,
0010
0000
1000
0000
0001
0010
0100
0000
1000
0000
0001
0000
0100
0010
1000
0000
,
0001
0000
0010
0000
0001
1000
0010
0000
0100
0000
0001
0000
0010
0100
1000
0010
,
0100
0010
1000
0010
0100
0010
1000
0010
0100
0010
1000
0010
0100
0010
1000
0001
,
0010
0000
0000
0000
0000
0000
0001
0000
0010
0000
0001
0000
0010
0000
0000
0000
0000
0000
0100
0000
0000
1000
0000
0000
0100
0000
0000
0000
0000
0000
0010
0000
0000
0000
0000
0000
0102
0000
0000
0000
0000
0000
0000
0000
0000
0000
0000
0000
,
1003
0100
1000
0001
0100
0010
1000
0001
1000
0100
1000
0001
0100
0010
1000
0001
,
1000
0100
1000
0010
0100
0010
1000
0001
1000
0100
1000
0010
0100
0010
1000
0001
,
0010
0100
0010
0001
0100
0010
0100
0001
0010
0100
0010
0001
0100
0010
0100
0001
,
1000
0100
1000
0010
0100
0010
0100
0001
0010
0100
0010
0001
1000
0001
0100
0001
,
1000
0100
1000
0010
0100
0010
1000
0001
1000
0100
1000
0010
0100
0010
1000
0001
,
0010
0100
0010
0001
1000
0010
1000
0001
0010
0100
0010
0001
1000
0010
1000
0001
,
0100
0010
1000
0100
0010
0100
1000
0001
0100
0010
1000
0100
0010
0100
1000
0001
,
0010
0000
0000
0000
0000
0000
0100
0000
1000
0000
0100
0000
1000
0000
0000
0000
0000
0000
0010
0000
0000
1000
0000
0000
0010
0000
0000
0000
0000
0000
0100
0000
0000
0000
0000
0000
0102
0000
0000
0000
0000
0000
0000
0000
0000
0000
0000
0000
,
1003
0100
1000
0001
0100
0010
1000
0001
1000
0100
1000
0001
0100
0010
1000
0001
,
1000
0100
1000
0010
0100
0010
1000
0001
1000
0100
1000
0010
0100
0010
1000
0001
,
0010
0100
0010
0001
0100
0010
0100
0001
0010
0100
0010
0001
0100
0010
0100
0001
,
1000
0100
1000
0010
0100
0010
0100
0001
0010
0100
0010
0001
1000
0001
0100
0001
,
1000
0100
1000
0010
0100
0010
1000
0001
1000
0100
1000
0010
0100
0010
1000
0001
,
0010
0100
0010
0001
1000
0010
1000
0001
0010
0100
0010
0001
1000
0010
1000
0001
,
0100
0010
0100
0001
1000
0100
0010
0001
0100
0010
0100
0001
1000
0100
0010
0001
,
0100
0000
0000
0000
0000
0000
0010
0000
1000
0000
0010
0000
1000
0000
0000
0000
0000
0000
0001
0000
0000
0100
0000
0000
0001
0000
0000
0000
0000
0000
0010
0000
0000
0000
0000
0000
2100
0000
0000
0000
0000
0000
0000
0000
0000
0000
0000
0000
,
3001
0000
1000
0000
0001
0010
0100
0000
0010
0000
0001
0000
1000
0010
0100
0000
,
0010
0000
0100
0000
0001
1000
0100
0000
0010
0000
0100
0000
1000
0001
0100
0000
,
0010
0000
1000
0000
0001
0010
0100
0000
0010
0000
0001
0000
1000
0001
0100
0000
,
0010
0000
1000
0000
0001
0010
0100
0000
0010
0000
0001
0000
0100
0010
1000
0000
,
0100
0000
1000
0000
0001
0100
0010
0000
0100
0000
0001
0000
1000
0100
0010
0000
,
0100
0000
0010
0000
0001
1000
0010
0000
0100
0000
0001
0000
1000
0001
0010
0000
,
0100
0000
1000
0000
0001
0100
0010
0000
0100
0000
0001
0000
1000
0100
0010
0000
,
0100
0000
0000
0000
0000
0000
1000
0000
0010
0000
1000
0000
0010
0000
0000
0000
0000
0000
0100
0000
0000
0001
0000
0000
0100
0000
0000
0000
0000
0000
0001
0000
0000
0000
0000
0000
0012
0000
0000
0000
0000
0000
0000
0000
0000
0000
0000
0000
,
1003
0000
0001
0000
1000
0100
0010
0000
0100
0000
1000
0000
0001
0100
0010
0000
,
0100
0000
0010
0000
1000
0001
0010
0000
0100
0000
0010
0000
0001
1000
0010
0000
,
0100
0000
0001
0000
1000
0100
0010
0000
0100
0000
1000
0000
0001
1000
0010
0000
,
0100
0000
0001
0000
1000
0100
0010
0000
0100
0000
1000
0000
0010
0100
0001
0000
,
0010
0000
0001
0000
1000
0010
0100
0000
0010
0000
1000
0000
0001
0010
0100
0000
,
0010
0000
0100
0000
1000
0001
0100
0000
0010
0000
1000
0000
0001
1000
0100
0000
,
0010
0000
0001
0000
1000
0010
0100
0000
0010
0000
1000
0000
0001
0010
0100
0000
,
0010
0000
0000
0000
0000
0000
0001
0000
0100
0000
0001
0000
0100
0000
0000
0000
0000
0000
0010
0000
0000
1000
0000
0000
0010
0000
0000
0000
0000
0000
1000
0000
0000
0000
0000
0000
2100
0000
0000
0000
0000
0000
0000
0000
0000
0000
0000
0000
,
3100
0010
0100
1000
0000
0001
0000
0100
,
0010
1000
0010
0100
0000
0000
0000
0000
,
0001
0010
0001
0100
0000
0010
0000
0100
,
0001
1000
0100
0010
0000
0100
1000
0010
,
0100
0010
1000
0010
0000
0100
0001
0010
,
0100
0010
0001
1000
0000
0010
1000
0100
,
1000
0010
0100
0001
0000
0100
0001
0010
,
1000
0010
0001
2000
0000
0000
0000
0000
,
3000
0000
0000
0000
,
0000
0000
0000
0000
,
0000
0000
0000
0000
,
0000
0000
0000
0000
,
0000
0000
0000
0000
,
MMMM
0000
0000
0000
;

//---------------dance-single - 13 (SMMaxX)----------------
#NOTES:
     dance-single:
     13 (SMMaxX):
     Easy:
     13:
     1.000,1.000,0.238,0.255,1.000,2597.000,82.000,88.000,27.000,0.000:
0000
0000
0000
0000
,
1000
0000
0001
0000
1001
0000
0000
0000
1000
0000
0000
0000
1001
0000
0001
0100
,
0010
0000
0100
0000
0110
0000
0000
0000
0010
0000
0000
0000
0110
0000
0100
0001
,
1000
0000
0100
0000
1100
0000
0000
0000
1000
0000
0000
0000
1100
0000
0100
0010
,
0001
0000
0100
0000
0101
0000
0000
0000
0100
0000
0000
0000
0101
0000
0001
0010
,
0200
0000
0310
0000
0110
0000
0000
0000
0100
0000
0000
0000
0110
0000
0010
0001
,
1000
0000
0010
0000
1010
0000
0000
0000
1000
0000
0000
0000
1010
0000
0010
0100
,
0001
0000
0010
0000
0011
0000
0000
0000
0010
0000
0000
0000
0011
0000
0001
0100
,
0010
0000
0000
0000
0000
0000
1000
0000
0010
0000
1000
0000
0010
0000
0000
0000
0000
0000
0100
0000
0000
0001
0000
0000
0100
0000
0000
0000
0000
0000
0010
0000
0000
0000
0000
0000
2100
0000
0000
0000
0000
0000
0000
0000
0000
0000
0000
0000
,
3100
0000
0010
0000
0110
0000
0000
0000
0100
0000
0000
0000
0110
0000
0010
0001
,
1000
0000
0001
0000
1001
0000
0000
0000
1000
0000
0000
0000
1001
0000
0001
0100
,
0010
0000
1000
0000
1010
0000
0000
0000
0010
0000
0000
0000
1010
0000
1000
0001
,
0010
0000
0001
0000
0011
0000
0000
0000
0010
0000
0000
0000
0011
0000
0001
1000
,
0020
0000
0130
0000
0110
0000
0000
0000
0010
0000
0000
0000
0110
0000
0100
0001
,
1000
0000
0100
0000
1100
0000
0000
0000
1000
0000
0000
0000
1100
0000
0100
0010
,
0001
0000
0100
0000
0101
0000
0000
0000
0001
0000
0000
0000
0101
0000
0100
0001
,
1000
0000
0000
0000
0000
0000
0001
0000
1000
0000
0001
0000
1000
0000
0000
0000
0000
0000
0001
0000
0000
0100
0000
0000
0001
0000
0000
0000
0000
0000
0010
0000
0000
0000
0000
0000
1200
0000
0000
0000
0000
0000
0000
0000
0000
0000
0000
0000
,
1300
0000
0001
0000
1001
0000
0000
0000
1000
0000
0000
0000
1001
0000
0001
0010
,
0100
0000
0010
0000
0110
0000
0000
0000
0100
0000
0000
0000
0110
0000
0010
0001
,
1000
0000
0010
0000
1010
0000
0000
0000
1000
0000
0000
0000
1010
0000
0010
0100
,
0001
0000
0010
0000
0011
0000
0000
0000
0010
0000
0000
0000
0011
0000
0001
0100
,
0020
0000
0130
0000
0110
0000
0000
0000
0010
0000
0000
0000
0110
0000
0100
0001
,
1000
0000
0100
0000
1100
0000
0000
0000
1000
0000
0000
0000
1100
0000
0100
0010
,
0001
0000
0100
0000
0101
0000
0000
0000
0100
0000
0000
0000
0101
0000
0001
0010
,
0100
0000
0000
0000
0000
0000
1000
0000
0100
0000
1000
0000
0100
0000
0000
0000
0000
0000
0010
0000
0000
0001
0000
0000
0010
0000
0000
0000
0000
0000
0100
0000
0000
0000
0000
0000
2010
0000
0000
0000
0000
0000
0000
0000
0000
0000
0000
0000
,
3010
0000
0100
0000
0110
0000
0000
0000
0010
0000
0000
0000
0110
0000
0100
0001
,
1000
0000
0001
0000
1001
0000
0000
0000
1000
0000
0000
0000
1001
0000
0001
0010
,
0100
0000
1000
0000
1100
0000
0000
0000
0100
0000
0000
0000
1100
0000
1000
0001
,
0100
0000
0001
0000
0101
0000
0000
0000
0100
0000
0000
0000
0101
0000
0001
1000
,
0200
0000
0310
0000
0110
0000
0000
0000
0100
0000
0000
0000
0110
0000
0010
0001
,
1000
0000
0010
0000
1010
0000
0000
0000
1000
0000
0000
0000
1010
0000
0010
0100
,
0001
1000
0100
0010
0001
0010
0100
1000
0001
1000
0010
0100
0010
1000
0001
0010
,
0100
1000
0001
0100
0001
0010
0100
0010
0001
1000
0001
0100
0010
0100
0001
1000
,
0100
M012
0M00
0M03
,
1M00
0010
0000
0010
000M
0010
0000
0000
M100
0001
00M0
0001
M000
0001
0M00
0000
,
M000
0000
0M00
0000
00M0
M000
000M
0M00
00M0
0M00
M000
000M
M000
00M0
0M00
000M
,
1000
0010
1000
0001
1000
0100
0010
0100
,
1000
0001
0100
0010
0100
0001
0010
0100
,
1000
0000
0001
0000
0200
0300
0001
0000
2000
3000
0100
0000
0020
0030
0001
0000
,
0020
0030
0001
0000
2000
3000
0001
0000
0200
0300
0010
0000
2000
3000
0100
0000
,
1100
1000
0001
0100
0010
1000
0100
1000
,
0001
0100
0001
1000
0100
0010
0001
0100
,
0001
0000
1000
0000
0200
0300
1000
0000
0002
0003
1000
0000
0020
0030
0100
0000
,
0020
0000
0000
0030
0000
0000
1000
0000
0010
0000
1000
0000
0010
0000
0000
0000
0000
0000
0100
0000
0000
0001
0000
0000
0100
0000
0000
0000
0000
0000
0010
0000
0000
0000
0000
0000
2100
0000
0000
0000
0000
0000
3001
0000
0000
0000
0000
0000
,
1001
0000
1000
0000
0010
0000
1000
0000
0001
0000
0010
0000
0001
0000
1000
0001
,
0100
0010
0100
0001
0010
0100
1000
0001
,
0100
0000
0001
0000
2000
3000
0100
0000
0020
0030
0001
0000
2000
3000
0010
1000
,
0002
0003
1000
0000
0002
0003
0010
0000
0200
0300
1000
0000
0020
0030
0100
0000
,
0101
0000
0001
0000
0010
0000
0001
0000
1000
0000
0010
0000
0100
0000
0001
0010
,
0100
1000
0100
1000
0001
0100
0010
1000
,
0100
0000
0010
0000
0002
0003
1000
0000
0020
0030
1000
0000
0002
0003
0100
0001
,
0020
0000
0000
0030
0000
0000
0001
0000
0010
0000
0001
0000
0010
0000
0000
0000
0000
0000
0100
0000
0000
1000
0000
0000
0100
0000
0000
0000
0000
0000
0010
0000
0000
0000
0000
0000
0102
0000
0000
0000
0000
0000
0103
0000
0000
0000
0000
0000
,
0010
1000
0010
0000
0100
0001
0100
0000
0001
0010
0001
0000
1000
0100
1000
0000
,
0001
1000
0001
0000
0100
0001
0100
0000
0001
0010
0001
0000
1000
0100
1000
0000
,
0010
0100
0010
0000
1000
0001
1000
0000
0100
0010
0100
0000
0010
0001
0010
0000
,
0001
1000
0001
0000
0100
0010
0100
0000
0010
1000
0010
0000
1000
0100
1000
0000
,
0001
1000
0001
0000
0010
0001
0010
0000
0100
0010
0100
0000
0010
0001
0010
0000
,
0100
1000
0100
0000
1000
0010
1000
0000
0001
0100
0001
0000
1000
0001
1000
0000
,
0100
0010
0100
1000
0001
0100
0010
1000
0100
0010
0100
1000
0010
0100
0001
1000
,
0100
1000
0010
0100
0001
1000
0100
1000
0010
0100
0001
0010
0100
1000
0001
0100
,
0010
0000
1000
0000
0001
0010
0100
0000
0010
0000
0001
0000
1000
0010
0100
0000
,
0010
0000
0100
0000
0001
1000
0100
0000
0010
0000
0100
0000
1000
0001
0100
0000
,
0010
0000
1000
0000
0001
0010
0100
0000
0010
0000
0001
0000
1000
0001
0100
0000
,
0010
0000
1000
0000
0001
0010
0100
0000
0010
0000
0001
0000
0100
0010
1000
0000
,
0100
0000
1000
0000
0001
0100
0010
0000
0100
0000
0001
0000
1000
0100
0010
0000
,
0100
0000
0010
0000
0001
1000
0010
0000
0100
0000
0001
0000
1000
0001
0010
0000
,
0100
0000
1000
0000
0001
0100
0010
0000
0100
0000
0001
0000
1000
0100
0010
0000
,
0100
0000
0000
0000
0000
0000
1000
0000
0010
0000
1000
0000
0010
0000
0000
0000
0000
0000
0100
0000
0000
0001
0000
0000
0100
0000
0000
0000
0000
0000
0001
0000
0000
0000
0000
0000
0012
0000
0000
0000
0000
0000
0000
0000
0000
0000
0000
0000
,
0013
0000
0100
0000
1000
0001
0100
0000
0010
0000
0100
0000
0001
1000
0100
0000
,
0010
0000
0001
0000
1000
0010
0100
0000
0001
0000
1000
0000
0100
0010
0001
0000
,
0100
0000
0001
0000
1000
0100
0010
0000
0100
0000
1000
0000
0001
0100
0010
0000
,
1000
0000
0100
0000
0010
0001
0100
0000
0010
0000
1000
0000
0001
0010
0100
0000
,
0010
0000
0001
0000
1000
0010
0100
0000
0001
0000
1000
0000
0100
0010
0001
0000
,
1000
0000
0010
0000
1000
0001
0010
0000
0100
0000
1000
0000
0010
0100
0001
0010
,
0100
0010
0001
0010
0100
0010
0001
0010
0100
0010
0001
0010
0100
0010
0001
1000
,
0010
0000
0000
0000
0000
0000
1000
0000
0010
0000
1000
0000
0010
0000
0000
0000
0000
0000
0100
0000
0000
0001
0000
0000
0100
0000
0000
0000
0000
0000
0010
0000
0000
0000
0000
0000
2100
0000
0000
0000
0000
0000
0000
0000
0000
0000
0000
0000
,
3001
1000
0100
0010
0100
0010
0001
0000
1000
0001
0100
0010
0100
0010
1000
0000
,
0001
1000
0100
0010
0100
0010
0001
0000
1000
0010
0100
0010
0100
0001
1000
0000
,
0100
0010
0001
0100
0001
0100
0010
0000
0100
0010
1000
0100
1000
0100
0010
0000
,
0100
1000
0010
0100
0010
0100
0001
0000
0001
0000
0000
1000
0000
0000
0001
0000
,
0010
0100
1000
0001
1000
0001
0100
0000
0010
0100
0001
1000
0001
1000
0100
0000
,
0010
0001
1000
0100
1000
0100
0010
0000
0001
1000
0001
0100
0001
0100
0010
0000
,
1000
0001
0010
0100
1000
0100
1000
0000
0001
1000
0010
0100
0001
0100
0001
0000
,
1000
0100
0010
0001
0010
0001
1000
0000
0010
0100
0001
0010
0100
0010
0001
0000
,
1000
0001
0100
0010
0100
0010
1000
0000
0001
1000
0100
0010
0100
0010
0001
0000
,
1000
0001
0100
0010
0100
0010
1000
0000
0001
0010
0100
0010
0100
1000
0001
0000
,
0100
0010
1000
0100
1000
0100
0010
0000
0100
0010
0001
0100
0001
0100
0010
0000
,
0100
0001
0010
0100
0010
0100
1000
0000
1000
0000
0000
0001
0000
0000
1000
0000
,
0010
0100
0001
1000
0001
1000
0100
0000
0010
0100
1000
0001
1000
0001
0100
0000
,
0010
1000
0001
0100
0001
0100
0010
0000
1000
0001
1000
0100
1000
0100
0010
0001
,
0010
0100
0010
0001
0010
0100
0010
0001
0010
0100
0010
0001
0010
0100
1000
0010
,
0100
0000
0110
1001
,
2000
0000
0000
0010
0000
0000
3001
0000
2000
0000
0000
0010
0000
0000
3001
0000
,
2000
0000
0000
0100
0000
0000
3001
0000
2000
0000
0000
0100
0000
0000
3001
0000
,
2000
0000
0000
0100
0000
0000
3010
0000
2000
0000
0000
0100
0000
0000
3010
0000
,
2000
0000
0000
0100
0000
0000
3010
0000
0010
0000
0000
0100
0000
0000
0001
0000
,
0002
0000
0000
0010
0000
0000
1003
0000
0002
0000
0000
0010
0000
0000
1003
0000
,
0002
0000
0000
0100
0000
0000
1003
0000
0002
0000
0000
0100
0000
0000
1003
0000
,
0002
0000
0000
0010
0000
0000
1003
0000
0002
0000
0000
0010
0000
0000
1003
0000
,
0002
0000
0000
0100
0000
0000
0013
0000
0002
0000
0000
1000
0000
0000
0013
0000
,
0110
0100
1000
0100
0010
0001
1000
0010
,
1000
0001
0010
0100
1000
0010
0100
0010
,
1000
0001
0010
0100
1000
0001
0100
0010
,
0100
0001
0010
0001
0100
0010
1000
0001
,
1000
0100
0010
0001
1000
0010
0100
0010
,
1000
0001
0010
0100
0010
0001
1000
0010
,
1000
0001
0010
0100
0010
0001
1000
0010
0100
0010
1000
0001
0100
0001
0010
0100
,
1000
0000
0000
0000
0000
0000
0100
0000
0010
0000
0100
0000
0010
0000
0000
0000
0000
0000
0001
0000
0000
1000
0000
0000
0001
0000
0000
0000
0000
0000
0100
0000
0000
0000
0000
0000
1020
0000
0000
0000
0000
0000
0000
0000
0000
0000
0000
0000
,
1030
0001
0010
0100
0010
0100
1000
0000
0001
1000
0010
0100
0010
0100
0001
0000
,
1000
0001
0010
0100
0010
0100
1000
0000
0001
0100
0010
0100
0010
1000
0001
0000
,
0010
0100
1000
0010
1000
0010
0100
0000
0010
0100
0001
0010
0001
0010
0100
0000
,
0010
0001
0100
0010
0100
0010
1000
0000
1000
0000
0000
0001
0000
0000
1000
0000
,
0100
0010
0001
1000
0001
1000
0010
0000
0100
0010
1000
0001
1000
0001
0010
0000
,
0100
1000
0001
0010
0001
0010
0100
0000
1000
0001
1000
0010
1000
0010
0100
0000
,
0001
1000
0100
0010
0001
0010
0001
0000
1000
0001
0100
0010
1000
0010
1000
0000
,
0001
0010
0100
1000
0100
1000
0001
0000
0100
0010
1000
0100
0010
0100
1000
0000
,
0001
1000
0010
0100
0010
0100
0001
0000
1000
0001
0010
0100
0010
0100
1000
0000
,
0001
1000
0010
0100
0010
0100
0001
0000
1000
0100
0010
0100
0010
0001
1000
0000
,
0010
0100
0001
0010
0001
0010
0100
0000
0010
0100
1000
0010
1000
0010
0100
0000
,
0010
1000
0100
0010
0100
0010
0001
0000
0001
0000
0000
1000
0000
0000
0001
0000
,
0100
0010
1000
0001
1000
0001
0010
0000
0100
0010
0001
1000
0001
1000
0010
0000
,
0100
0001
1000
0010
1000
0010
0100
0000
0001
1000
0001
0010
0001
0010
0100
0000
,
1000
0001
0010
0100
1000
0100
1000
0000
0001
1000
0010
0100
0001
0100
0001
0010
,
0100
0000
0000
0000
0000
0000
0010
0000
0001
0000
0010
0000
0001
0000
0000
0000
0000
0000
1000
0000
0000
0100
0000
0000
1000
0000
0000
0000
0000
0000
0010
0000
0000
0000
0000
0000
0102
0000
0000
0000
0000
0000
0000
0000
0000
0000
0000
0000
,
1003
0100
1000
0100
1000
0010
0100
0001
,
1000
0100
1000
0100
1000
0010
0100
0001
,
1000
0100
1000
0100
1000
0010
0100
0001
,
1000
0100
1000
0100
1000
0010
0100
0001
,
0010
0100
0010
0100
1000
0010
0100
0001
,
0010
0100
0010
0100
1000
0010
0100
0001
,
0010
0100
0010
0100
1000
0010
0100
0001
,
0010
0000
0000
0000
0000
0000
0100
0000
1000
0000
0100
0000
1000
0000
0000
0000
0000
0000
0001
0000
0000
0010
0000
0000
0001
0000
0000
0000
0000
0000
0100
0000
0000
0000
0000
0000
2010
0000
0000
0000
0000
0000
0000
0000
0000
3000
0000
0000
,
0001
0100
0001
0100
0001
0010
0100
1000
,
0001
0100
0001
0100
0001
0010
0100
1000
,
0001
0100
0001
0100
0001
0010
0100
1000
,
0001
0100
0001
0100
0001
0010
0100
1000
,
0010
0100
0010
0100
0001
0010
0100
1000
,
0010
0100
0010
0100
0001
0010
0100
1000
,
0010
1000
0001
1000
0100
0010
0100
1000
0001
0100
0010
1000
0010
0100
0001
1000
,
0010
0100
0010
0100
0001
0010
0100
1000
,
0010
0100
0010
0000
0100
0001
0100
0000
0001
1000
0001
0000
0010
0100
1000
0000
,
0001
1000
0001
0000
0100
0010
0100
0000
0010
1000
0010
0000
1000
0001
0010
0000
,
0100
0010
0100
0000
1000
0100
1000
0000
0001
0100
0001
0000
1000
0100
0010
0000
,
0001
0010
0001
0000
1000
0100
1000
0000
0001
0100
0001
0000
0010
0001
0100
0000
,
0010
1000
0010
0000
1000
0001
1000
0000
0100
1000
0100
0000
0010
0001
1000
0000
,
0001
0100
0001
0000
0100
0010
0100
0000
0001
0010
0001
0000
1000
0001
0010
0000
,
0100
1000
0100
0000
1000
0010
1000
0000
0001
0100
0001
0000
1000
0010
0100
0000
,
0001
0000
0000
0000
0000
0000
1000
0000
0100
0000
1000
0000
0100
0000
0000
0000
0000
0000
0010
0000
0000
0001
0000
0000
0010
0000
0000
0000
0000
0000
0100
0000
0000
0000
0000
0000
2010
0000
0000
0000
0000
0000
0000
0000
0000
3000
0000
0000
,
0010
0100
0010
0000
1000
0001
1000
0000
0100
1000
0100
0000
0010
0001
1000
0000
,
0001
0100
0001
0000
1000
0010
1000
0000
0010
0100
0010
0000
1000
0001
0010
0000
,
0100
1000
0100
0000
0010
0001
0010
0000
0001
0100
0001
0000
1000
0010
0100
0000
,
0001
1000
0001
0000
0100
0001
0100
0000
0010
1000
0010
0000
0100
0001
0010
0000
,
0100
1000
0100
0000
0010
0001
0010
0000
0001
1000
0001
0000
0100
0010
1000
0000
,
0100
0010
0100
0000
0010
0001
0010
0000
0001
1000
0001
0000
1000
0010
0100
0000
,
0001
0010
0001
0000
1000
0100
1000
0000
0010
1000
0010
0000
0100
0001
1000
0000
,
0010
0000
0000
0000
0000
0000
1000
0000
0001
0000
1000
0000
0001
0000
0000
0000
0000
0000
0010
0000
0000
0100
0000
0000
0010
0000
0000
0000
0000
0000
0100
0000
0000
0000
0000
0000
2010
0000
0000
0000
0000
0000
0000
0000
0000
3000
0000
0000
,
0010
0100
0010
0000
0100
0001
0100
0000
0001
1000
0001
0000
0010
0100
1000
0000
,
0001
1000
0001
0000
0100
0010
0100
0000
0010
1000
0010
0000
1000
0001
0010
0000
,
0100
0010
0100
0000
1000
0100
1000
0000
0001
0100
0001
0000
1000
0100
0010
0000
,
0001
0010
0001
0000
1000
0100
1000
0000
0001
0100
0001
0000
0010
0001
0100
0000
,
0010
1000
0010
0000
1000
0001
1000
0000
0100
1000
0100
0000
0010
0001
1000
0000
,
0001
0100
0001
0000
0100
0010
0100
0000
0001
0010
0001
0000
1000
0001
0010
0000
,
0100
1000
0100
0000
1000
0010
1000
0000
0001
0100
0001
0000
1000
0010
0100
0000
,
0001
0000
0000
0000
0000
0000
1000
0000
0100
0000
1000
0000
0100
0000
0000
0000
0000
0000
0010
0000
0000
0001
0000
0000
0010
0000
0000
0000
0000
0000
0100
0000
0000
0000
0000
0000
2010
0000
0000
0000
0000
0000
0000
0000
0000
3000
0000
0000
,
0001
0010
0001
0000
1000
0100
0010
0000
0100
1000
0100
0000
0010
0001
0100
0000
,
0010
1000
0010
0000
1000
0001
0010
0000
0100
1000
0100
0000
0010
0001
0100
0000
,
0010
0100
0010
0000
1000
0001
0010
0000
0100
1000
0100
0000
0010
0001
0100
0000
,
0010
1000
0010
0000
0100
0001
1000
0000
0100
0010
0100
0000
1000
0010
0100
0000
,
0010
1000
0010
0000
1000
0001
0010
0000
0100
1000
0100
0000
0010
0001
0100
0000
,
0010
1000
0010
0000
1000
0001
0010
0000
0100
1000
0100
0000
0010
0001
0100
0000
,
0001
0010
0001
1000
0100
0010
0001
1000
0010
0100
0001
0010
0100
0010
0001
1000
,
0020
0000
0000
0000
0000
0000
0000
0030
,
0220
0000
0000
0000
0000
0000
0000
0330
,
0002
0000
0000
0010
0000
0000
1003
0000
0002
0000
0000
0010
0000
0000
1003
0000
,
0002
0000
0000
0100
0000
0000
1003
0000
0002
0000
0000
0100
0000
0000
1003
0000
,
0002
0000
0000
0100
0000
0000
0013
0000
0002
0000
0000
0100
0000
0000
0013
0000
,
0002
0000
0000
0100
0000
0000
0013
0000
0010
0000
0000
0100
0000
0000
1000
0000
,
2000
0000
0000
0010
0000
0000
3001
0000
2000
0000
0000
0010
0000
0000
3001
0000
,
2000
0000
0000
0100
0000
0000
3001
0000
2000
0000
0000
0100
0000
0000
3001
0000
,
2000
0000
0000
0010
0000
0000
3001
0000
2000
0000
0000
0010
0000
0000
3001
0000
,
2000
0000
0000
0100
0000
0000
3010
0000
2000
0000
0000
3001
0010
0100
1000
0001
,
1000
0001
0100
0010
0000
0100
0000
0001
,
1000
0000
0100
0000
0010
0000
0001
0000
0000
0000
0000
1000
0010
0100
0001
1000
,
0001
1000
0100
0010
0000
0100
0000
1000
,
0001
0000
0100
0000
0001
0000
0010
0000
0010
0000
0000
0100
0000
0000
1000
0000
,
2000
0000
0000
0010
0000
0000
3001
0000
2000
0000
0000
0010
0000
0000
3001
0000
,
2000
0000
0000
0100
0000
0000
3001
0000
2000
0000
0000
0100
0000
0000
3001
0000
,
2000
0000
0000
0010
0000
0000
3001
0000
2000
0000
0000
0010
0000
0000
3001
0000
,
0100
0010
1000
0001
0010
0100
0010
0001
1000
0001
0100
0010
1000
0100
0010
0100
,
2000
0000
0000
0000
0000
0000
0000
0000
3000
0000
0000
0001
0010
0100
1000
0001
,
0100
0000
0001
0000
1000
0100
0010
0000
0100
0000
1000
0000
0001
0100
0010
0000
,
0100
0000
0010
0000
1000
0001
0010
0000
0100
0000
0010
0000
0001
1000
0010
0000
,
0100
0000
0001
0000
1000
0100
0010
0000
0100
0000
1000
0000
0001
1000
0010
0000
,
0100
0000
0001
0000
1000
0100
0010
0000
0100
0000
1000
0000
0010
0100
0001
0000
,
0010
0000
0001
0000
1000
0010
0100
0000
0010
0000
1000
0000
0001
0010
0100
0000
,
0010
0000
0100
0000
1000
0001
0100
0000
0010
0000
1000
0000
0001
1000
0100
0000
,
0010
0000
0001
0000
1000
0010
0100
0000
0010
0000
1000
0000
0001
0010
0100
0000
,
0010
0000
0000
0000
0000
0000
0001
0000
0100
0000
0001
0000
0100
0000
0000
0000
0000
0000
0010
0000
0000
1000
0000
0000
0010
0000
0000
0000
0000
0000
1000
0000
0000
0000
0000
0000
2100
0000
0000
0000
0000
0000
0000
0000
0000
0000
0000
0000
,
3100
0000
0010
0000
0001
1000
0010
0000
0100
0000
0010
0000
1000
0001
0010
0000
,
0100
0000
1000
0000
0001
0100
0010
0000
1000
0000
0001
0000
0010
0100
1000
0000
,
0010
0000
1000
0000
0001
0010
0100
0000
0010
0000
0001
0000
1000
0010
0100
0000
,
0001
0000
0010
0000
0100
1000
0010
0000
0100
0000
0001
0000
1000
0100
0010
0000
,
0100
0000
1000
0000
0001
0100
0010
0000
1000
0000
0001
0000
0010
0100
1000
0000
,
0001
0000
0100
0000
0001
1000
0100
0000
0010
0000
0001
0000
0100
0010
1000
0100
,
0010
0100
1000
0100
0010
0100
1000
0100
0010
0100
1000
0100
0010
0100
1000
0001
,
0100
0000
0000
0000
0000
0000
0001
0000
0100
0000
0001
0000
0100
0000
0000
0000
0000
0000
0010
0000
0000
1000
0000
0000
0010
0000
0000
0000
0000
0000
0100
0000
0000
0000
0000
0000
0012
0000
0000
0000
0000
0000
0000
0000
0000
0000
0000
0000
,
0013
0000
0001
0000
1000
0010
0100
0000
0010
0000
1000
0000
0001
0010
0100
0000
,
0010
0000
0100
0000
1000
0001
0100
0000
0010
0000
0100
0000
0001
1000
0100
0000
,
0010
0000
0001
0000
1000
0010
0100
0000
0010
0000
1000
0000
0001
1000
0100
0000
,
0010
0000
0001
0000
1000
0010
0100
0000
0010
0000
1000
0000
0100
0010
0001
0000
,
0100
0000
0001
0000
1000
0100
0010
0000
0100
0000
1000
0000
0001
0100
0010
0000
,
0100
0000
0010
0000
1000
0001
0010
0000
0100
0000
1000
0000
0001
1000
0010
0000
,
0100
0000
0001
0000
1000
0100
0010
0000
0100
0000
1000
0000
0001
0100
0010
0000
,
0100
0000
0000
0000
0000
0000
0001
0000
0010
0000
0001
0000
0010
0000
0000
0000
0000
0000
0100
0000
0000
1000
0000
0000
0100
0000
0000
0000
0000
0000
1000
0000
0000
0000
0000
0000
2010
0000
0000
0000
0000
0000
0000
0000
0000
0000
0000
0000
,
3010
0000
0100
0000
0001
1000
0100
0000
0010
0000
0100
0000
1000
0001
0100
0000
,
0010
0000
1000
0000
0001
0010
0100
0000
1000
0000
0001
0000
0100
0010
1000
0000
,
0100
0000
1000
0000
0001
0100
0010
0000
0100
0000
0001
0000
1000
0100
0010
0000
,
0001
0000
0100
0000
0010
1000
0100
0000
0010
0000
0001
0000
1000
0010
0100
0000
,
0010
0000
1000
0000
0001
0010
0100
0000
1000
0000
0001
0000
0100
0010
1000
0000
,
0001
0000
0010
0000
0001
1000
0010
0000
0100
0000
0001
0000
0010
0100
1000
0010
,
0100
0010
1000
0010
0100
0010
1000
0010
0100
0010
1000
0010
0100
0010
1000
0001
,
0010
0000
0000
0000
0000
0000
0001
0000
0010
0000
0001
0000
0010
0000
0000
0000
0000
0000
0100
0000
0000
1000
0000
0000
0100
0000
0000
0000
0000
0000
0010
0000
0000
0000
0000
0000
0102
0000
0000
0000
0000
0000
0000
0000
0000
0003
0000
0000
,
1000
0001
0010
0100
0010
0100
1000
0000
0001
1000
0010
0100
0010
0100
0001
0000
,
1000
0001
0010
0100
0010
0100
1000
0000
0001
0100
0010
0100
0010
1000
0001
0000
,
0010
0100
1000
0010
1000
0010
0100
0000
0010
0100
0001
0010
0001
0010
0100
0000
,
0010
0001
0100
0010
0100
0010
1000
0000
1000
0000
0000
0001
0000
0000
1000
0000
,
0100
0010
0001
1000
0001
1000
0010
0000
0100
0010
1000
0001
1000
0001
0010
0000
,
0100
1000
0001
0010
0001
0010
0100
0000
1000
0001
1000
0010
1000
0010
0100
0000
,
0001
1000
0100
0010
0001
0010
0001
0000
1000
0001
0100
0010
1000
0010
1000
0000
,
0001
0010
0100
1000
0100
1000
0001
0000
0100
0010
1000
0100
0010
0100
1000
0000
,
0001
1000
0010
0100
0010
0100
0001
0000
1000
0001
0010
0100
0010
0100
1000
0000
,
0001
1000
0010
0100
0010
0100
0001
0000
1000
0100
0010
0100
0010
0001
1000
0000
,
0010
0100
0001
0010
0001
0010
0100
0000
0010
0100
1000
0010
1000
0010
0100
0000
,
0010
1000
0100
0010
0100
0010
0001
0000
0001
0000
0000
1000
0000
0000
0001
0000
,
0100
0010
1000
0001
1000
0001
0010
0000
0100
0010
0001
1000
0001
1000
0010
0000
,
0100
0001
1000
0010
1000
0010
0100
0000
0001
1000
0001
0010
0001
0010
0100
0000
,
1000
0001
0100
0010
1000
0010
1000
0000
0001
1000
0100
0010
0001
0010
0001
0100
,
0010
0000
0000
0000
0000
0000
1000
0000
0010
0000
1000
0000
0010
0000
0000
0000
0000
0000
1000
0000
0000
0100
0000
0000
1000
0000
0000
0000
0000
0000
0100
0000
0000
0000
0000
0000
0012
0000
0000
0000
0000
0000
0000
0000
0000
0000
0000
0000
,
1003
0000
0001
0000
1000
0100
0010
0000
0100
0000
1000
0000
0001
0100
0010
0000
,
0100
0000
0010
0000
1000
0001
0010
0000
0100
0000
0010
0000
0001
1000
0010
0000
,
0100
0000
0001
0000
1000
0100
0010
0000
0100
0000
1000
0000
0001
1000
0010
0000
,
0100
0000
0001
0000
1000
0100
0010
0000
0100
0000
1000
0000
0010
0100
0001
0000
,
0010
0000
0001
0000
1000
0010
0100
0000
0010
0000
1000
0000
0001
0010
0100
0000
,
0010
0000
0100
0000
1000
0001
0100
0000
0010
0000
1000
0000
0001
1000
0100
0000
,
0010
0000
0001
0000
1000
0010
0100
0000
0010
0000
1000
0000
0001
0010
0100
0000
,
0010
0000
0000
0000
0000
0000
0001
0000
0100
0000
0001
0000
0100
0000
0000
0000
0000
0000
0010
0000
0000
1000
0000
0000
0010
0000
0000
0000
0000
0000
1000
0000
0000
0000
0000
0000
2100
0000
0000
0000
0000
0000
0000
0000
0000
0000
0000
0000
,
3001
0000
1000
0000
0001
0010
0100
0000
0010
0000
0001
0000
1000
0010
0100
0000
,
0010
0000
0100
0000
0001
1000
0100
0000
0010
0000
0100
0000
1000
0001
0100
0000
,
0010
0000
1000
0000
0001
0010
0100
0000
0010
0000
0001
0000
1000
0001
0100
0000
,
0010
0000
1000
0000
0001
0010
0100
0000
0010
0000
0001
0000
0100
0010
1000
0000
,
0100
0000
1000
0000
0001
0100
0010
0000
0100
0000
0001
0000
1000
0100
0010
0000
,
0100
0000
0010
0000
0001
1000
0010
0000
0100
0000
0001
0000
1000
0001
0010
0000
,
0100
0000
1000
0000
0001
0100
0010
0000
0100
0000
0001
0000
1000
0100
0010
0000
,
0100
0000
0000
0000
0000
0000
1000
0000
0010
0000
1000
0000
0010
0000
0000
0000
0000
0000
0100
0000
0000
0001
0000
0000
0100
0000
0000
0000
0000
0000
0001
0000
0000
0000
0000
0000
0012
0000
0000
0000
0000
0000
0000
0000
0000
0000
0000
0000
,
0013
0100
0010
0001
0000
1000
0000
0010
,
0100
0001
0100
0010
0000
0000
0000
0000
,
1000
0100
1000
0010
0000
0100
0000
0010
,
1000
0001
0010
0100
0000
0010
0001
0100
,
0010
0100
0001
0100
0000
0010
1000
0100
,
0010
0100
1000
0001
0000
0100
0001
0010
,
0001
0100
0010
1000
0000
0010
1000
0100
,
0001
0100
1000
0002
0000
0000
0000
0000
,
0003
0000
0000
0000
,
0000
0000
0000
0000
,
0000
0000
0000
0000
,
0000
0000
0000
0000
,
0000
0000
0000
0000
,
MMMM
0000
0000
0000
;
