#TITLE:Unlimited Spark!;
#SUBTITLE:-Stardust Mix-;
#ARTIST:t+pazolite;
#TITLETRANSLIT:;
#SUBTITLETRANSLIT:;
#ARTISTTRANSLIT:;
#CREDIT:;
#BANNER:../banner.png;
#BACKGROUND:../bg.png;
#LYRICSPATH:;
#CDTITLE:;
#MUSIC:Unlimited Spark.ogg;
#OFFSET:-0.063;
#SAMPLESTART:70.137;
#SAMPLELENGTH:20.960;
#SELECTABLE:YES;
#BPMS:0.000=184.960;
#STOPS:;
#BGCHANGES:;
// cache tags:
#FIRSTBEAT:16.000;
#LASTBEAT:602.875;
#SONGFILENAME:Songs/Cirque du Lykan/Unlimited Spark! - [Zaia]/Unlimited Spark.sm;
#HASMUSIC:1;
#HASBANNER:1;
#MUSICLENGTH:200.994;
// end cache tags

//---------------dance-single - Zaia - 14(high)----------------
#NOTES:
     dance-single:
     Zaia - 14(high):
     Challenge:
     14:
     1.000,1.000,0.363,0.438,1.000,1380.000,73.000,88.000,0.000,1.000:
0000
0000
0000
0000
,
0000
0000
0000
0000
,
0000
0000
0000
0000
,
0000
0000
0000
0000
,
1000
0100
0020
0000
0130
1000
0020
0000
,
0130
0001
0100
0010
1000
0001
0010
0100
,
2000
0000
3001
0200
0000
0000
0000
0300
,
0000
0002
0023
0230
,
1300
0100
0010
0002
0000
0103
0010
2000
,
0000
3100
1000
0010
0200
0000
0302
0000
,
0023
0000
0030
0001
2000
0000
0000
0000
,
0000
3020
0230
0302
,
1003
0100
0020
0000
0031
0100
0020
0000
,
1030
0001
0010
0001
0100
0010
1000
0100
,
0020
0000
0130
0200
0000
2300
0000
3002
,
0000
0000
0103
0001
2000
0000
3002
0000
,
0013
0100
1000
0002
0000
0103
0010
2000
,
0000
3100
0010
0001
2000
0000
3002
0000
,
0023
0000
0000
0130
0200
0000
0000
0300
,
0000
2000
3200
0320
,
2032
0000
3003
1001
1001
0000
0010
0000
,
2200
0000
3300
1100
1100
0000
0001
0000
,
0220
0000
0330
0110
0110
0000
0000
0000
,
2020
0000
3030
1010
1010
0000
0010
0000
,
2002
0000
3003
0110
0110
0000
0010
0000
,
2002
0000
3003
1100
1100
0000
0010
0000
,
0022
0000
0033
1100
1100
0000
1000
0000
,
2002
0000
3003
0110
0110
0000
1001
0000
,
0001
0100
0010
1000
0100
1000
0001
0010
,
0100
1000
0010
1000
0001
0010
0100
1000
,
0001
0100
0010
1000
0001
0010
0001
1000
,
0100
1000
0010
0100
0001
1000
0001
0010
,
0001
0100
0010
1000
0001
0100
0001
0010
,
0200
0000
1300
0010
0200
0000
0310
1000
,
0001
0100
0010
1000
0001
1000
0010
0100
0001
1000
0100
1000
0001
0010
0100
1000
,
0001
0100
0001
1000
0001
0010
0100
0010
0001
1000
0001
1000
0001
0010
0100
1000
,
0010
0100
0001
0000
0010
0100
1000
0002
,
0000
0000
0000
0000
0000
0103
0010
0100
,
0001
0010
0200
0000
1300
0001
1000
0020
,
0000
0000
0000
0230
0000
0301
0010
0100
,
1000
0100
0020
0000
0031
0100
0010
2000
,
0000
3100
1000
0010
0100
0001
0010
0100
,
2000
0000
0000
0000
3000
0000
0000
0100
,
0010
0001
1000
0020
0000
0130
0002
0000
,
1003
0100
0020
0000
0031
0100
0010
2000
,
0000
0000
0000
3000
0000
0100
1000
0010
,
1000
0100
0020
0000
0031
0100
0010
2000
,
0000
0000
0000
3002
0000
0013
0100
1000
,
0010
0100
0002
0000
0103
0010
1000
0002
,
0000
0013
0100
1000
0010
0100
0001
0010
,
0200
0000
0000
0000
0000
0300
0000
1000
,
0100
0010
0001
0100
0000
0001
1000
0000
,
0002
0000
0000
0000
,
0003
0000
0000
0000
,
1000
0100
0010
0001
0100
0001
1000
0001
0010
0100
1000
0001
1000
0010
0100
0010
,
1000
0001
0100
0010
1000
0100
1000
0001
1000
0010
0100
0001
1000
0001
0010
0100
,
1000
0010
0100
0001
0010
0001
1000
0001
0100
0010
1000
0001
1000
0100
0010
0100
,
1000
0001
0010
0100
1000
0010
1000
0001
1000
0100
0010
0001
1000
0001
0100
0010
,
1000
0100
0010
0100
1000
0001
1000
0010
1000
0001
0100
0001
1000
0100
0010
0001
,
0100
0010
0100
0001
1000
0001
0010
0100
1000
0001
0100
0001
1000
0100
1000
0010
,
0100
0001
1000
0001
0010
0100
0010
0001
0100
0010
1000
0001
1000
0100
1000
0001
,
0100
0010
1000
0010
1000
0100
0010
0001
0100
0001
0100
0010
1000
0100
1000
0010
,
0100
0001
0100
0001
0010
0001
1000
0001
0100
0010
1000
0001
1000
0100
0010
0100
,
1000
0001
0010
0100
1000
0010
1000
0001
1000
0100
0010
0001
1000
0001
0100
0010
,
1000
0100
0010
0001
0100
0001
1000
0001
0010
0100
1000
0001
1000
0010
0100
0010
,
1000
0001
0100
0010
1000
0100
1000
0001
1000
0010
0100
0001
1000
0001
0010
0100
,
1000
0010
0100
0010
1000
0001
1000
0100
1000
0001
0010
0001
1000
0010
0100
0001
,
0010
0100
0010
0001
1000
0001
0100
0010
1000
0001
0010
0001
1000
0010
1000
0100
,
0010
0001
1000
0001
0100
0010
0100
0001
0010
0100
1000
0001
1000
0010
1000
0001
,
0010
0100
1000
0100
1000
0010
0100
0001
0010
0001
0010
0100
1000
0010
1000
0001
,
0010
0100
1000
0010
1000
0001
1000
0100
0010
0001
1000
0001
0100
0010
0100
0001
,
1000
0010
0100
0001
0010
0001
1000
0001
0100
0010
1000
0001
1000
0100
0010
0001
,
0100
0010
1000
0100
1000
0001
1000
0010
0100
0001
1000
0001
0010
0100
0010
0001
,
1000
0100
0010
0001
0100
0001
1000
0001
0010
0100
1000
0001
1000
0010
0100
0001
,
0010
0100
0010
0001
1000
0001
0100
0001
1000
0010
1000
0001
0010
0100
1000
0010
,
0100
0010
1000
0001
1000
0100
0010
0001
1000
0010
1000
0001
0010
0001
0100
0010
,
1000
0001
1000
0100
0010
0100
1000
0010
0100
0001
1000
0001
0010
0001
1000
0010
,
0100
0001
0100
0001
0010
0100
1000
0010
1000
0010
0100
0001
0010
0001
0100
0010
,
1000
0010
1000
0100
1000
0001
1000
0010
0100
0001
1000
0001
0010
0100
0010
0001
,
1000
0100
0010
0001
0100
0001
1000
0001
0010
0100
1000
0001
1000
0010
0100
0001
,
0010
0100
1000
0010
1000
0001
1000
0100
0010
0001
1000
0001
0100
0010
0100
0001
,
1000
0010
0100
0001
0010
0001
1000
0001
0100
0010
1000
0001
1000
0100
0010
0001
,
0100
0010
0100
0001
1000
0001
0010
0001
1000
0100
1000
0001
0100
0010
1000
0100
,
0010
0100
1000
0001
1000
0010
0100
0001
1000
0100
1000
0001
0100
0001
0010
0100
,
1000
0001
1000
0010
0100
0010
1000
0100
0010
0001
1000
0001
0100
0001
1000
0100
,
0010
0001
0010
0001
0100
0010
1000
0100
1000
0100
0010
0001
0100
0001
1000
0100
,
0010
0001
1000
0010
1000
0010
0100
0001
,
0010
0100
1000
0100
0010
0001
0100
0010
,
1000
0001
0010
0001
1000
0010
0100
0001
,
1000
0001
1000
0100
0010
0100
1000
0010
,
0100
0001
0010
0100
0010
0001
0100
0010
,
1000
0100
1000
0010
0100
0001
0010
0001
,
1000
0010
0100
0001
0100
0010
0100
0001
,
1000
0100
0010
0100
1000
0001
0100
0010
,
1000
0010
0100
0000
0010
0100
0001
0010
,
0100
0010
0100
0010
0100
0010
0001
0100
,
0010
1000
0100
0000
0010
0001
1000
0002
,
0000
0000
0000
2003
0000
3001
1000
0001
,
0100
0000
0010
1000
0100
1000
0010
0100
,
0000
0001
1000
0100
0010
0001
1000
0001
,
0100
0010
0100
0010
0100
0010
0100
0001
,
1000
0100
1000
0001
0000
1000
0001
0100
,
0010
1010
0000
1001
0000
0011
0000
0110
,
0000
1100
0000
0011
0000
1010
0000
0101
,
0000
0110
0000
1001
0000
1100
0000
0011
,
0000
1001
0000
1010
0000
0101
0000
0011
,
0000
0110
0000
1100
0000
1001
0000
0101
,
0000
0110
0000
1010
0000
1100
0000
0011
,
0000
1001
0000
1100
0000
0101
0000
1010
,
0000
0011
0000
1100
0000
0110
0000
1001
,
0001
0100
0020
0000
0130
0001
1000
0200
,
0000
0000
0000
0300
0000
0010
0100
1000
,
0010
0100
0002
0000
1003
0100
0010
0002
,
0000
0000
0000
2003
0000
3100
0010
0100
,
2000
3000
0001
0100
0010
1000
0100
0020
,
0000
0130
1000
0001
0100
0010
1000
0001
,
1000
0100
0010
0001
1000
0001
0010
0100
1000
0001
0100
0001
1000
0010
0100
0001
,
1000
0100
1000
0001
1000
0010
0100
0010
1000
0001
1000
0001
1000
0010
0100
0001
,
0010
0000
0000
0011
0000
0000
1001
0000
0000
0000
1000
0000
0100
0000
0010
0000
,
0100
0000
1000
0000
0010
0000
0100
0002
0000
0003
1000
0000
0000
0000
0100
0000
,
1000
0000
0000
1001
0000
0000
0101
0000
0000
0000
0001
0000
0010
0000
0001
0000
,
1000
0000
0001
0000
0100
0000
0010
0000
1000
0010
1000
0001
1000
0000
0100
0000
,
0010
0000
0000
0011
0000
0000
0110
0000
0000
0000
0100
0000
1000
0000
0010
0000
,
0100
0000
0001
0000
0100
0000
0010
2000
0000
3000
0001
0000
1000
0000
0010
0000
,
0100
0000
0000
0110
0000
0000
1010
0000
0000
0000
1000
0000
0100
0000
1000
0000
,
0010
0000
1000
0000
0001
0000
0100
0000
0010
1000
0001
0100
0001
0010
0001
1000
,
0100
0000
0000
0011
0000
0000
0101
0000
0000
0000
0100
0000
0010
0000
1000
0000
,
0100
0000
1000
0000
0001
0000
0010
0200
0000
0300
1000
0000
0000
0000
0001
0000
,
0010
0000
0000
1100
0000
0000
1001
0000
0000
0000
0001
0000
0100
0000
0010
0000
,
1000
0000
0001
0000
0010
0000
0100
0000
1000
0001
0010
0001
1000
0000
0001
0000
,
0100
0000
0000
1010
0000
0000
1001
0000
0000
0000
1000
0000
0100
0000
0010
0000
,
0100
0000
1000
0000
0001
0000
1000
0020
0000
0030
0100
0000
0001
0000
1000
0000
,
0010
0000
0000
0110
0000
0000
1001
0000
0000
0000
0001
0000
0100
0000
0001
0000
,
0010
0001
0200
0320
0000
0230
0302
2003
,
3100
0010
0100
1000
0010
0100
0001
1000
0100
1000
0001
0100
0010
1000
0001
1000
,
0100
0010
0100
1000
0010
0100
0001
1000
0100
1000
0001
0100
0010
1000
0001
1000
,
0100
0010
0100
1000
0010
0100
0001
1000
0100
1000
0001
0100
0010
1000
0001
1000
,
0100
0010
0001
1000
0001
1000
0010
0100
0001
1000
0100
1000
0001
1000
0010
0100
,
0001
0010
0100
0010
0001
1000
0010
0100
0001
1000
0001
0010
0100
1000
0001
0100
,
0001
0010
0100
0010
0001
1000
0010
0100
0001
1000
0001
0010
0100
1000
0001
0100
,
0001
0010
0100
0010
0001
1000
0010
0100
0001
1000
0001
0010
0100
1000
0001
0100
,
0001
1000
0010
0100
0001
1000
0001
0010
0100
1000
0001
0100
0010
1000
0100
1000
,
0001
0100
0010
0100
0001
1000
0100
0010
0001
1000
0001
0100
0010
1000
0001
0010
,
0001
0100
0010
0100
0001
1000
0100
0010
0001
1000
0001
0100
0010
1000
0001
0010
,
0001
0100
0010
0100
0001
1000
0100
0010
0001
1000
0001
0100
0010
1000
0001
0010
,
0100
0010
0100
1000
0001
1000
0100
0010
0001
1000
0010
1000
0001
1000
0100
0010
,
0001
0100
0010
1000
0100
0010
0001
1000
0010
1000
0001
0010
0100
1000
0001
1000
,
0010
0100
0010
1000
0100
0010
0001
1000
0010
1000
0001
0010
0100
1000
0001
1000
,
0010
0100
0010
1000
0100
0010
0001
1000
0010
1000
0001
0010
0100
1000
0001
1000
,
0010
1000
0001
0010
0001
1000
0001
0100
0010
1000
0001
0010
0100
1000
0010
1000
,
0002
0000
0000
0000
0000
0000
0000
0000
0000
0000
0000
0000
0000
0000
0000
0000
0000
0000
0000
0000
0000
0000
0000
0003
0000
0000
0000
0000
0000
0000
0000
0000
;

//---------------dance-single - Zaia - 13(low-mid)----------------
#NOTES:
     dance-single:
     Zaia - 13(low-mid):
     Hard:
     13:
     1.000,1.000,0.363,0.507,0.881,1272.000,73.000,102.000,0.000,1.000:
0000
0000
0000
0000
,
0000
0000
0000
0000
,
0000
0000
0000
0000
,
0000
0000
0000
0000
,
1000
0100
0020
0000
0130
1000
0020
0000
,
0130
0001
0100
0010
1000
0001
0010
0100
,
2000
0000
3001
0200
0000
0000
0000
0300
,
0000
0002
0023
0230
,
1300
0100
0010
0002
0000
0103
0010
2000
,
0000
3100
1000
0010
0200
0000
0302
0000
,
0023
0000
0030
0001
2000
0000
0000
0000
,
0000
3020
0230
0302
,
1003
0100
0020
0000
0031
0100
0020
0000
,
1030
0001
0010
0001
0100
0010
1000
0100
,
0020
0000
0130
0200
0000
2300
0000
3002
,
0000
0000
0103
0001
2000
0000
3002
0000
,
0013
0100
1000
0002
0000
0103
0010
2000
,
0000
3100
0010
0001
2000
0000
3002
0000
,
0023
0000
0000
0130
0200
0000
0000
0300
,
0000
2000
3200
0320
,
2032
0000
3003
1001
1001
0000
0010
0000
,
2200
0000
3300
1100
1100
0000
0001
0000
,
0220
0000
0330
0110
0110
0000
0000
0000
,
2020
0000
3030
1010
1010
0000
0010
0000
,
2002
0000
3003
0110
0110
0000
0010
0000
,
2002
0000
3003
1100
1100
0000
0010
0000
,
0022
0000
0033
1100
1100
0000
1000
0000
,
2002
0000
3003
0110
0110
0000
1001
0000
,
0001
0100
0010
1000
0100
1000
0001
0010
,
0100
1000
0010
1000
0001
0010
0100
1000
,
0001
0100
0010
1000
0001
0010
0001
1000
,
0100
1000
0010
0100
0001
1000
0001
0010
,
0001
0100
0010
1000
0001
0100
0001
0010
,
0200
0000
1300
0010
0200
0000
0310
1000
,
0001
0100
0010
1000
0001
1000
0010
0100
0001
1000
0100
1000
0001
0010
0100
1000
,
0001
0100
0001
1000
0001
0010
0100
0010
0001
1000
0001
1000
0001
0010
0100
1000
,
0010
0100
0001
0000
0010
0100
1000
0002
,
0000
0000
0000
0000
0000
0103
0010
0100
,
0001
0010
0200
0000
1300
0001
1000
0020
,
0000
0000
0000
0230
0000
0301
0010
0100
,
1000
0100
0020
0000
0031
0100
0010
2000
,
0000
3100
1000
0010
0100
0001
0010
0100
,
2000
0000
0000
0000
3000
0000
0000
0100
,
0010
0001
1000
0020
0000
0130
0002
0000
,
1003
0100
0020
0000
0031
0100
0010
2000
,
0000
0000
0000
3000
0000
0100
1000
0010
,
1000
0100
0020
0000
0031
0100
0010
2000
,
0000
0000
0000
3002
0000
0013
0100
1000
,
0010
0100
0002
0000
0103
0010
1000
0002
,
0000
0013
0100
1000
0010
0100
0001
0010
,
0200
0000
0000
0000
0000
0300
0000
1000
,
0100
0010
0001
0100
0000
0001
1000
0000
,
0002
0000
0000
0000
,
0003
0000
0000
0000
,
1000
0100
0010
0001
1000
0100
1000
0001
0010
0100
0010
0001
1000
0100
0010
0001
,
1000
0010
0100
0001
1000
0001
0100
0010
0100
0001
1000
0010
0100
0001
1000
0001
,
1000
0100
0010
0100
1000
0001
0010
0100
0010
0001
1000
0100
0010
0001
0010
0100
,
1000
0001
0100
0001
1000
0010
0100
0010
1000
0001
0100
0010
1000
0010
0100
0001
,
1000
0100
1000
0001
0010
0100
1000
0001
1000
0100
0010
0001
1000
0100
1000
0001
,
1000
0010
0100
0001
1000
0001
0100
0010
0100
0001
1000
0010
0100
0001
1000
0001
,
0010
0100
0010
0001
1000
0100
0010
0100
1000
0001
0010
0100
1000
0001
1000
0001
,
0200
0000
0000
0000
0320
0000
0000
2030
0000
0000
3001
0000
1000
0000
0010
0000
,
0100
0001
1000
0001
0100
0010
0100
0001
1000
0001
1000
0010
0100
0001
1000
0001
,
1000
0100
0010
0100
1000
0001
0010
0100
0010
0001
1000
0100
0010
0001
1000
0100
,
1000
0001
0100
0001
1000
0010
0100
0010
1000
0001
0100
0010
1000
0001
1000
0100
,
1000
0001
0010
0100
0010
0001
1000
0100
0010
0001
1000
0001
0010
0100
1000
0001
,
0100
0010
0100
0001
1000
0010
0100
0010
1000
0001
0100
0010
1000
0001
0100
0001
,
1000
0100
0010
0100
1000
0001
0010
0100
1000
0100
0010
0001
1000
0100
1000
0001
,
1000
0010
0100
0001
1000
0001
0100
0010
1000
0010
0100
0010
1000
0001
1000
0001
,
0020
0000
0000
0230
0000
0000
2300
0000
0000
0000
3001
0000
0100
0000
0001
0000
,
1000
0010
0100
0001
1000
0010
1000
0001
0100
0010
0100
0001
1000
0010
0100
0001
,
1000
0100
0010
0001
1000
0001
0010
0100
0010
0001
1000
0100
0010
0001
1000
0001
,
1000
0010
0100
0010
1000
0001
0100
0010
0100
0001
1000
0010
0100
0001
0100
0010
,
1000
0001
0010
0001
1000
0100
0010
0100
1000
0001
0010
0100
1000
0100
0010
0001
,
1000
0010
1000
0001
0100
0010
1000
0001
1000
0010
0100
0001
1000
0010
1000
0001
,
1000
0100
0010
0001
1000
0001
0010
0100
0010
0001
1000
0100
0010
0001
1000
0001
,
0100
0010
0100
0001
1000
0010
0100
0010
1000
0001
0100
0010
1000
0001
1000
0001
,
0200
0000
0000
0000
0302
0000
0000
2003
0000
0000
3100
0000
1000
0000
0001
0000
,
0010
0001
1000
0001
0010
0100
0010
0001
1000
0001
1000
0100
0010
0001
1000
0001
,
1000
0010
0100
0010
1000
0001
0100
0010
0100
0001
1000
0010
0100
0001
1000
0010
,
1000
0001
0010
0001
1000
0100
0010
0100
1000
0001
0010
0100
1000
0001
1000
0010
,
1000
0001
0100
0010
0100
0001
1000
0010
0100
0001
1000
0001
0100
0010
1000
0001
,
0010
0100
0010
0001
1000
0100
0010
0100
1000
0001
0010
0100
1000
0001
0010
0001
,
1000
0010
0100
0010
1000
0001
0100
0010
1000
0010
0100
0001
1000
0010
1000
0001
,
1000
0100
0010
0001
1000
0001
0010
0100
1000
0100
0010
0100
1000
0001
1000
0001
,
0020
0000
0000
0032
0000
0000
0203
0000
0000
0000
0310
0000
1000
0000
0001
0000
,
0010
0001
1000
0010
1000
0010
0100
0001
,
0010
0100
1000
0100
0010
0001
0100
0010
,
1000
0001
0010
0001
1000
0010
0100
0001
,
1000
0001
1000
0100
0010
0100
1000
0010
,
0100
0001
0010
0100
0010
0001
0100
0010
,
1000
0100
1000
0010
0100
0001
0010
0001
,
1000
0010
0100
0001
0100
0010
0100
0001
,
1000
0100
0010
0100
1000
0001
0100
0010
,
1000
0010
0100
0000
0010
0100
0001
0010
,
0100
0010
0100
0010
0100
0010
0001
0100
,
0010
1000
0100
0000
0010
0001
1000
0002
,
0000
0000
0000
2003
0000
3001
1000
0001
,
0100
0000
0010
1000
0100
1000
0010
0100
,
0000
0001
1000
0100
0010
0001
1000
0001
,
0100
0010
0100
0010
0100
0010
0100
0001
,
1000
0100
1000
0001
0000
1000
0001
0100
,
0010
1010
0000
1001
0000
0011
0000
0110
,
0000
1100
0000
0011
0000
1010
0000
0101
,
0000
0110
0000
1001
0000
1100
0000
0011
,
0000
1001
0000
1010
0000
0101
0000
0011
,
0000
0110
0000
1100
0000
1001
0000
0101
,
0000
0110
0000
1010
0000
1100
0000
0011
,
0000
1001
0000
1100
0000
0101
0000
1010
,
0000
0011
0000
1100
0000
0110
0000
1001
,
0001
0100
0020
0000
0130
0001
1000
0200
,
0000
0000
0000
0300
0000
0010
0100
1000
,
0010
0100
0002
0000
1003
0100
0010
0002
,
0000
0000
0000
2003
0000
3100
0010
0100
,
2000
3000
0001
0100
0010
1000
0100
0020
,
0000
0130
1000
0001
0100
0010
1000
0001
,
1000
0100
0010
0001
1000
0001
0010
0100
1000
0001
0100
0001
1000
0010
0100
0001
,
1000
0100
1000
0001
1000
0010
0100
0010
1000
0001
1000
0001
1000
0010
0100
0001
,
0010
0000
0000
0011
0000
0000
1001
0000
0000
0000
1000
0000
0100
0000
0010
0000
,
0100
0000
1000
0000
0010
0000
0100
0002
0000
0003
1000
0000
0000
0000
0100
0000
,
1000
0000
0000
1001
0000
0000
0101
0000
0000
0000
0001
0000
0010
0000
0001
0000
,
1000
0000
0001
0000
0100
0000
0010
0000
1000
0010
1000
0001
1000
0000
0100
0000
,
0010
0000
0000
0011
0000
0000
0110
0000
0000
0000
0100
0000
1000
0000
0010
0000
,
0100
0000
0001
0000
0100
0000
0010
2000
0000
3000
0001
0000
1000
0000
0010
0000
,
0100
0000
0000
0110
0000
0000
1010
0000
0000
0000
1000
0000
0100
0000
1000
0000
,
0010
0000
1000
0000
0001
0000
0100
0000
0010
1000
0001
0100
0001
0010
0001
1000
,
0100
0000
0000
0011
0000
0000
0101
0000
0000
0000
0100
0000
0010
0000
1000
0000
,
0100
0000
1000
0000
0001
0000
0010
0200
0000
0300
1000
0000
0000
0000
0001
0000
,
0010
0000
0000
1100
0000
0000
1001
0000
0000
0000
0001
0000
0100
0000
0010
0000
,
1000
0000
0001
0000
0010
0000
0100
0000
1000
0001
0010
0001
1000
0000
0001
0000
,
0100
0000
0000
1010
0000
0000
1001
0000
0000
0000
1000
0000
0100
0000
0010
0000
,
0100
0000
1000
0000
0001
0000
1000
0020
0000
0030
0100
0000
0001
0000
1000
0000
,
0010
0000
0000
0110
0000
0000
1001
0000
0000
0000
0001
0000
0100
0000
0001
0000
,
0010
0001
0200
0320
0000
0230
0302
2003
,
3100
0000
0000
0010
0000
0000
0001
0000
0000
0000
1000
0000
0010
0000
0100
0000
,
0001
0000
1000
0000
0010
0000
0100
0002
0000
0003
1000
0000
0001
0000
0010
0000
,
0100
0000
0000
0010
0000
0000
0001
0000
0000
0000
0100
0000
0010
0000
1000
0000
,
0001
0000
1000
0000
0001
0000
1000
0000
0010
1000
0100
1000
0001
0000
0100
0000
,
0010
0000
0000
0100
0000
0000
0001
0000
0000
0000
1000
0000
0100
0000
0010
0000
,
0001
0000
1000
0000
0010
0000
1000
0002
0000
0003
0100
0000
0001
0000
0010
0000
,
0100
0000
0000
0010
0000
0000
0001
0000
0000
0000
0010
0000
0100
0000
1000
0000
,
0001
0000
1000
0000
0001
0000
1000
0000
0100
1000
0010
1000
0001
0000
0010
0000
,
0100
1000
0100
1000
0001
1000
0001
1000
0001
0100
0001
0100
0010
0100
0010
0100
,
0010
1000
0010
1000
0001
0100
0001
0100
0001
0010
0001
0010
0100
1000
0100
1000
,
0100
0010
0100
0010
0001
1000
0001
1000
0010
0100
0010
0100
0001
0100
0001
0100
,
0010
1000
0010
1000
0001
1000
0001
1000
0001
0010
0001
0010
0100
1000
0100
1000
,
0001
0100
0001
0100
0010
1000
0010
1000
0010
0100
0010
0100
0001
1000
0001
1000
,
0100
0010
0100
0010
0001
0010
0001
0010
0100
1000
0100
1000
0001
1000
0001
1000
,
0010
1000
0010
1000
0001
0100
0001
0100
0001
1000
0001
1000
0100
1000
0100
1000
,
0010
1000
0010
1000
0001
0100
0001
0100
0010
0100
0010
0100
0001
1000
0001
1000
,
0002
0000
0000
0000
0000
0000
0000
0000
0000
0000
0000
0000
0000
0000
0000
0000
0000
0000
0000
0000
0000
0000
0000
0003
0000
0000
0000
0000
0000
0000
0000
0000
;

//---------------dance-single - Zaia - 10(mid)----------------
#NOTES:
     dance-single:
     Zaia - 10(mid):
     Medium:
     10:
     0.799,0.787,0.363,0.468,0.070,957.000,73.000,94.000,0.000,1.000:
0000
0000
0000
0000
,
0000
0000
0000
0000
,
0000
0000
0000
0000
,
0000
0000
0000
0000
,
1000
0100
0020
0000
0130
1000
0020
0000
,
0130
0001
0100
0010
1000
0001
0010
0100
,
2000
0000
3001
0200
0000
0000
0000
0300
,
0000
0002
0023
0230
,
1300
0100
0010
0002
0000
0103
0010
2000
,
0000
3100
1000
0010
0200
0000
0302
0000
,
0023
0000
0030
0001
2000
0000
0000
0000
,
0000
3020
0230
0302
,
1003
0100
0020
0000
0031
0100
0020
0000
,
1030
0001
0010
0001
0100
0010
1000
0100
,
0020
0000
0130
0200
0000
2300
0000
3002
,
0000
0000
0103
0001
2000
0000
3002
0000
,
0013
0100
1000
0002
0000
0103
0010
2000
,
0000
3100
0010
0001
2000
0000
3002
0000
,
0023
0000
0000
0130
0200
0000
0000
0300
,
0000
2000
3200
0320
,
2032
0000
3003
1001
1001
0000
0010
0000
,
2200
0000
3300
1100
1100
0000
0001
0000
,
0220
0000
0330
0110
0110
0000
0000
0000
,
2020
0000
3030
1010
1010
0000
0010
0000
,
2002
0000
3003
0110
0110
0000
0010
0000
,
2002
0000
3003
1100
1100
0000
0010
0000
,
0022
0000
0033
1100
1100
0000
1000
0000
,
2002
0000
3003
0110
0110
0000
1001
0000
,
0001
0100
0010
1000
0100
1000
0001
0010
,
0100
1000
0010
1000
0001
0010
0100
1000
,
0001
0100
0010
1000
0001
0010
0001
1000
,
0100
1000
0010
0100
0001
1000
0001
0010
,
0001
0100
0010
1000
0001
0100
0001
0010
,
0200
0000
1300
0010
0200
0000
0310
1000
,
0001
0100
0010
1000
0100
0010
0100
1000
,
0001
0001
0001
0200
0000
0320
2030
3200
,
0310
0100
1000
0000
0100
0010
0001
2000
,
0000
0000
0000
0000
0000
3010
0100
0010
,
1000
0100
0020
0000
0031
1000
0001
0200
,
0000
0000
0000
0320
0000
1030
0100
0010
,
0001
0010
0200
0000
1300
0010
0100
0002
,
0000
0013
0001
0100
0010
1000
0100
0010
,
0002
0000
0000
0000
0003
0000
0000
0010
,
0100
1000
0001
0200
0000
0310
2000
0000
,
3001
0010
0200
0000
1300
0010
0100
0002
,
0000
0000
0000
0003
0000
0010
0001
0100
,
0001
0010
0200
0000
1300
0010
0100
0002
,
0000
0000
0000
2003
0000
3100
0010
0001
,
0100
0010
2000
0000
3010
0100
0001
2000
,
0000
3100
0010
0001
0100
0010
1000
0100
,
0020
0000
0000
0000
0000
0030
0000
0001
,
0010
0100
1000
0010
0000
1000
0001
0000
,
2000
0000
0000
0000
,
3000
0000
0000
0000
,
0001
0100
0010
0100
0001
0100
0010
0100
,
0001
0010
0100
1000
0100
0010
0100
1000
,
0001
1000
0010
1000
0001
1000
0010
1000
,
0001
0010
0100
0010
0001
0010
0100
0010
,
0001
0100
0010
1000
0010
0100
0010
1000
,
0001
0010
0001
1000
0001
0010
0001
1000
,
0001
0100
0010
0100
0001
1000
0100
0010
,
0100
1000
0001
1000
0001
0100
0010
0100
,
0001
1000
0001
0010
0100
1000
0001
1000
,
0010
0100
0001
0100
0010
0100
0001
0100
,
0010
1000
0100
0010
0100
1000
0100
0010
,
0001
0100
0010
1000
0010
0100
0010
1000
,
0001
0010
0100
1000
0010
0100
0010
1000
,
0100
0010
0001
0010
0100
0010
0001
0100
,
0010
1000
0100
1000
0010
1000
0100
1000
,
0010
0100
0001
0010
0100
0010
0001
0100
,
0001
0010
0100
0010
0001
0010
0100
0010
,
0001
0100
0010
1000
0010
0100
0010
1000
,
0001
1000
0100
1000
0001
1000
0100
1000
,
0001
0100
0010
0100
0001
0100
0010
0100
,
0001
0010
0100
1000
0100
0010
0100
1000
,
0001
0100
0001
1000
0001
0100
0001
1000
,
0001
0010
0100
0010
0001
1000
0010
0100
,
0010
1000
0001
1000
0001
0010
0100
0010
,
0001
1000
0001
0100
0010
1000
0001
1000
,
0100
0010
0001
0010
0100
0010
0001
0010
,
0100
1000
0010
0100
0010
1000
0010
0100
,
0001
0010
0100
1000
0100
0010
0100
1000
,
0001
0100
0010
1000
0100
0010
0100
1000
,
0010
0100
0001
0100
0010
0100
0001
0010
,
0100
1000
0010
1000
0100
1000
0010
1000
,
0100
0010
0001
0100
0010
0100
0001
1000
,
0100
1000
0001
0010
0001
0100
0010
1000
,
0100
0010
0001
0010
0100
1000
0010
0100
,
0001
1000
0100
1000
0001
0100
0010
1000
,
0001
1000
0001
0010
0100
0010
0001
0100
,
0010
1000
0100
0010
0100
1000
0010
0100
,
0001
0010
0001
0100
0010
1000
0100
1000
,
0001
0100
0010
1000
0010
0100
0010
1000
,
0001
0010
0100
0010
0001
1000
0010
0100
,
0001
0100
0010
0000
0100
0010
1000
0100
,
0010
0100
0010
0100
0010
0100
1000
0010
,
0100
0001
0010
0000
0100
1000
0001
2000
,
0000
0000
0000
3002
0000
1003
0001
1000
,
0010
0000
0100
0001
0010
0001
0100
0010
,
0000
1000
0001
0010
0100
1000
0001
1000
,
0010
0100
0010
0100
0010
0100
0010
1000
,
0001
0010
0001
1000
0000
0001
1000
0010
,
0100
0101
0000
1001
0000
1100
0000
0110
,
0000
0011
0000
1100
0000
0101
0000
1010
,
0000
0110
0000
1001
0000
0011
0000
1100
,
0000
1001
0000
0101
0000
1010
0000
1100
,
0000
0110
0000
0011
0000
1001
0000
1010
,
0000
0110
0000
0101
0000
0011
0000
1100
,
0000
1001
0000
0011
0000
1010
0000
0101
,
0000
1100
0000
0011
0000
0110
0000
1001
,
1000
0010
0200
0000
0310
1000
0001
0020
,
0000
0000
0000
0030
0000
0100
0010
0001
,
0100
0010
2000
0000
3001
0010
0100
2000
,
0000
0000
0000
3002
0000
0013
0100
0010
,
0002
0003
1000
0010
0100
0001
0010
0200
,
0000
0310
0001
1000
0010
0100
0001
1000
,
0001
0100
0010
0100
0001
0010
0100
1000
,
0010
0100
0010
1000
0100
0010
0001
1000
,
0100
0000
0000
1100
0000
0000
1001
0000
0000
0000
0001
0000
0010
0000
0100
0000
,
0010
0000
0001
0000
0100
0000
0010
2000
0000
3000
0001
0000
0000
0000
0010
0000
,
0001
0000
0000
1001
0000
0000
1010
0000
0000
0000
1000
0000
0100
0000
1000
0000
,
0001
0000
1000
0000
0010
0000
0100
0000
0001
0100
0001
1000
0001
0000
0010
0000
,
0100
0000
0000
1100
0000
0000
0110
0000
0000
0000
0010
0000
0001
0000
0100
0000
,
0010
0000
1000
0000
0010
0000
0100
0002
0000
0003
1000
0000
0001
0000
0100
0000
,
0010
0000
0000
0110
0000
0000
0101
0000
0000
0000
0001
0000
0010
0000
0001
0000
,
0100
0000
0001
0000
1000
0000
0010
0000
0100
0001
1000
0001
1000
0000
0100
0000
,
1000
0000
0000
1100
0000
0000
1010
0000
0000
0000
0010
0000
0100
0000
0001
0000
,
0010
0000
0001
0000
1000
0000
0100
0020
0000
0030
0001
0000
0000
0000
1000
0000
,
0100
0000
0000
0011
0000
0000
1001
0000
0000
0000
1000
0000
0010
0000
0100
0000
,
0001
0000
1000
0000
0100
0000
0010
0000
0001
1000
0100
1000
0001
0000
1000
0000
,
0010
0000
0000
0101
0000
0000
1001
0000
0000
0000
0001
0000
0010
0000
0100
0000
,
0010
0000
0001
0000
1000
0000
0001
0200
0000
0300
0010
0000
1000
0000
0001
0000
,
0100
0000
0000
0110
0000
0000
1001
0000
0000
0000
1000
0000
0010
0000
1000
0000
,
0100
1000
0020
0230
0000
0320
2030
3002
,
0013
0000
0000
0100
0000
0000
1000
0000
0000
0000
0001
0000
0100
0000
0010
0000
,
1000
0000
0001
0000
0100
0000
0010
2000
0000
3000
0001
0000
1000
0000
0100
0000
,
0010
0000
0000
0100
0000
0000
1000
0000
0000
0000
0010
0000
0100
0000
0001
0000
,
1000
0000
0001
0000
1000
0000
0001
0000
0100
0001
0100
0001
1000
0000
0010
0000
,
0100
0000
0000
0010
0000
0000
1000
0000
0000
0000
0001
0000
0010
0000
0100
0000
,
1000
0000
0001
0000
0100
0000
0001
2000
0000
3000
0010
0000
1000
0000
0100
0000
,
0010
0000
0000
0100
0000
0000
1000
0000
0000
0000
0100
0000
0010
0000
0001
0000
,
1000
0000
0001
0000
1000
0000
0001
0000
0010
0001
0100
0001
1000
0000
0100
0000
,
0010
0001
0010
0001
1000
0001
1000
0001
,
1000
0010
1000
0010
0100
0001
0100
0001
,
0010
0001
0010
0001
1000
0100
1000
0100
,
1000
0001
1000
0001
0010
0100
0010
0100
,
1000
0100
1000
0100
0010
0001
0010
0001
,
0100
0001
0100
0001
1000
0010
1000
0010
,
1000
0100
1000
0100
1000
0001
1000
0001
,
0010
0001
0010
0001
0010
0100
0010
0100
,
2000
0000
0000
0000
0000
0000
0000
0000
0000
0000
0000
0000
0000
0000
0000
0000
0000
0000
0000
0000
0000
0000
0000
3000
0000
0000
0000
0000
0000
0000
0000
0000
;
