#TITLE:G2;
#SUBTITLE:;
#ARTIST:AYA;
#TITLETRANSLIT:;
#SUBTITLETRANSLIT:;
#ARTISTTRANSLIT:;
#CREDIT:;
#BANNER:G2.png;
#BACKGROUND:G2-bg.png;
#LYRICSPATH:;
#CDTITLE:!toph-cdtitle.png;
#MUSIC:Aya - G2.mp3;
#OFFSET:-0.089;
#SAMPLESTART:46.560;
#SAMPLELENGTH:12.000;
#SELECTABLE:YES;
#BPMS:0.000=170.000;
#STOPS:64.000=0.700
,126.000=0.700
;
#BGCHANGES:;
// cache tags:
#FIRSTBEAT:4.000;
#LASTBEAT:321.000;
#SONGFILENAME:Songs/StepmaniaFreak's Favorites/G2/G2.sm;
#HASMUSIC:1;
#HASBANNER:1;
#MUSICLENGTH:123.983;
// end cache tags

//---------------dance-single - ----------------
#NOTES:
     dance-single:
     :
     Easy:
     6:
     0.472,0.485,0.500,0.081,0.073,338.000,62.000,10.000,0.000,0.000:
0000
0000
0000
0000
,
2000
0010
0000
0000
,
0000
0000
0000
0000
,
0000
0000
0000
0000
,
0000
0000
0000
0000
,
3002
0010
0000
0000
,
0000
0000
0000
0000
,
0203
0000
0000
0000
,
0000
0000
0000
0000
,
0301
0001
1000
0001
0010
0000
0010
0000
,
0000
0000
0000
0000
,
0100
0100
1000
0100
0010
0000
0010
0000
,
0000
0000
0000
0000
,
0001
0001
0100
0001
1000
0000
1000
0000
,
0000
0000
0000
0000
,
0100
0100
0010
0100
1000
0000
1000
0000
,
2002
3003
0100
1010
,
0001
0110
1000
0101
,
0010
1001
0100
0011
,
1000
0110
0001
1010
,
0100
1001
0010
1100
,
0001
0110
1000
0101
,
0010
1001
0100
0011
,
1000
0110
0001
1010
,
0100
1001
0010
1100
,
0001
0110
1000
0101
,
0010
1001
0100
0011
,
1000
0110
0001
1100
,
0010
1001
0100
1001
,
0010
0101
1000
0110
,
0001
1100
0010
0101
,
1000
0110
2002
3003
,
1000
0100
0010
0000
0001
0000
1000
0000
,
0001
0100
0010
0000
1000
0100
0010
0000
,
0001
1000
0010
0000
0100
0000
0001
0000
,
1000
0100
0010
0000
0001
1000
0001
1000
,
0010
0100
0001
0000
1100
0000
0101
0000
,
0010
1000
0001
0000
0011
0000
1100
0000
,
0001
0100
0010
0000
1001
0000
0110
0000
,
1000
0100
0010
0000
0001
0200
0000
0300
,
0010
1000
0001
0000
0010
0000
0100
0000
,
1000
0001
0100
0000
0010
1000
0001
0000
,
0010
0100
1000
0000
0001
0000
0100
0000
,
0010
1000
0001
0000
0010
0100
0010
0100
,
1000
0001
0100
0000
1001
0000
1100
0000
,
0010
1000
0001
0000
1010
0000
0101
0000
,
0010
0100
1000
0000
1001
0000
0110
0000
,
1000
0000
0000
1000
0000
0000
1000
0000
0000
1000
0000
0000
1000
0000
0000
0000
,
0001
0000
1010
0000
0001
1000
0010
0000
,
1000
0000
0011
0000
1000
0001
0010
0000
,
0001
0000
0110
0000
1000
0100
0010
0000
,
1000
0000
0110
0000
0001
0100
0010
0000
,
0100
0000
1001
0000
0010
0100
0001
0000
,
0100
0000
1001
0000
0010
0100
1000
0000
,
0001
0000
0110
0000
0001
0100
0010
0000
,
1000
0000
0110
0000
1000
0100
0010
0000
,
0100
0000
0011
0000
0100
0010
0001
0000
,
0100
0000
1010
0000
0100
0010
1000
0000
,
0001
0000
1100
0000
1000
0001
0100
0000
,
1000
0000
0101
0000
0001
1000
0100
0000
,
0010
0000
0101
0000
0010
0001
0100
0000
,
0010
0000
1100
0000
0010
1000
0100
0000
,
0010
0000
1001
0000
0010
0100
1000
0000
,
0010
0000
1001
0000
0010
0100
0001
0000
,
1001
0001
0001
0001
,
0001
0001
0001
0001
,
1000
0010
0100
0001
,
0010
0100
1000
0001
,
1000
0010
1000
0100
,
0010
0001
0100
0010
,
1000
0001
1000
0010
,
1000
0000
0100
0000
1000
0000
0010
0100
,
0001
0000
0000
0000
1000
0000
0000
0100
0000
1000
0100
0000
1000
0000
0000
0000
,
0001
0000
0000
0000
0100
0000
0000
0001
0000
0100
0001
0000
0100
0000
0000
0000
,
0010
0000
0000
0000
1000
0000
0000
0010
0000
1000
0010
0000
1000
0000
0000
0000
,
0001
0000
0000
0000
0010
0000
0000
0001
0000
0010
0001
0000
0010
0000
0000
0000
,
0100
0000
0000
0000
1000
0000
0000
0001
0000
0100
0001
0000
0100
0000
0000
0000
,
0010
0000
0000
0000
1000
0000
0000
0001
0000
1000
0001
0000
1000
0000
0000
0000
,
0100
0000
0000
0000
0010
0000
0000
0100
0000
0010
0100
0000
0010
0000
0000
0000
,
0001
0000
0000
0000
0100
0000
0000
0010
0000
1000
0001
0000
2002
0000
0000
0000
,
0000
3003
0000
0000
;

//---------------dance-single - ----------------
#NOTES:
     dance-single:
     :
     Medium:
     9:
     0.639,0.680,0.169,0.016,0.355,532.000,21.000,2.000,0.000,0.000:
0000
0000
0000
0000
,
1000
0000
0000
1000
0000
1000
0100
0000
,
0000
0100
0000
0100
0010
0000
0001
0000
,
1000
0000
0000
1000
0000
1000
0100
0000
,
0000
0100
0000
0100
0010
0000
0001
0000
,
1000
0000
0000
1000
0000
1000
0010
0000
,
0000
0010
0000
0010
0100
0000
0001
0000
,
1000
0000
0000
1000
0000
1000
0100
0000
,
0000
0100
0000
0100
0010
0000
0001
0000
,
1000
0000
0000
1000
0000
1000
0010
0000
,
0000
0010
0000
0010
0100
0000
0001
0000
,
0010
0000
0000
0010
0000
0010
0100
0000
,
0000
0100
0000
0100
1000
0000
0001
0000
,
0100
0000
0000
0100
0000
0100
0010
0000
,
0000
1000
0000
1000
0100
0000
0010
0000
,
0001
0000
0000
0001
0000
0001
0100
0000
,
1001
0000
0001
0000
1000
0000
0000
0000
0100
0000
0100
0000
0010
0000
0000
0001
,
0000
0001
0100
0000
0010
0000
1000
0000
0001
0000
0001
0000
0010
0000
0000
0100
,
0000
0100
1000
0000
0010
0000
0100
0000
0001
0000
0001
0000
1000
0000
0000
0100
,
0000
0100
0010
0000
0001
0000
0100
0000
0010
0000
0010
0000
1000
0000
0000
0100
,
0000
0100
0010
0000
0001
0000
0100
0000
0010
0000
0010
0000
1000
0000
0000
0001
,
0000
0001
0010
0000
0100
0000
1000
0000
0001
0000
0001
0000
0100
0000
0000
0010
,
0000
0010
1000
0000
0100
0000
0010
0000
0100
0000
0100
0000
1000
0000
0000
0010
,
0000
0010
0100
0000
0001
0000
0010
0000
0100
0000
0100
0000
1000
0000
0000
0010
,
0000
0010
0100
0000
0001
0000
0010
0000
0100
0000
1000
0000
0001
0000
0000
0100
,
0000
0010
1000
0000
0001
0000
0010
0000
0100
0000
1000
0000
0001
0000
0000
0100
,
0000
0010
1000
0000
0100
0000
0010
0000
0100
0000
1000
0000
0010
0000
0000
0100
,
0000
0001
0010
0000
0100
0000
1000
0000
0001
0000
0100
0000
0010
0000
0000
1000
,
0000
0100
0010
0000
0001
0000
1000
0000
0010
0000
0100
0000
0001
0000
1000
0000
,
0000
0100
0000
0010
0001
0000
1000
0000
0010
0000
1000
0000
0100
0000
0000
0001
,
0000
0100
0010
0000
1000
0000
0100
0000
0001
0000
0100
0000
1000
0000
0000
0001
,
0000
0100
0010
0000
1000
0000
0001
0000
0110
0000
0001
0000
1000
0000
0000
0000
,
0010
0000
1000
0000
0000
0100
0000
0000
1000
0000
0000
0010
0000
0000
0100
0000
,
0000
0000
0001
0000
0000
0100
0000
0010
0000
0000
1000
0000
0000
0100
0000
0000
,
0010
0000
0001
0000
0000
1000
0000
0000
0010
0000
0000
0100
0000
0000
0001
0000
,
1000
0100
0000
0010
0000
0001
0000
1000
0000
0000
0010
0000
0010
0100
0000
0000
,
0001
0000
0010
0000
0000
0100
0000
0000
0010
0000
0000
0001
0000
0000
1000
0000
,
0000
0000
0010
0000
0000
0100
0000
0001
0000
0000
1000
0000
0000
0100
0000
0000
,
0010
0000
0001
0000
0000
0010
0000
0000
0001
0000
0000
0100
0000
0000
0010
0000
,
1000
0000
0001
0000
0100
0010
0000
1000
0000
0000
0011
0000
0000
0000
0000
0000
,
1000
0100
0010
0001
0100
0010
0100
0001
,
0010
0100
1000
0010
0100
0010
1000
0100
,
0010
0001
0100
0001
1000
0001
0010
0100
,
1000
0010
0100
0001
0010
0001
0100
0001
,
1000
0010
1000
0100
1000
0010
0100
0001
,
0010
0100
0010
0001
1000
0010
0100
0010
,
1000
0100
0010
0001
0100
0010
1000
0100
,
1000
0001
0000
1000
0001
0000
1000
0001
0000
1000
0001
0000
1000
0001
0000
0000
,
1000
0000
0010
0000
0100
0000
0001
1000
0000
1000
0100
0000
0010
0000
0001
0000
,
0100
0000
0010
0000
1000
0000
0001
0010
0000
0010
0100
0000
1000
0000
0001
0000
,
0100
0000
0010
0000
1000
0000
0100
0010
0000
0010
0001
0000
1000
0000
0010
0000
,
1000
0000
0100
0000
0010
0000
0001
0100
0000
0100
0010
0000
1000
0000
0100
0000
,
0010
0000
0001
0000
1000
0000
0010
0100
0000
0100
0001
0000
1000
0000
0100
0000
,
1000
0000
0010
0000
0100
0000
0001
0010
0000
0010
0001
0000
0100
0000
1000
0000
,
0100
0000
0010
0000
1000
0000
0001
0010
0000
0010
0100
0000
1000
0000
0001
0000
,
1000
0000
0010
0000
0100
0000
0001
0010
0000
0010
0100
0000
1000
0000
0001
0000
,
0100
0000
0010
0000
1000
0000
0100
0010
0000
0001
1000
0000
0010
0000
0100
0000
,
0001
0000
1000
0000
0100
0000
0010
0001
0000
1000
0010
0000
0100
0000
0001
0000
,
1000
0000
0100
0000
0010
0000
0001
0100
0000
0010
1000
0000
0100
0000
0010
0000
,
0001
0000
1000
0000
0010
0000
0100
0001
0000
1000
0100
0000
0010
0000
0001
0000
,
0100
0000
0010
0000
1000
0000
0001
0010
0000
0100
1000
0000
0010
0000
0100
0000
,
0001
0000
1000
0000
0100
0000
0010
0001
0000
1000
0010
0000
0100
0000
0001
0000
,
1000
0000
0100
0000
0010
0000
0001
0100
0000
0010
1000
0000
0001
0000
1000
0000
,
0100
0000
0010
0000
0001
0000
1000
0010
0000
1000
0001
0000
0010
0000
0100
0000
,
1001
0000
0000
0100
0000
0010
1000
0000
,
0000
0100
0000
0010
0001
0000
0100
0000
,
0010
0000
0000
1000
0000
0001
0010
0000
,
0000
0100
0000
1000
0010
0000
0100
0000
,
0001
0000
0000
0010
0000
0100
1000
0000
,
0000
0010
0000
0100
0001
0000
1000
0000
,
0100
0000
0000
0010
0000
0001
1000
0000
,
0000
0010
0000
0100
0001
0000
1000
0110
,
0001
1000
1010
0000
1000
0100
0011
0000
,
0001
0100
1001
0000
0010
1000
0011
0000
,
0100
1000
1001
0000
0010
0100
0101
0000
,
0010
0100
1001
0000
0100
0010
1010
0000
,
1000
0100
1001
0010
0001
0100
1001
0010
,
1000
0001
1010
0100
0001
1000
0110
0001
,
1000
0100
0011
1000
0010
0100
1001
0010
,
0001
1000
0110
0001
1000
0100
2002
0000
,
0000
3003
0000
0000
;

//---------------dance-single - ----------------
#NOTES:
     dance-single:
     :
     Hard:
     10:
     0.914,0.874,0.613,0.048,0.932,711.000,76.000,6.000,0.000,0.000:
0000
0000
0000
0000
,
1001
0000
0000
0100
0000
1000
0100
0000
,
0000
0010
0000
0001
0100
0000
0010
0000
,
1000
0000
0000
0100
0000
1000
0100
0000
,
0000
0010
0000
0001
0100
0000
0010
0000
,
1001
0000
0000
0100
0000
0010
1000
0000
,
0000
0001
0000
0010
0100
0000
1000
0000
,
0101
0000
0000
0010
0000
1000
0100
0000
,
0000
0010
0000
0001
0100
0000
0010
0000
,
1001
0100
0010
1000
0021
0000
0031
0000
,
0000
0100
0000
0010
1000
0000
0001
0000
,
0110
1000
0001
0100
2010
0000
3010
0000
,
0000
0001
0000
0010
0100
0000
1000
0000
,
0101
0010
1000
0001
0210
0000
0310
0000
,
0000
0001
0000
1000
0010
0000
0100
0000
,
1001
0010
0100
1000
0102
0000
0103
0000
,
1000
0000
1000
0000
0011
0000
0000
0000
1000
0000
0100
0000
1001
0000
0010
0001
,
0000
0001
0100
0000
1001
0000
0010
0000
1000
0000
0001
0000
0110
0000
1000
0001
,
0000
0001
0100
0000
1010
0000
0001
0000
0010
0000
0100
0000
1001
0000
0100
0010
,
0000
0010
1000
0000
0011
0000
0100
0000
1000
0000
0001
0000
0110
0000
1000
0001
,
0000
0001
0100
0000
1010
0000
0001
0000
1000
0000
0100
0000
1001
0000
0010
0001
,
0000
0001
0100
0000
1001
0000
0100
0000
0010
0000
1000
0000
0011
0000
0100
1000
,
0000
1000
0001
0000
1001
0000
0010
0000
0100
0000
1000
0000
1100
0000
0010
0001
,
0000
0001
0100
0000
0101
0000
0010
0000
1000
0000
0100
0000
1001
0000
0001
0100
,
0000
0100
0010
0000
1001
0000
0010
0000
1000
0000
0100
0000
0011
0000
1000
0010
,
0000
0100
0001
0000
0110
0000
1000
0000
0001
0000
0010
0000
1100
0000
0001
0010
,
0000
0100
1000
0000
0101
0000
0010
0000
1000
0000
0001
0000
1010
0000
0010
1000
,
0000
0001
0010
0000
1010
0000
0100
0000
0001
0000
1000
0000
0110
0000
0001
1000
,
0000
0010
0100
0000
1001
0000
0010
0000
0100
0000
1000
0000
0101
0000
0010
1000
,
0000
0001
0100
0000
1010
0000
0010
0000
0100
0000
0001
0000
0011
0000
0100
1000
,
0000
0001
0100
0000
0110
0000
1000
0000
0001
0000
0010
0000
1100
0000
0001
0100
,
0000
0010
1000
0000
0011
0000
0100
0000
1001
0000
0001
0000
1000
0001
0000
0000
,
1000
0000
0001
0000
0100
0010
0000
1000
0001
0000
0010
0100
0000
1000
0010
0000
,
0100
0000
0001
0000
0010
0100
0000
1000
0000
0001
0100
0000
0001
0010
0000
0000
,
0100
0000
1000
0001
0000
0100
0000
0010
1000
0000
0100
0010
0000
0001
0100
0000
,
0001
1000
0000
0010
0000
0100
0000
0001
0000
0000
0010
0000
0010
0100
0000
0000
,
1000
0001
1000
0001
0100
0000
0100
0010
0000
0010
1000
0000
1000
0100
1000
0100
,
0010
0001
0010
0001
0100
0000
0100
0010
0000
0010
1000
0000
1000
0001
1000
0001
,
0010
0100
0010
0100
1000
0000
1000
0001
0000
0001
0100
0000
0010
1000
0010
1000
,
0100
0010
0001
1000
0010
0100
0000
0001
0000
0000
1001
0000
0000
0000
0000
0000
,
1000
0000
0001
0000
0100
0010
0000
1000
0100
0000
0010
0001
0000
0100
0010
0000
,
1000
0000
0001
0000
1000
0100
0000
0010
0000
0001
0100
0000
0010
1000
0000
0000
,
0001
0000
0010
0100
0000
1000
0000
0010
0100
0000
0001
1000
0000
0100
0010
0000
,
0001
0000
1000
0000
1000
0010
0000
0000
0100
0001
0100
0001
1000
0100
1000
0100
,
0010
0001
0010
0001
1000
0000
0010
1000
0000
1000
0100
0000
0010
0001
0010
0001
,
1000
0010
1000
0010
0100
0000
0001
0010
0000
0010
0100
0000
1000
0001
1000
0001
,
0010
0100
0010
0100
1000
0000
1000
0010
0000
0010
0100
0000
0100
0001
1000
0100
,
0010
0001
0000
0001
0100
0000
0100
0010
0000
0010
1000
0000
1000
0100
0000
0000
,
0010
0000
0001
0000
1010
0000
0100
0001
0000
1000
0100
0000
0011
0000
1000
0000
,
0001
0000
0100
0000
1001
0000
0010
1000
0000
1000
0100
0000
0110
0000
0001
0000
,
1000
0000
0010
0000
0101
0000
1000
0010
0000
0100
0001
0000
1100
0000
0010
0000
,
0001
0000
0100
0000
1001
0000
0010
1000
0000
1000
0001
0000
0110
0000
1000
0000
,
0001
0000
0100
0000
0110
0000
0010
1000
0000
0001
0100
0000
1001
0000
0010
0000
,
0100
0000
1000
0000
0101
0000
0010
1000
0000
1000
0100
0000
0110
0000
0001
0000
,
1000
0000
0010
0000
0101
0000
0010
1000
0000
0001
0010
0000
1100
0000
1000
0000
,
0001
0000
0100
0000
0101
0000
1000
0100
0000
0100
0010
0000
0011
0000
0001
0000
,
1000
0000
0010
0000
1001
0000
0010
0001
0000
1000
0100
0000
1001
0000
0010
0000
,
0001
0000
0100
0000
1001
0000
0010
1000
0000
1000
0100
0000
1001
0000
0010
0000
,
0001
0000
0100
0000
1010
0000
1000
0100
0000
0010
0001
0000
1001
0000
0010
0000
,
0100
0000
0010
0000
1001
0000
0010
0100
0000
0100
0010
0000
1001
0000
0010
0000
,
0100
0000
1000
0000
0101
0000
0010
1000
0000
0010
0100
0000
1001
0000
0010
0000
,
0001
0000
0010
0000
1100
0000
1000
0001
0000
0001
0100
0000
1010
0000
0001
0000
,
0010
0000
0100
0000
1100
0000
0001
1000
0000
0010
0100
0000
1001
0000
0010
0000
,
0100
0000
1000
0000
0101
0000
0010
1000
0000
1000
0100
0000
1001
0000
0010
0000
,
0100
0000
0000
1000
0000
1000
0001
0000
,
0000
0100
0000
0100
0010
0000
1000
0000
,
0001
0010
0001
0010
0100
0000
0100
1000
0000
1000
0001
0000
0001
0100
0001
0100
,
0010
1000
0010
1000
0001
0000
0010
0100
0000
1000
0000
0010
0100
0000
0001
0010
,
0000
0100
1000
0100
1000
0001
0100
0001
0100
0010
0000
0010
1000
0000
0001
0010
,
0000
0100
1000
0100
1000
0001
0100
0001
0100
0010
0000
1000
0001
0000
0010
0100
,
0000
1000
0001
1000
0001
0100
0010
0100
0010
1000
0000
0100
0010
0001
0000
1000
,
0010
0000
0010
0100
0000
1000
0010
0100
0001
0000
0010
0100
0000
0100
1000
0000
,
0001
0100
0010
1000
0001
0000
0010
0100
0000
1000
0001
0000
0100
0010
1000
0100
,
0010
0001
1000
0010
0100
0000
0001
0010
0000
0100
1000
0000
0001
0100
0010
0100
,
0001
1000
0100
0010
0001
0000
1000
0010
0000
1000
0100
0000
0010
0001
1000
0010
,
1000
0100
0010
0001
0100
0000
0010
1000
0000
0001
0000
0010
0100
0000
1000
0001
,
0010
0100
0010
0001
1000
0010
0100
0010
1000
0001
0000
0010
0100
0000
1000
0010
,
0000
0100
0001
1000
0100
0010
0100
1000
0001
0100
0000
0010
1000
0000
1000
0100
,
0000
0010
0001
1000
0001
0010
0001
0100
0010
1000
0000
0100
0010
0000
0001
1000
,
0010
0000
1000
0100
0000
0000
0010
0001
1000
0000
0001
2000
0002
0000
0000
0000
,
0000
3003
0000
0000
;

//---------------dance-single - ----------------
#NOTES:
     dance-single:
     :
     Challenge:
     11:
     1.000,1.000,1.000,0.016,0.932,753.000,170.000,2.000,0.000,0.000:
0000
0000
0000
0000
,
1001
0000
0000
0100
0000
0010
1000
0000
,
0000
0001
0000
0010
0100
0000
1000
0000
,
0001
0000
0000
0100
0000
0010
1000
0000
,
0000
0001
0000
0010
0100
0000
1000
0000
,
0011
0000
0000
0100
0000
0010
1000
0000
,
0000
0100
0000
0010
0001
0000
1000
0000
,
0110
0000
0000
0001
0000
0010
0100
0000
,
0000
1000
0000
0010
0100
0000
0001
0000
,
1100
0100
0010
0001
0110
1000
0100
0000
,
0000
1000
0000
0100
0010
0000
0001
0000
,
0011
0001
1000
0010
0101
1000
0001
0000
,
0000
1000
0000
0100
0010
0000
0001
0000
,
1010
0010
0100
0001
0110
1000
0010
0000
,
0000
0100
0000
0010
1000
0000
0100
0000
,
1001
0001
0010
0100
1001
0010
0001
0000
,
0010
0000
0010
0000
1001
0000
0000
0000
1001
0000
0100
0000
0011
0000
0001
0100
,
0010
1000
0001
0000
1100
0000
0010
0000
0101
0000
1000
0000
0110
0000
0001
1000
,
0100
0010
0001
0000
1010
0000
0100
0000
1001
0000
0100
0000
0011
0000
1000
0001
,
0100
0010
1000
0000
0110
0000
0001
0000
1100
0000
0010
0000
0101
0000
1000
0100
,
0010
0001
0100
0000
1010
0000
0001
0000
1100
0000
0010
0000
1001
0000
0010
0100
,
1000
0010
0100
0000
0011
0000
0100
0000
1010
0000
0001
0000
0110
0000
1000
0010
,
0100
0001
0010
0000
1100
0000
0010
0000
0101
0000
1000
0000
0110
0000
0001
0010
,
0100
1000
0010
0000
1001
0000
0100
0000
0011
0000
1000
0000
0101
0000
0010
1000
,
0001
0010
0100
0000
1001
0000
0010
0000
0101
0000
1000
0000
0110
0000
0001
1000
,
0100
0010
0001
0000
0110
0000
1000
0000
0011
0000
0100
0000
1001
0000
0010
0001
,
1000
0010
0100
0000
0011
0000
1000
0000
0110
0000
0001
0000
1100
0000
0010
0001
,
1000
0001
0100
0000
1010
0000
0001
0000
1100
0000
0010
0000
0101
0000
1000
0010
,
0100
0001
1000
0000
0110
0000
0001
0000
1100
0000
0010
0000
0101
0000
1000
0010
,
0100
0010
1000
0000
0011
0000
0100
0000
1001
0000
0010
0000
0101
0000
1000
0100
,
0010
0001
1000
0000
0110
0000
0001
0000
1100
0000
0010
0000
1001
0000
0010
0100
,
0001
0010
0100
0000
1001
0000
0010
0000
1100
0000
0100
0000
1001
0100
0000
0000
,
1000
0000
0001
0000
1100
0010
0000
0100
0001
0000
1000
0100
0011
1000
0100
0000
,
0010
0000
1000
0000
0011
0100
0000
1000
0000
0001
0100
0000
1010
0001
0000
0000
,
0100
0000
0010
1000
0011
0100
0000
1000
0001
0000
0010
0100
1001
0100
0010
0000
,
1001
1001
0000
1100
0000
0011
0000
0110
0000
0000
1001
0000
1001
1001
0000
0000
,
1000
0100
0010
0001
1010
0000
0001
0100
0000
0010
1000
0000
1001
0010
0100
1000
,
0010
0100
0001
1000
0011
0000
0001
1000
0000
1000
0010
0000
0110
0001
1000
0100
,
0010
0001
1000
0010
0101
0000
0001
0010
0000
0100
1000
0000
1001
0100
0001
0010
,
0100
1000
0010
0100
1001
1001
0000
1100
0000
0000
0110
0000
0000
0000
0000
0000
,
0100
0000
0010
0000
1001
0100
0000
0010
0001
0000
1000
0010
0101
1000
0001
0000
,
0010
0000
0100
0000
1010
0001
0000
0100
0000
0010
1000
0000
0011
0100
0000
0000
,
0010
0000
1000
0001
0110
1000
0000
0001
0010
0000
0100
1000
0011
0100
0010
0000
,
1001
0000
1010
0000
1010
0101
0000
0000
0001
0010
0100
1000
0011
1000
0010
0100
,
0001
0010
0100
1000
0101
0000
0010
1000
0000
0001
0010
0000
1100
0001
0100
0010
,
1000
0001
0010
0100
1001
0000
0010
0001
0000
0100
0010
0000
1001
0010
0100
1000
,
0010
0100
0001
0010
1100
0000
0001
0100
0000
0010
1000
0000
0011
0100
1000
0001
,
1100
0001
0000
0110
1000
0000
0101
0010
0000
1001
0100
0000
0011
1000
0000
0000
,
0101
0000
0010
0000
1001
0000
0010
0100
1000
0010
0100
0000
1001
0000
0010
0000
,
0101
0000
1000
0000
0110
0000
0001
1000
0100
0010
0001
0000
1010
0000
0100
0000
,
1001
0000
0010
0000
1100
0000
0010
0100
0001
1000
0100
0000
0011
0000
1000
0000
,
0110
0000
0001
0000
1100
0000
0010
0001
1000
0001
0100
0000
1010
0000
0001
0000
,
1100
0000
0010
0000
0101
0000
1000
0100
0010
0001
0100
0000
1010
0000
0001
0000
,
1100
0000
0010
0000
1001
0000
0010
0001
0100
0010
1000
0000
0011
0000
0100
0000
,
1001
0000
0100
0000
1010
0000
0001
0010
0100
1000
0001
0000
0110
0000
1000
0000
,
0101
0000
0010
0000
1001
0000
0010
0100
1000
0010
0100
0000
1001
0000
0010
0000
,
0101
0000
1000
0000
0110
0000
0001
1000
0010
0100
0001
0000
1100
0000
0010
0000
,
1001
0000
0010
0000
0101
0000
1000
0100
0010
0001
1000
0000
0110
0000
0001
0000
,
1100
0000
0010
0000
0101
0000
1000
0001
0100
0010
1000
0000
0011
0000
0100
0000
,
1001
0000
0010
0000
0101
0000
1000
0100
0010
0001
0100
0000
1010
0000
0001
0000
,
1100
0000
0010
0000
1001
0000
0010
0100
1000
0010
0100
0000
1001
0000
0010
0000
,
0101
0000
1000
0000
0110
0000
0001
0100
0010
1000
0100
0000
1001
0000
0010
0000
,
0101
0000
1000
0000
0110
0000
0001
1000
0010
0100
0001
0000
1100
0000
0001
0000
,
0110
0000
1000
0000
0101
0000
1000
0100
0010
0001
0100
0000
1010
0000
0100
0000
,
1001
0000
0000
0100
0000
0010
0001
0000
,
0000
0100
0000
0010
1000
0000
0100
0000
,
1000
0100
0010
0001
0100
0000
0010
1000
0000
0001
0010
0000
0100
1000
0010
0100
,
0001
0010
0100
1000
0001
0000
0100
0010
0000
1000
0000
0001
0010
0000
0100
1000
,
0000
0100
0010
0001
0100
0010
1000
0001
0010
0100
0000
1000
0001
0000
0100
0010
,
0000
1000
0100
0010
0001
1000
0010
0100
0001
0010
0000
0100
1000
0000
0001
0010
,
0000
0100
1000
0010
0100
0001
0010
0100
1000
0001
0000
0100
0010
1000
0000
1000
,
0001
0000
0100
0001
0000
1000
0100
0010
0001
0000
0100
0010
0000
1000
0001
0000
,
1000
0100
0010
0001
1010
0000
0001
0100
0000
0010
1000
0000
0011
0100
1000
0010
,
0100
0001
1000
0100
0011
0000
1000
0010
0000
0100
0001
0000
1100
0010
0001
1000
,
0010
0100
0001
1000
0110
0000
1000
0001
0000
1000
0010
0000
0101
1000
0010
1000
,
0001
0010
0100
1000
0101
0000
0010
1000
0000
0001
0000
0010
1100
0000
0001
0100
,
0010
1000
0001
1000
0110
0001
1000
0100
1000
0010
0000
0100
0011
0000
1000
0100
,
0000
0010
0001
1000
0110
0001
1000
0010
0100
0001
0000
1000
0110
0000
0001
1000
,
0000
0010
0100
0001
1100
0010
0100
0001
1000
0100
0000
0010
0101
0000
1000
0010
,
0100
0000
0001
1000
0101
0000
1000
0001
0100
0000
0010
0100
2002
0000
0000
0000
,
0000
3003
0000
0000
;
