#TITLE:Ixion;
#SUBTITLE:;
#ARTIST:L.E.D.;
#TITLETRANSLIT:;
#SUBTITLETRANSLIT:;
#ARTISTTRANSLIT:;
#CREDIT:;
#BANNER:Ixion.png;
#BACKGROUND:Ixionbg.png;
#LYRICSPATH:;
#CDTITLE:dm.jpg;
#MUSIC:Ixion.mp3;
#OFFSET:-0.100;
#SAMPLESTART:28.870;
#SAMPLELENGTH:12.700;
#SELECTABLE:YES;
#BPMS:0.000=150.000;
#STOPS:;
#BGCHANGES:;
// cache tags:
#FIRSTBEAT:4.000;
#LASTBEAT:308.000;
#SONGFILENAME:Songs/Fabulously Fresh Flock of Fantastic Files F5/(Dark Mage) Ixion/Ixion.sm;
#HASMUSIC:1;
#HASBANNER:1;
#MUSICLENGTH:125.257;
// end cache tags

//---------------dance-single - ----------------
#NOTES:
     dance-single:
     :
     Hard:
     11:
     1.000,1.000,0.727,0.008,1.000,834.000,91.000,1.000,0.000,0.000:
0000
0000
0000
0000
,
1000
0000
0010
0100
0001
0000
0010
0100
,
0000
0000
1000
0000
0000
0010
0000
0100
,
0001
1000
0000
0000
1000
0000
0000
0100
,
0000
0000
0010
0000
0000
0000
0001
1000
,
0010
0000
0000
0000
0100
0000
0000
0001
,
0000
0000
0010
0000
0000
0100
0000
1000
,
0010
0000
0000
0000
0100
0000
0001
1000
,
0000
0000
0100
0000
0000
0000
0000
0010
,
1000
0010
0101
0010
0001
1000
0110
0001
,
1000
0010
0110
1000
0001
0100
1010
0100
,
0001
0010
1100
0010
0001
1000
0101
0010
,
0100
1000
0110
0001
0100
0010
1100
0010
,
1001
0010
1100
0010
0101
1000
0011
0100
,
1010
0001
1100
0010
0101
1000
0110
1001
,
1001
0000
0000
1001
1001
0000
0000
1001
,
1001
1001
0000
1001
0000
1001
0000
0000
1001
0000
0000
1001
0000
0000
1001
0000
,
1001
0000
0000
0000
,
1000
0100
1000
0010
0100
0001
0010
0100
0010
0001
0100
0010
1000
0100
1000
0010
,
0100
0001
0100
0010
1000
0100
1000
0010
0100
0001
0100
0001
0010
0100
1000
0010
,
0100
0010
1000
0010
0100
0001
0010
0100
1000
0100
1000
0010
0100
0001
0010
0001
,
1000
0001
0100
0010
0100
0001
0010
0001
1000
0100
1000
0010
0100
0001
0010
0100
,
1000
0100
1000
0010
0100
0001
0010
0001
1000
0100
0010
0001
1000
0010
0100
0001
,
0010
0001
0100
0010
1000
0010
0100
0001
1000
0100
0010
0001
1000
0100
1000
0010
,
0100
0001
0010
0001
0100
0010
1000
0001
1000
0100
0010
0001
0100
0010
1000
0100
,
0010
0100
1000
0010
0100
0001
0010
0001
1000
0100
0010
0001
0100
0010
1000
0001
,
0010
0001
0100
0001
0010
0100
1000
0001
0010
0100
1000
0001
0010
0001
0100
0010
,
1000
0100
1000
0001
0010
0100
1000
0001
0010
0100
1000
0001
0010
0001
0100
0010
,
1000
0100
1000
0001
0010
0100
1000
0001
0010
0100
1000
0010
0100
0001
0010
0001
,
0100
0010
1000
0001
0010
0100
1000
0001
0010
0100
1000
0100
1000
0010
0100
0001
,
1000
0100
1000
0010
0100
0010
1000
0001
0100
0010
1000
0001
0100
0010
1000
0001
,
0100
0010
1000
0010
0100
0010
1000
0001
0100
0010
1000
0001
0100
0010
1000
0001
,
0100
0010
0100
0001
0100
0010
1000
0001
0100
0010
1000
0001
0100
0010
1000
0001
,
0100
0010
0100
0001
0100
0010
1000
0001
0100
0010
1000
0001
0100
0010
1000
0001
,
0100
0000
0000
0001
0100
0000
0101
0000
0000
0000
0110
0000
1010
0000
0000
0100
,
0010
0000
0000
1000
0010
0000
1010
0000
0000
0000
0101
0000
0011
0000
1000
0010
,
0100
0000
0000
1000
0001
0000
0101
0000
0000
0000
1010
0000
1000
0001
0000
1000
,
0010
0000
0000
0100
0001
0000
0101
0000
0000
0000
1010
0000
1100
0000
0011
0000
,
1001
0000
0000
1000
0010
0000
1001
0000
0000
0000
0110
0000
1001
0000
0011
0000
,
0101
1010
1100
1001
0000
0101
0011
1100
,
1010
0101
0011
0110
0000
1010
0101
1001
,
1000
0010
0000
0100
0001
0000
0101
0000
0000
0000
1010
0000
1100
0000
0011
0000
,
1000
0100
1000
0010
0100
0001
0010
0001
0100
0010
1000
0100
1000
0010
0100
0001
,
1000
0100
1000
0010
0100
0001
0010
0001
0100
0010
1000
0100
1000
0001
0010
0100
,
0010
0001
0010
0100
1000
0100
0010
0001
0100
0010
1000
0010
0100
0001
1000
0100
,
0010
0001
0010
0100
1000
0100
0010
0001
0100
0010
1000
0010
0100
0001
0100
0010
,
1000
0100
0010
0001
0010
0100
1000
0001
0100
0010
1000
0010
0100
0001
1000
0001
,
1000
0100
0010
0001
0010
0100
1000
0001
0100
0010
1000
0010
0100
0000
1001
0000
,
1001
0000
0000
1001
1001
0000
0000
1001
,
1001
1001
0000
1001
0000
1001
0000
0000
1001
0000
0000
1001
0000
0000
1001
0000
,
1001
0000
0000
0000
,
0000
0000
0000
0000
,
1000
0100
1000
0010
0100
0010
1000
0100
0010
0100
1000
0100
0010
0001
1000
0100
,
0010
0001
0010
0100
0010
0001
1000
0100
0010
0001
1000
0100
0010
0001
0010
0100
,
1000
0001
0100
0010
1000
0100
0010
0100
1000
0100
0010
0001
0010
0100
0010
0001
,
1000
0100
1000
0010
0100
0001
1000
0100
0010
0100
1000
0100
0010
0001
0010
0100
,
1000
0100
1000
0010
0100
0001
1000
0100
0010
0100
1000
0100
0010
0001
1000
0100
,
0010
0100
1000
0010
0100
0001
0010
0100
1000
0100
0010
0100
1000
0001
0010
0100
,
1000
0100
1000
0010
0100
0001
1000
0100
0010
0100
1000
0100
0010
0001
1000
0100
,
0010
0100
1000
0010
0100
0001
1000
0100
0010
0001
1000
0100
0010
0100
1000
0100
,
0010
0001
0100
0001
0010
0001
1000
0100
0010
0001
0010
0100
1000
0100
0010
0001
,
1000
0010
0100
0001
1000
0100
0010
0001
0010
0100
1000
0100
0010
0001
0010
0100
,
1000
0001
0100
0001
1000
0001
1000
0100
0010
0001
0010
0100
1000
0100
0010
0001
,
1000
0010
0100
0001
1000
0010
1000
0100
0010
0001
0010
0100
1000
0100
0010
0001
,
1000
0100
1000
0010
0100
0001
0010
0100
1000
0100
0010
0001
0010
0100
1000
0100
,
0010
0001
0100
0010
1000
0001
1000
0100
0010
0001
0010
0100
1000
0100
0010
0001
,
1000
0100
1000
0010
0100
0001
1000
0100
0010
0001
0010
0100
1000
0001
0010
0100
,
1000
0000
0100
0000
0010
0000
0001
0000
1000
0000
0100
0000
0010
0000
0001
0000
1000
0000
0100
0000
0010
0000
0001
0000
1000
0100
0010
0001
1000
0100
0010
0001
,
1000
0010
0100
0001
0101
0100
1010
1100
,
1000
0010
0100
0001
1000
0100
1000
0010
,
0100
0001
1000
0001
0101
0100
1010
1100
,
0100
0010
0001
1000
0010
0100
0010
1000
,
1001
0100
0010
1000
1001
0001
0011
0101
,
0100
0010
1000
0100
1000
0010
0100
0001
,
1000
0010
0100
0010
1010
1000
0011
1100
,
1001
0100
0010
1000
0001
0100
0010
1000
,
0002
0000
0000
0000
,
0003
0000
0000
0000
;
