#TITLE:Aurora;
#SUBTITLE:;
#ARTIST:Ryu☆;
#TITLETRANSLIT:;
#SUBTITLETRANSLIT:;
#ARTISTTRANSLIT:Ryu*;
#CREDIT:Steps, graphics and BG script by Xythar (sources;
#BANNER:Aurora.png;
#BACKGROUND:Aurora-bg.png;
#LYRICSPATH:;
#CDTITLE:cdtitle.png;
#MUSIC:Aurora.mp3;
#OFFSET:-0.017;
#SAMPLESTART:69.000;
#SAMPLELENGTH:12.000;
#SELECTABLE:YES;
#BPMS:0.000=180.940;
#STOPS:132.000=2.321
,197.000=0.995
;
#BGCHANGES:326.000=Aurora-bg.png=1.000=0=0=1,
99999=-nosongbg-=1.000=0=0=0 // don't automatically add -songbackground-
;
// cache tags:
#FIRSTBEAT:36.000;
#LASTBEAT:326.000;
#SONGFILENAME:Songs/new encore/Aurora/Aurora.sm;
#HASMUSIC:1;
#HASBANNER:1;
#MUSICLENGTH:114.132;
// end cache tags

//---------------dance-single - ----------------
#NOTES:
     dance-single:
     :
     Challenge:
     11:
     0.816,0.893,0.280,0.000,0.964,620.000,32.000,0.000,0.000,0.000:
0000
0000
0000
0000
,
0000
0000
0000
0000
,
0000
0000
0000
0000
,
0000
0000
0000
0000
,
0000
0000
0000
0000
,
0000
0000
0000
0000
,
0000
0000
0000
0000
,
0000
0000
0000
0000
,
0000
0000
0000
0000
,
1000
0000
0100
0000
0010
0000
0000
0000
0001
0100
0001
0000
0010
0000
0000
0000
,
0100
0000
1000
0000
0010
0000
0000
0000
0100
0001
0100
0000
0010
0000
0000
0000
,
1000
0000
0001
0000
0100
0000
0000
0000
0001
1000
0001
0000
0100
0000
0000
0000
,
0010
0000
1000
0000
0100
0000
0000
0000
0001
0100
0001
0000
0100
1000
0100
0000
,
0010
0000
0001
0000
0100
0000
0000
0000
0010
0100
0010
0000
1001
0000
0000
0000
,
0010
0000
0001
0000
0100
0000
0000
0000
0010
1000
0010
0000
0101
0000
0000
0000
,
0010
0000
0100
0000
1000
0000
0000
0000
0001
0010
0001
0000
1100
0000
0000
0000
,
1001
0000
0010
0000
1001
0000
0100
0000
0001
1000
0001
1000
0001
0000
0000
0000
,
1000
0000
0000
0100
0000
0000
0010
0000
0000
0000
0001
0000
0100
0000
0010
0000
,
1000
0000
0000
0100
0000
0000
0010
0000
0000
0000
0100
0000
1000
0000
0000
0000
,
0010
0000
0000
0100
0000
0000
0001
0000
0000
0000
0100
0000
0010
0000
0100
0000
,
0001
0000
0000
0001
0000
0000
1000
0000
0000
0010
0000
0000
1000
0000
0100
0000
,
1000
0000
0000
0001
0000
0000
0100
0000
0000
0000
1000
0000
0100
0000
0001
0000
,
0010
0000
0000
0100
0000
0000
1000
0000
0000
0010
0000
0000
0100
0000
0000
0000
,
0001
0000
0000
0010
0000
0000
0100
0000
0000
0000
1000
0000
0100
0000
0010
0000
,
0001
0000
0000
1000
0000
0000
0001
0000
0000
0100
0000
0000
0010
0000
1000
0000
,
0001
0100
1000
0100
0001
0010
1000
0010
,
0001
0100
1000
0100
0001
0010
1000
0010
,
0001
0100
0010
1000
0100
0001
0100
1000
,
0100
0010
0100
0001
0100
0010
0001
0010
,
1000
0010
0001
0100
1000
0100
1000
0100
,
0001
0010
1000
0010
0100
1000
0010
0001
,
0010
0100
1000
0100
0001
0100
0001
0010
,
1000
0010
0001
0010
0100
1000
0100
0010
,
0001
0000
0000
0000
1000
0000
0001
0100
0000
0010
0000
0010
1000
0000
0100
0010
,
0000
0001
0100
0001
1000
0000
0000
0100
0000
0000
0010
0000
0000
0001
0000
0000
,
0100
0000
0010
0000
0100
0000
0001
0010
0000
1000
0000
1000
0010
0000
0001
0100
,
0000
1000
0100
1000
0100
0000
0000
0001
0000
0000
0010
0000
0000
0100
0000
0000
,
1000
0000
0010
0000
1000
0000
0100
0010
0000
0010
0000
0010
0001
0000
0100
0010
,
0000
1000
0001
1000
0100
0000
0000
0010
0000
0000
0001
0000
0000
0010
0000
0000
,
0100
0000
1000
0000
0001
0000
0100
0010
0000
0100
0000
0100
1000
0000
0100
0001
,
0000
0100
0010
0100
1000
0000
0000
0100
0000
0000
0001
0000
0000
0010
0000
0000
,
0110
0000
1100
0000
1001
0000
0100
1000
0000
0001
0000
0001
0100
0000
0010
1000
,
0000
0100
0010
0100
1000
0000
0000
0010
0000
0000
0100
0000
0000
0001
0000
0000
,
0010
0000
0100
0000
0010
0000
0100
0001
0000
0100
0000
0100
1000
0000
0010
0001
,
0000
0010
0100
0010
0100
0000
0000
0001
0000
0000
1000
0000
0000
0100
0000
0000
,
0110
0000
0011
0000
1001
0000
0100
0010
0000
0001
0000
0001
0100
0000
0010
1000
,
0000
0001
0010
0001
1000
0000
0000
0010
0000
0000
0100
0000
0000
0001
0000
0000
,
0010
0000
0100
0000
1001
0000
0001
0010
0000
0100
0000
0100
1000
0000
0010
1000
,
0000
0001
0100
0001
1000
0000
0000
0010
0000
0000
0100
0000
0000
0001
0000
0000
,
0010
0100
0010
0100
0010
0000
0000
0000
0100
0000
1000
0010
1000
0100
0000
0100
,
0010
0000
0001
0100
0001
0010
0001
0010
0100
0000
0000
1000
0010
0000
0010
0000
,
0100
0001
0000
0000
0010
0000
0100
0000
1000
0000
0010
0100
0001
0010
0000
0010
,
0100
0000
0010
0001
0010
0001
0010
0100
0010
0000
0000
0100
0010
0000
0010
0000
,
0001
1000
0000
0000
1000
0000
0100
0000
0010
0000
0001
0010
0001
0100
0000
0010
,
1000
0000
0010
0100
0010
0100
0001
1000
0001
0000
0000
0010
0100
0000
1000
0000
,
0001
0010
0000
0000
0100
0000
1000
0000
0010
0000
0100
0001
0100
0010
0000
0100
,
1000
0000
0100
0010
0100
0010
0100
0001
0100
0000
0000
0001
0010
0000
0100
0000
,
0010
0100
0000
0000
1000
0000
0010
0000
0001
0000
0010
1000
0000
0001
0000
1000
,
0100
0000
1000
0010
0000
0100
0000
1000
0100
0000
0001
0010
0000
1000
0000
0010
,
0100
0000
0010
1000
0000
0010
0000
0001
0100
0000
1000
0100
0000
0001
0000
1000
,
0100
0000
0010
0001
0000
0001
0000
0010
0100
0000
0000
0010
0000
0000
0100
0000
,
0000
1000
0000
0000
0001
0000
0100
0000
0001
0000
1000
0100
0000
0010
0000
0100
,
1000
0000
1000
0001
0000
0100
0000
0001
0010
0000
0100
1000
0000
1000
0000
0001
,
0100
0000
0010
1000
0000
0010
0000
0001
0010
0000
1000
0100
0000
0001
0000
0100
,
1000
0000
0010
0100
0000
0001
0000
0010
0100
0000
0000
0010
0000
0000
0100
0000
,
0000
1000
0000
0000
0010
0000
0100
0000
0100
0000
0001
0100
0001
0010
0000
1000
,
0010
0000
0001
0100
0010
0100
0001
0010
0100
0000
0000
1100
0000
0000
1010
0000
,
0000
0101
0000
0000
0110
0000
1001
0000
0010
0000
0100
0001
0100
0010
0000
0010
,
1000
0000
0010
0001
0100
0001
0010
0100
1000
0000
0000
0011
0000
0000
0110
0000
,
0000
1100
0000
0000
0101
0000
1010
0000
0100
0000
0001
0010
0001
0100
0000
0010
,
1000
0000
0100
0001
0010
0001
0010
0100
0010
0000
0000
1010
0000
0000
1001
0000
,
0000
0101
0000
0000
1100
0000
0011
0000
0100
0000
0010
1000
0001
1000
0000
0100
,
0010
0000
0001
0100
0001
0010
0100
0010
0001
0000
0101
0000
1000
0001
1000
0001
,
1000
0000
0010
0000
0100
0000
0001
0000
0010
0000
0100
1000
0000
1000
0000
0010
,
0100
0000
0001
0010
0000
0010
0000
0100
1000
0000
0001
0100
0000
0100
0000
0010
,
1000
0000
0001
0100
0000
0100
0000
0001
0010
0000
0100
1000
0000
1000
0000
0001
,
0010
0000
0001
0100
0000
0100
0000
0010
1000
0000
0000
0001
0000
0000
0010
0000
,
0000
0100
0000
0000
1000
0000
0100
0000
1000
0000
0001
0000
0010
0000
0100
0000
,
1000
0001
0010
0100
1000
0001
0010
0100
,
1000
0000
0001
0000
0010
0000
0100
0000
1000
0100
1000
0100
1000
0100
0010
0100
,
0010
0100
0010
0001
0010
0001
0010
0000
0011
0000
0000
0110
0000
0000
1100
0000
,
0000
0100
0000
0000
0010
0000
0001
0000
1001
0000
0000
0000
0000
0000
0000
0000
;

//---------------dance-single - ----------------
#NOTES:
     dance-single:
     :
     Hard:
     10:
     0.736,0.785,0.263,0.000,0.854,558.000,30.000,0.000,0.000,0.000:
0000
0000
0000
0000
,
0000
0000
0000
0000
,
0000
0000
0000
0000
,
0000
0000
0000
0000
,
0000
0000
0000
0000
,
0000
0000
0000
0000
,
0000
0000
0000
0000
,
0000
0000
0000
0000
,
0000
0000
0000
0000
,
1000
0000
0100
0000
0010
0000
0000
0000
0100
0010
0100
0000
1000
0000
0000
0000
,
0001
0000
0100
0000
0010
0000
0000
0000
1000
0100
1000
0000
0010
0000
0000
0000
,
1000
0000
0001
0000
0010
0000
0000
0000
0001
0100
0001
0000
1000
0000
0000
0000
,
0010
0000
1000
0000
0100
0000
0000
0000
0010
0001
0010
0000
0001
0100
0001
0000
,
1000
0000
0010
0000
0100
0000
0000
0000
0001
0010
0001
0000
0100
0000
0000
0000
,
1000
0000
0100
0000
0001
0000
0000
0000
1000
0010
1000
0000
0100
0000
0000
0000
,
0010
0000
0100
0000
1000
0000
0000
0000
0001
1000
0001
0000
0010
0000
0000
0000
,
0100
0000
1000
0000
0010
0000
0100
0000
0001
0100
0001
0100
0001
0000
0000
0000
,
1000
0000
0000
0010
0000
0000
0100
0000
0000
0000
0001
0000
0010
0000
0001
0000
,
0010
0000
0000
0100
0000
0000
1000
0000
0000
0000
0010
0000
0100
0000
0000
0000
,
0001
0000
0000
1000
0000
0000
0100
0000
0000
0000
0010
0000
0001
0000
0010
0000
,
0001
0000
0000
1000
0000
0000
0100
0000
0000
0010
0000
0000
0001
0000
1000
0000
,
0001
0000
0000
0100
0000
0000
0010
0000
0000
0000
1000
0000
0100
0000
0010
0000
,
0001
0000
0000
0100
0000
0000
1000
0000
0000
0100
0000
0000
0001
0000
0000
0000
,
0100
0000
0000
0001
0000
0000
0010
0000
0000
0000
0100
0000
1000
0000
0100
0000
,
1000
0000
0000
0001
0000
0000
1000
0000
0000
0010
0000
0000
1000
0000
0000
0000
,
0001
0100
0010
1000
0001
1000
0010
0100
,
0001
0010
0100
1000
0001
1000
0100
0010
,
0001
1000
0100
1000
0001
1000
0010
0100
,
0001
0010
0100
1000
0001
0010
0100
1000
,
0001
1000
0010
0100
0010
1000
0001
0010
,
0001
0100
0010
1000
0100
0010
0100
1000
,
0001
0100
0010
1000
0100
1000
0001
0010
,
0001
1000
0100
0010
0001
0010
0100
1000
,
1001
0000
0000
0000
0001
0000
0100
0010
0000
0010
0000
0000
1000
0000
0001
0100
,
0000
0100
0000
0000
0001
0000
0000
0010
0000
0000
0100
0000
0000
1000
0000
0000
,
0100
0000
0010
0000
0100
0000
1000
0001
0000
0001
0000
0000
0010
0000
0100
1000
,
0000
1000
0000
0000
0010
0000
0000
0100
0000
0000
0001
0000
0000
0010
0000
0000
,
0100
0000
1000
0000
0001
0000
0100
0010
0000
0010
0000
0000
0100
0000
0001
1000
,
0000
1000
0000
0000
0100
0000
0000
0010
0000
0000
0001
0000
0000
0010
0000
0000
,
0100
0000
1000
0000
0010
0000
1000
0100
0000
0100
0000
0000
0010
0000
0001
0100
,
0000
0100
0000
0000
0001
0000
0000
0100
0000
0000
0010
0000
0000
1000
0000
0000
,
1010
0000
0010
0000
0110
0000
0100
0001
0000
0001
0000
0000
0100
0000
0010
1000
,
0000
1000
0000
0000
0010
0000
0000
0100
0000
0000
0001
0000
0000
1000
0000
0000
,
0010
0000
0100
0000
0010
0000
0100
0001
0000
0001
0000
0000
1000
0000
0010
0100
,
0000
0100
0000
0000
0001
0000
0000
0010
0000
0000
0100
0000
0000
1000
0000
0000
,
1001
0000
1000
0000
1100
0000
0100
0010
0000
0010
0000
0000
0100
0000
1000
0001
,
0000
0001
0000
0000
1000
0000
0000
0010
0000
0000
0100
0000
0000
0001
0000
0000
,
0010
0000
0100
0000
1100
0000
1000
0001
0000
0001
0000
0000
0100
0000
0010
1000
,
0000
1000
0000
0000
0100
0000
0000
0010
0000
0000
0100
0000
0000
1000
0000
0000
,
0010
0000
0100
0010
0100
0000
0000
0000
0001
0000
0010
0100
0000
0100
0000
0000
,
1000
0000
0100
0010
0000
0001
0010
0001
0010
0000
0000
0100
0000
0000
0010
0000
,
0000
0001
0000
0000
0100
0000
0010
0000
1000
0000
0001
0100
0000
0100
0000
0000
,
0010
0000
1000
0001
0000
0010
0100
0010
0100
0000
0000
1000
0000
0000
0100
0000
,
0000
0010
0000
0000
0001
0000
0010
0000
0001
0000
0100
0010
0000
0010
0000
0000
,
0100
0000
0001
0010
0000
0100
1000
0100
1000
0000
0000
0001
0000
0000
0100
0000
,
0000
0010
0000
0000
1000
0000
0001
0000
1000
0000
0010
0100
0000
0100
0000
0000
,
0001
0000
0010
0001
0000
1000
0001
1000
0001
0000
0000
0010
0000
0000
0100
0000
,
0000
1000
0000
0000
0100
0000
0010
0000
0001
0000
0100
0010
0000
0010
0000
1000
,
0100
0000
1000
0010
0000
0010
0000
0100
0001
0000
0010
0100
0000
0100
0000
0010
,
0001
0000
0100
0010
0000
0010
0000
1000
0010
0000
1000
0001
0000
0001
0000
0010
,
0100
0000
0010
0001
0000
0001
0000
0100
0010
0000
0000
0010
0000
0000
1000
0000
,
0000
0001
0000
0000
0010
0000
0100
0000
1000
0000
0001
0010
0000
0010
0000
0100
,
0010
0000
0100
1000
0000
1000
0000
0100
1000
0000
0010
0100
0000
0100
0000
0001
,
0100
0000
0010
1000
0000
1000
0000
0001
0010
0000
0100
1000
0000
1000
0000
0100
,
0010
0000
0010
0100
0000
0100
0000
0010
0001
0000
0000
0010
0000
0000
0100
0000
,
0000
1000
0000
0000
0010
0000
0100
0000
0001
0000
0010
0100
0000
0100
0000
0000
,
1000
0000
0010
0100
0000
0010
1000
0010
0100
0000
0000
1010
0000
0000
0110
0000
,
0000
0101
0000
0000
1001
0000
1100
0000
1000
0000
0100
0010
0000
0010
0000
0000
,
0001
0000
0010
0100
0000
1000
0100
1000
0010
0000
0000
0110
0000
0000
0011
0000
,
0000
1001
0000
0000
1100
0000
0110
0000
0100
0000
0010
0001
0000
0001
0000
0000
,
0010
0000
0100
1000
0000
0100
0010
0001
0010
0000
0000
0011
0000
0000
0110
0000
,
0000
1100
0000
0000
0110
0000
0011
0000
0010
0000
0001
0100
0000
0100
0000
0000
,
0001
0000
0010
0100
0000
0010
0001
0100
0001
0000
0000
0101
0000
0000
1001
0000
,
0000
1010
0000
0000
0001
0000
0011
0000
0010
0000
0100
0010
0000
0010
0000
0010
,
0100
0000
1000
0001
0000
0001
0000
1000
0010
0000
0100
0001
0000
0001
0000
0010
,
0100
0000
0100
1000
0000
1000
0000
1000
0001
0000
0001
1000
0000
1000
0000
0001
,
0010
0000
0001
0100
0000
0100
0000
0010
0100
0000
0000
0010
0000
0000
1000
0000
,
0000
0100
0000
0000
0010
0000
0001
0000
1000
0000
0100
0000
0010
0000
0001
0000
,
1000
0100
0010
0001
1000
0100
0010
0001
,
1000
0000
0100
0000
0010
0000
0001
0000
1000
0001
1000
0001
1000
0001
1000
0001
,
1000
0001
1000
0001
1000
0001
1000
0000
1001
0000
0000
0011
0000
0000
0110
0000
,
0000
1100
0000
0000
0010
0000
0100
0000
1001
0000
0000
0000
0000
0000
0000
0000
;

//---------------dance-single - ----------------
#NOTES:
     dance-single:
     :
     Medium:
     8:
     0.583,0.607,0.079,0.070,0.202,449.000,9.000,8.000,0.000,0.000:
0000
0000
0000
0000
,
0000
0000
0000
0000
,
0000
0000
0000
0000
,
0000
0000
0000
0000
,
0000
0000
0000
0000
,
0000
0000
0000
0000
,
0000
0000
0000
0000
,
0000
0000
0000
0000
,
0000
0000
0000
0000
,
1000
0000
0010
0000
0100
0001
0100
0000
,
0001
0000
0010
0000
0100
1000
0100
0000
,
0010
0000
0100
0000
1000
0001
1000
0000
,
0001
0000
1000
0000
0100
0010
0100
0010
,
0001
0000
0100
0000
0010
1000
0010
0000
,
0100
0000
0001
0000
0010
0001
0010
0000
,
0100
0000
1000
0000
0010
1000
0010
0000
,
0100
0000
0010
0000
1000
0100
1000
0100
,
0010
0000
0000
0001
0000
0000
0100
0000
0000
0000
0010
0000
1000
0000
0010
0000
,
1000
0000
0000
0010
0000
0000
1000
0000
0000
0001
0000
0000
0100
0000
0000
0000
,
0010
0000
0000
0100
0000
0000
0010
0000
0000
0000
1000
0000
0100
0000
0010
0000
,
0001
0000
0000
0010
0000
0000
0001
0000
0000
0010
0000
0000
0100
0000
1000
0000
,
0010
0000
0000
0100
0000
0000
0001
0000
0000
0000
0010
0000
0100
0000
0010
0000
,
0100
0000
0000
1000
0000
0000
0001
0000
0000
0010
0000
0000
0100
0000
0000
0000
,
0010
0000
0000
0001
0000
0000
0010
0000
0000
0000
0100
0000
1000
0000
0010
0000
,
0100
0000
0000
0010
0000
0000
0100
0000
0000
0001
0000
0000
0010
0000
0100
0000
,
2000
3001
0020
0130
,
2000
3010
0200
0301
,
1000
0100
1000
0000
0001
0010
0001
0000
,
1000
0100
0010
0001
0010
0100
1000
0000
,
0002
0000
0000
0000
1003
0000
0000
0000
0001
0000
0000
0100
0000
0000
0010
0000
,
2000
0000
0000
0000
3001
0000
0000
0000
0010
0000
0000
0100
0000
0000
1000
0000
,
0020
0000
0130
0000
0001
1000
0100
0010
,
0200
0000
0000
0000
0310
0000
0000
0000
0001
0000
0010
0000
0100
0000
1000
0001
,
1000
0000
0100
0010
0001
0000
0010
0100
,
1000
0000
0000
0000
0001
0000
0000
1000
0000
0000
0010
0000
0000
0100
0000
0000
,
0010
0100
0001
0001
1000
0000
0100
0010
,
0001
0000
0000
0000
0010
0000
0000
0001
0000
0000
0100
0000
0000
0010
0000
0000
,
1000
0100
0100
0010
0001
0000
1000
0100
,
1000
0000
0000
0000
0001
0000
0000
0100
0000
0000
0010
0000
0000
1000
0000
0000
,
0001
0100
0001
0010
0001
0000
0010
0001
,
0100
0000
0000
0000
1000
0000
0000
0100
0000
0000
0001
0000
0000
0100
0000
0000
,
0010
1000
0100
0010
0001
0000
0001
0010
,
0100
0000
0000
0000
0100
0000
0000
1000
0000
0000
0010
0000
0000
0100
0000
0000
,
0001
0010
0100
0010
0001
0000
0010
0100
,
1000
0000
0000
0000
0010
0000
0000
0100
0000
0000
0001
0000
0000
1000
0000
0000
,
0001
0010
0100
1000
0001
0000
1000
0100
,
0010
0000
0000
0000
0001
0000
0000
1000
0000
0000
0010
0000
0000
0100
0000
0000
,
0001
1000
0100
1000
0010
0000
0010
0100
,
0001
0000
0000
0000
1000
0000
0000
0001
0000
0000
0100
0000
0000
0010
0000
0000
,
0100
0000
0010
0100
0010
0000
0000
0000
1000
0000
0001
0000
0010
0000
0000
0000
,
0001
1000
0100
0000
0010
0001
0100
0010
,
1000
0100
0010
0000
1000
0100
0001
0000
,
0001
0100
1000
0000
0010
0100
0001
0100
,
0001
1000
0010
0000
0100
1000
0100
0000
,
0001
0100
0001
0000
0100
0010
1000
0100
,
0010
0100
0010
0000
0100
1000
0010
0000
,
0100
0001
0010
0000
0100
0010
0100
1000
,
0100
0010
0100
0000
1000
0001
0010
0100
,
0010
0001
1000
0000
0010
1000
0100
1000
,
0001
0010
0100
0000
1000
0100
0010
0001
,
0010
0100
1000
0000
0100
0010
0100
0010
,
0001
0010
0001
0000
0100
0010
0100
1000
,
0100
0001
0010
0000
0001
1000
0001
0100
,
0001
0010
0001
0000
1000
0100
1000
0010
,
1000
0000
0001
0000
1000
0000
0000
0000
0001
0000
0000
0010
0000
0000
0100
0000
,
0000
1000
0000
0000
0010
0000
0100
0000
0001
0000
1000
0000
0001
0000
0010
0000
,
0100
0000
0010
0000
0001
0000
0000
0000
1001
0000
0000
0010
0000
0000
1010
0000
,
0000
0100
0000
0000
0101
0000
0001
0000
0010
0000
0100
0000
0010
0000
0100
0000
,
1000
0000
0010
0000
0100
0000
0000
0000
0110
0000
0000
0001
0000
0000
0101
0000
,
0000
1000
0000
0000
1010
0000
0010
0000
1000
0000
0100
0000
1000
0000
0010
0000
,
0100
0000
0001
0000
0010
0000
0000
0000
1100
0000
0000
0010
0000
0000
0110
0000
,
0000
0001
0000
0000
1001
0000
1000
0000
0010
0000
0100
0000
0010
0000
1000
0000
,
0001
1000
0010
0000
1000
0100
0010
0001
,
0100
0001
0100
0000
0010
0000
0000
0000
1000
0000
0100
0000
1000
0000
0100
0000
,
0010
0001
0010
0000
0001
0100
0001
0100
,
0010
1000
0010
0000
1000
0100
0010
0001
,
0010
0000
0100
0000
1000
0000
0000
0000
0001
0000
0000
1000
0000
0000
0010
0000
,
0000
0100
0000
0000
0001
0000
1000
0000
0001
0000
0010
0000
0001
0000
0000
0000
,
1000
0100
1000
0000
0001
0100
0001
0000
,
1000
0010
1000
0000
0010
0100
0010
0100
,
0010
0000
0100
0000
0001
0000
1000
0000
0001
1000
0001
1000
0001
0000
0010
0000
,
0000
0100
0000
0000
1000
0000
0001
0000
1000
0000
0000
0000
0000
0000
0000
0000
;

//---------------dance-single - ----------------
#NOTES:
     dance-single:
     :
     Beginner:
     2:
     0.202,0.250,0.079,0.000,0.000,152.000,9.000,0.000,0.000,0.000:
0000
0000
0000
0000
,
0000
0000
0000
0000
,
0000
0000
0000
0000
,
0000
0000
0000
0000
,
0000
0000
0000
0000
,
0000
0000
0000
0000
,
0000
0000
0000
0000
,
0000
0000
0000
0000
,
0000
0000
0000
0000
,
1000
0000
0001
0000
,
1000
0000
0010
0000
,
0100
0000
0001
0000
,
0010
0000
0100
0100
,
0000
1000
0000
0010
,
0000
1000
0000
0100
,
0000
0010
0000
0001
,
0000
0010
0010
0000
,
1001
0000
0010
0000
,
0100
0000
0001
0000
,
1000
0000
0010
0000
,
0100
0000
0001
0000
,
1000
0000
0100
0000
,
0010
0000
0001
0000
,
1000
0000
0100
0000
,
0010
0000
0001
0000
,
1000
1000
0000
0001
,
0001
0000
0010
0010
,
0000
0100
0100
0000
,
1000
0000
0010
0000
,
0100
0000
0001
0000
,
0010
0000
0001
0000
,
0100
0000
0010
0000
,
1000
0000
0100
0000
,
0110
0000
1000
0000
,
0100
0000
1000
0000
,
0010
0000
0100
0000
,
0001
0000
0100
0000
,
0010
0000
1000
0000
,
0001
0000
0100
0000
,
0010
0000
0100
0000
,
0001
0000
1000
0000
,
0001
0001
0000
1000
,
0000
0010
0000
0100
,
0000
0001
0000
1000
,
0000
0100
0000
0000
,
0010
0010
0000
0001
,
0000
1000
0000
0010
,
0000
1000
0000
0100
,
0000
0010
0000
0001
,
0000
1001
0000
0010
,
0000
0100
0000
0010
,
0000
1000
0000
0001
,
0000
1000
0000
0010
,
0000
0100
0000
0010
,
0000
1000
0000
0001
,
0000
1000
0000
0100
,
0000
0010
0000
0100
,
0000
1000
1000
0000
,
0001
0000
0010
0000
,
0100
0000
0010
0000
,
0001
0000
1000
0000
,
0001
0000
0010
0000
,
0001
0000
1000
0000
,
0100
0000
1000
0000
,
0010
0000
0100
0000
,
0010
0000
0100
0000
,
0001
0000
0010
0000
,
1001
0000
1001
0000
,
0001
0000
1000
0000
,
0110
0000
0110
0000
,
0001
0001
0000
1000
,
0000
1001
0000
1001
,
0000
0010
0000
0100
,
0000
0001
0001
0000
,
1000
0000
0010
0000
,
0100
0000
0010
0000
,
1000
0000
0001
0000
,
1000
0000
0100
0000
,
1000
0000
0001
0000
,
0010
0000
0100
0000
,
1000
0000
0010
0000
,
0100
0100
0100
0000
;

//---------------dance-single - ----------------
#NOTES:
     dance-single:
     :
     Easy:
     5:
     0.335,0.357,0.149,0.088,0.000,241.000,17.000,10.000,0.000,0.000:
0000
0000
0000
0000
,
0000
0000
0000
0000
,
0000
0000
0000
0000
,
0000
0000
0000
0000
,
0000
0000
0000
0000
,
0000
0000
0000
0000
,
0000
0000
0000
0000
,
0000
0000
0000
0000
,
0000
0000
0000
0000
,
1000
0100
0010
0001
,
1000
0010
0100
0001
,
0010
0100
0010
0001
,
1000
0100
1000
0010
,
1000
0001
0100
0010
,
0100
0001
0010
0100
,
0010
0001
1000
0100
,
1000
0010
0100
0001
,
1000
0100
0010
0000
,
0001
0010
0100
1000
,
0010
0100
0010
0000
,
1000
0001
0010
0100
,
1000
0100
1000
0000
,
0001
0100
0010
1000
,
0001
0010
0001
0000
,
0010
0100
0010
0001
,
2000
0000
3200
0000
,
0320
0000
0032
0000
,
0023
0000
0030
0000
,
0002
0000
0013
0100
,
2000
0000
3010
0100
,
0002
0000
1003
0100
,
0002
0000
0103
1000
,
0020
0000
1030
0100
,
0110
0001
0000
0010
,
0000
0100
1000
0010
,
0100
1000
0000
0100
,
0000
0001
0010
1000
,
0010
0001
0000
1000
,
0000
0001
0010
0100
,
1000
0010
0000
0100
,
0000
0010
1000
0100
,
0110
0011
0000
0010
,
0000
0100
1000
0010
,
0100
0001
0000
0010
,
0000
0001
0010
0100
,
1100
1001
0000
0100
,
0000
0010
0001
0100
,
0010
0110
0000
0101
,
0000
0001
0010
0100
,
1000
1001
1000
0000
,
0100
0000
0010
0001
,
0010
0100
0010
0000
,
0100
0000
0001
1000
,
0010
0100
0001
0000
,
0100
0000
1000
0100
,
0001
0010
0100
0000
,
0010
0000
0001
0010
,
0100
1000
0100
1000
,
0010
0100
0001
0100
,
0010
0100
0001
1000
,
0100
0010
0001
0010
,
0100
1000
0001
0100
,
0010
0100
0001
1000
,
0100
0010
0100
0010
,
0001
0100
0010
0000
,
1000
0000
0001
1000
,
0010
0100
0110
0000
,
0101
0000
0100
0001
,
0010
0100
1100
0000
,
1001
0000
1000
0100
,
0010
0001
0011
0000
,
0101
0000
0100
0010
,
1000
0001
1001
0000
,
1010
0000
0001
0010
,
0100
0010
0100
0010
,
0001
0100
1000
0100
,
0001
0010
0100
0000
,
1000
0000
1000
0100
,
1000
0100
0010
0001
,
0010
0001
0100
0010
,
0100
0000
0001
0000
1000
0001
1000
0001
,
1000
0010
0110
0000
;
