#TITLE:THE CUBE;
#SUBTITLE:;
#ARTIST:DJ SUWAMI;
#TITLETRANSLIT:;
#SUBTITLETRANSLIT:;
#ARTISTTRANSLIT:;
#CREDIT:;
#BANNER:The Cube.png;
#BACKGROUND:The Cube-bg.png;
#LYRICSPATH:;
#CDTITLE:!toph-cdtitle.png;
#MUSIC:DJ Suwami - The Cube.mp3;
#OFFSET:-0.244;
#SAMPLESTART:51.300;
#SAMPLELENGTH:11.000;
#SELECTABLE:YES;
#BPMS:0.000=178.150;
#STOPS:;
#BGCHANGES:;
// cache tags:
#FIRSTBEAT:12.500;
#LASTBEAT:316.000;
#SONGFILENAME:Songs/Community Keyboard Megapack - Volume 2/(Toph) THE CUBE/The Cube.sm;
#HASMUSIC:1;
#HASBANNER:1;
#MUSICLENGTH:113.560;
// end cache tags

//---------------dance-single - ----------------
#NOTES:
     dance-single:
     :
     Hard:
     11:
     1.000,1.000,1.000,0.088,0.383,608.000,241.000,10.000,0.000,0.000:  // measure 1
0000
0000
0000
0000
,  // measure 2
0000
0000
0000
0000
,  // measure 3
0000
0000
0000
0000
,  // measure 4
0000
0010
1000
0100
0010
0001
0000
0000
,  // measure 5
0000
0000
0000
0000
0000
0000
1000
0010
1000
0000
1000
0000
0000
0000
0000
0000
,  // measure 6
0101
0000
0000
1001
0000
0000
1100
0000
,  // measure 7
0010
1000
0100
0010
0001
0100
0010
1000
,  // measure 8
0001
0000
0110
0000
1000
0000
0001
0100
0001
0000
0101
0000
0010
0000
1001
0000
,  // measure 9
0110
0001
0010
0100
1000
0010
0100
0001
,  // measure 10
1100
0000
0000
0101
0000
0000
1010
0000
,  // measure 11
1000
0000
0100
0000
1001
0000
0100
0000
0010
0001
0010
0000
1001
0000
0100
0000
,  // measure 12
0010
1100
1001
0101
0110
1010
1000
0011
,  // measure 13
1100
0000
0001
0000
0110
0000
1000
0001
1000
0001
1000
0000
0011
0000
0100
0000
,  // measure 14
1000
0000
0101
0000
0110
0000
1010
0000
1001
0000
0011
0000
0100
0000
0010
1000
,  // measure 15
0101
0010
0100
1001
0100
0010
1100
0001
,  // measure 16
0010
1100
0010
0101
1000
0011
1100
0001
,  // measure 17
1010
0000
1001
0101
0000
0110
1010
0000
,  // measure 18
0000
0000
0011
0000
1100
0000
0000
0000
0101
0000
0010
0000
1000
0100
0010
0001
,  // measure 19
0110
0000
1010
0000
0101
0000
1000
0000
0001
0010
0001
0000
0110
0000
1000
0000
,  // measure 20
0101
0000
0010
0000
1100
0000
0011
0000
0100
0001
0100
0000
1010
0000
0001
0000
,  // measure 21
1100
0000
0011
0000
0101
0000
0010
0000
1000
0001
1000
0000
0110
0000
0001
0000
,  // measure 22
1100
0000
0010
0000
0101
0000
1010
0000
0001
1000
0001
0000
0110
0000
1100
0000
,  // measure 23
0101
0000
1010
0000
1001
0000
0010
0000
0100
0001
0100
0000
1010
0000
0100
0000
,  // measure 24
1001
0000
0010
0000
0101
0000
1010
0000
0001
0010
0001
0000
1100
0000
0011
0000
,  // measure 25
0101
0000
1010
0000
1100
0000
0010
0000
0001
0100
0001
0000
1010
0000
0100
0000
,  // measure 26
0011
0000
0000
0001
0100
0000
0110
0000
0000
0010
1000
0000
1100
0000
0010
0000
,  // measure 27
1001
0000
0110
0000
1100
0000
0001
0000
1000
0001
0010
0000
0001
1000
0000
1000
,  // measure 28
0101
0000
0010
0000
1100
0000
0110
0001
1000
0001
0010
0000
1100
0000
0011
0000
,  // measure 29
0101
0000
0010
0000
1100
0000
0000
0000
0001
1000
0010
0000
0101
0000
0010
0000
,  // measure 30
1001
0000
0010
0000
1100
0000
0011
0100
1000
0100
1001
0000
1100
0000
1001
0000
,  // measure 31
0101
0000
0010
0000
1001
0000
0000
0000
0010
0100
0001
0000
1100
0000
0010
0000
,  // measure 32
0101
0000
1000
0000
0100
0000
1010
0000
0001
1000
0100
0000
1100
0000
0010
0000
,  // measure 33
0101
0000
0000
0001
1000
0000
1010
0000
0000
0010
0100
0000
0101
0000
0000
0001
,  // measure 34
1000
0000
1100
0000
0011
0000
0100
0000
1001
0000
0100
0000
0010
1000
0001
0000
,  // measure 35
0110
0000
0000
0000
,  // measure 36
1000
0000
0000
0000
,  // measure 37
0101
0000
0100
0100
0010
0010
1000
1000
,  // measure 38
0001
1000
0001
1000
0001
1000
0001
1000
0001
0000
0210
0000
0000
0000
0300
0000
,  // measure 39
1010
0000
0000
0000
1001
0000
0100
0000
0001
1000
0100
0000
0022
0000
0000
0000
,  // measure 40
0033
0000
1000
0000
0110
0000
0001
1000
0010
1000
0001
0000
0110
0000
1000
0000
,  // measure 41
0001
0010
0001
0000
1100
0000
0101
0000
0000
0010
1000
0000
1010
0000
0000
1000
,  // measure 42
0100
0000
0110
0000
0001
0010
0001
0000
1001
0000
0010
0000
0001
1000
0010
0000
,  // measure 43
0101
0000
1001
0000
1100
0000
0110
0000
0001
0010
0001
0000
1100
0000
0010
0000
,  // measure 44
0001
0000
1100
0000
1000
0000
0010
0001
0100
0010
1000
0000
0100
0010
0001
0000
,  // measure 45
1001
0000
0000
1000
0100
0000
0110
0000
0000
0001
0100
0000
1010
0000
1000
0000
,  // measure 46
0001
0000
0110
0000
1001
0000
1000
0100
0011
0000
1000
0000
0220
0000
0000
0330
,  // measure 47
1001
0001
0000
0000
1010
0000
0101
0000
1000
0001
0010
0000
0011
0000
1100
0000
,  // measure 48
0000
0000
0101
0000
0010
0000
1000
0000
0101
0000
0010
0000
1000
0100
0010
0000
,  // measure 49
1001
0000
0000
0000
0001
0000
1100
0000
0010
0000
0001
0000
1100
0000
0010
0001
,  // measure 50
1000
0000
0110
0000
1001
0000
0100
0000
0011
0000
0100
0000
1000
0010
0100
0001
,  // measure 51
0110
0000
1000
0000
0001
0000
1100
0000
0001
0100
0010
0000
1000
0002
0020
0000
,  // measure 52
0033
0000
1100
0000
0011
0000
0100
0010
0100
0001
0100
0000
0010
1000
0001
0000
,  // measure 53
1100
0000
0011
0100
0010
0010
1000
1000
,  // measure 54
0001
0010
0001
0010
0001
0010
0001
0010
0001
0000
0021
0000
0000
0000
0030
0000
,  // measure 55
1001
0000
0110
0000
1000
0101
0010
1100
,  // measure 56
0011
0000
1010
0000
0101
0000
1000
0100
1000
0100
0011
0000
0101
0000
0010
1000
,  // measure 57
0001
0010
1100
0101
0010
1000
0011
1100
,  // measure 58
0001
0000
0100
0000
0110
0000
0010
0100
0001
0000
1010
0000
0100
0000
1010
0000
,  // measure 59
0101
0000
0010
0000
1001
0000
0100
0000
0010
0001
1100
0000
0001
0000
0110
0000
,  // measure 60
1100
0000
0001
0000
0100
0000
0010
1000
0010
1000
0101
0000
0010
0000
1100
0000
,  // measure 61
0011
0000
0100
0000
0010
0000
1000
0001
0010
0001
1100
0000
0011
0000
1100
0000
,  // measure 62
0001
0000
0100
0000
1010
0000
0001
1000
0100
0000
0011
0000
0100
0000
0011
0000
,  // measure 63
1001
0100
1010
0001
0010
1100
0010
0001
,  // measure 64
0110
0000
1000
0000
0001
0000
1100
0000
0100
0001
1010
0000
0011
0000
1010
0000
,  // measure 65
0100
0000
0001
0000
1100
0000
0010
0001
0010
0001
1100
0000
0010
0000
0101
0000
,  // measure 66
0010
1100
1001
0011
0101
0110
1010
1100
,  // measure 67
0010
0001
0110
1000
0001
1100
0110
0001
,  // measure 68
1010
0100
0011
1100
0001
0110
1001
0110
,  // measure 69
1001
1100
0011
0101
1010
0011
1100
0101
,  // measure 70
1010
0000
1100
0000
0011
0000
1001
0100
0010
1000
0100
0000
0001
1000
0010
0100
,  // measure 71
1001
0010
0100
0000
0001
1000
0100
0010
,  // measure 72
0011
0000
0100
1100
0000
0010
0011
0000
,  // measure 73
0101
0000
0010
1000
0000
0100
0010
0001
,  // measure 74
1001
0000
0010
1010
0000
0101
1010
0101
,  // measure 75
0011
0100
1000
0000
0100
0000
0010
0000
,  // measure 76
1001
0000
0110
0000
0001
0000
0110
1000
0001
1000
0010
0000
1001
0000
0100
0000
,  // measure 77
0011
0000
0110
1100
0000
1010
0101
0000
,  // measure 78
0000
0000
1010
0000
0101
0000
0010
0100
1000
0010
0100
0000
0001
1000
0100
0000
,  // measure 79
2002
0000
0000
0000
,  // measure 80
3003
0000
0000
0000
;

//---------------dance-single - ----------------
#NOTES:
     dance-single:
     :
     Challenge:
     11:
     1.000,1.000,1.000,0.088,0.634,668.000,217.000,10.000,0.000,0.000:  // measure 1
0000
0000
0000
0000
,  // measure 2
0000
0000
0000
0000
,  // measure 3
0000
0000
0000
0000
,  // measure 4
0000
0010
1000
0100
0010
0001
0000
0000
,  // measure 5
0000
0000
0000
0000
0000
0000
1000
0010
1000
0000
1000
0000
0000
0000
0000
0000
,  // measure 6
0101
0000
0000
1001
0000
0000
1100
0000
,  // measure 7
0010
1000
0100
0010
0001
0100
0010
1000
,  // measure 8
0001
0000
0110
0000
1000
0000
0001
0100
0001
0000
0101
0000
0010
0000
1001
0000
,  // measure 9
0110
0001
0010
0100
1000
0010
0100
0001
,  // measure 10
1100
0000
0000
0101
0000
0000
1010
0000
,  // measure 11
1000
0000
0100
0000
1001
0010
0100
0000
1000
0001
0100
0000
0011
1000
0000
1000
,  // measure 12
0100
0000
0010
0000
0101
0000
0010
0001
1000
0001
0010
0000
1100
0000
0011
0000
,  // measure 13
0100
0000
0010
0000
1100
0000
0001
0010
0100
0010
0001
0000
1010
0001
0100
0001
,  // measure 14
1000
0000
0100
0000
1010
0000
0001
0000
1000
0100
0011
0000
1100
0000
0011
0000
,  // measure 15
0110
0000
0001
0000
1000
0000
0101
0000
0010
1000
0001
0000
0110
0000
1000
0000
,  // measure 16
0100
0000
0110
0000
0001
0000
1100
0010
0001
1000
0100
0010
0001
0100
0010
1000
,  // measure 17
0101
0000
1001
1100
0000
0110
0011
0000
,  // measure 18
0000
0000
1010
0000
0101
0000
0000
0000
1100
0000
0010
0000
0001
0100
0010
0100
,  // measure 19
1001
0010
0100
0000
1100
0000
0001
0000
0100
0010
1000
0000
0101
0010
0000
0010
,  // measure 20
1000
0000
0100
0000
0011
0000
1100
0000
0001
0100
0010
0000
1100
0000
0011
0000
,  // measure 21
0110
0000
1000
0000
0101
0000
0010
1000
0001
1000
0100
0000
0011
0100
1000
0100
,  // measure 22
1001
0000
0010
0000
0101
0000
1010
0000
0001
1000
0110
0000
0011
0000
0110
0000
,  // measure 23
1001
0000
0100
0000
1010
0000
0001
1000
0010
1000
0100
0000
1001
0010
0100
0010
,  // measure 24
0101
0000
0010
0000
1100
0000
0101
0000
0010
1000
0001
0000
0110
0000
1010
0000
,  // measure 25
0101
0000
0010
0000
1100
0000
0001
1000
0010
1000
0001
0000
1100
0001
0010
0100
,  // measure 26
1001
0000
0000
0100
0010
0000
0011
0000
0000
0001
1000
0000
1010
0000
0100
0000
,  // measure 27
1001
0100
0010
0000
1100
0000
0001
0000
1000
0001
0010
0000
0101
0010
0000
0010
,  // measure 28
1001
0000
0010
0000
1100
0000
0110
0001
1000
0001
0010
0000
1100
0000
0011
0000
,  // measure 29
0101
0000
0010
0000
1100
0000
0000
0000
0001
1000
0010
0000
0101
0000
0010
0000
,  // measure 30
1001
0000
0010
0000
1100
0000
0011
0100
1000
0100
1001
0000
1100
0000
1001
0000
,  // measure 31
0101
0000
0010
0000
1001
0000
0000
0000
0010
0100
0001
0000
1100
0000
0010
0000
,  // measure 32
0101
0000
1000
0000
0100
0000
1010
0000
0001
1000
0100
0000
1100
0000
0010
0000
,  // measure 33
0101
0000
0000
0001
1000
0000
1100
0000
0000
1000
0100
0000
0110
0000
0000
0001
,  // measure 34
0100
0000
0110
0000
1100
0000
0001
0100
1010
0001
0100
0000
0010
0100
0001
0000
,  // measure 35
1100
0000
0000
0000
,  // measure 36
0100
0000
0000
0000
,  // measure 37
1100
0000
0100
0100
0010
0010
0001
0001
,  // measure 38
1000
0001
1000
0001
1000
0001
1000
0001
1000
0000
0210
0000
0000
0000
0300
0000
,  // measure 39
0011
0000
0000
0000
1001
0000
0100
0000
1000
0001
0100
0000
2020
0000
0000
0000
,  // measure 40
3030
0000
1000
0000
0101
0000
0010
1000
0001
1000
0100
0000
0011
0000
1000
0000
,  // measure 41
0100
0010
0100
0000
1001
0000
0110
0000
0000
0001
1000
0000
0101
0000
0000
0010
,  // measure 42
1000
0000
1100
0000
0001
0010
0001
0000
0101
0000
0010
0000
1000
0100
0010
0000
,  // measure 43
1001
0000
1010
0000
1100
0000
0101
0000
1000
0010
1000
0000
0101
0000
0010
0000
,  // measure 44
1000
0000
0101
0000
0001
0000
1100
0010
0001
1000
0010
0000
0101
1000
0010
0000
,  // measure 45
1001
0000
0000
0001
0100
0000
1010
0000
0000
1000
0100
0000
0011
0000
0001
0000
,  // measure 46
1000
0000
0110
0000
1001
0000
1000
0100
0011
0000
1000
0000
0220
0000
0000
0330
,  // measure 47
1001
0001
0000
0000
1010
0000
1000
0100
1000
0001
0010
0000
0011
0000
1100
0000
,  // measure 48
0000
0000
0101
0000
1010
0000
0001
1000
0001
0100
0010
0000
1000
0100
0010
0000
,  // measure 49
0011
0000
1010
0000
1100
0000
0101
0000
0010
1000
0001
0000
1100
0000
0010
0001
,  // measure 50
1000
0000
0110
0000
1001
0000
1000
0001
0110
1000
0001
0010
0100
1000
0010
0100
,  // measure 51
1001
0000
0100
0000
0010
0000
1100
0001
0010
0001
1000
0000
0110
0002
2000
0000
,  // measure 52
3003
0000
1100
0000
0011
0000
0100
0010
0100
0001
0100
0000
0010
1000
0001
0000
,  // measure 53
1100
0000
0011
0100
0010
0010
1000
1000
,  // measure 54
0001
0010
0001
0010
0001
0010
0001
0010
0001
0000
0021
0000
0000
0000
0030
0000
,  // measure 55
1001
0000
0100
0000
1010
0001
0100
0000
0010
1000
0100
0000
1001
0100
0010
0100
,  // measure 56
1000
0000
0010
0000
0101
1000
0010
1000
0001
0100
0010
0000
1001
0000
0110
0000
,  // measure 57
1001
0000
0010
0000
0101
0000
1000
0100
1000
0001
0010
0000
1100
0000
0010
0000
,  // measure 58
1100
0000
0001
0000
0110
0000
0001
1000
0100
0000
0011
0000
1000
1000
0010
1000
,  // measure 59
0101
0000
0010
0000
1100
0000
0000
0000
0100
0010
0001
0000
0011
0000
0100
0000
,  // measure 60
1000
0000
0001
0000
1100
0000
0010
1000
0001
1000
0010
0000
0101
0000
1010
0000
,  // measure 61
1001
0000
0010
0000
1100
0000
0010
0001
0100
0010
1000
0000
0101
0000
0011
0000
,  // measure 62
0000
0000
1010
0000
0101
0000
1000
0100
1000
0000
0110
0000
0001
0001
0010
0001
,  // measure 63
1100
0000
0001
0000
0110
0000
0001
0000
1000
0010
1000
0000
0110
0001
0000
0001
,  // measure 64
1000
0000
0010
0000
0101
0000
1000
0100
1000
0001
0100
0000
1010
0000
0101
0000
,  // measure 65
1000
0000
0010
0000
0101
0000
1000
0100
1000
0001
0010
0000
1100
0000
0001
0000
,  // measure 66
0100
0000
1010
0000
0101
0000
0001
0100
0001
1000
0010
0000
1000
0100
0011
0000
,  // measure 67
1000
0000
0010
0000
1001
0000
0100
0000
1001
0100
0010
0000
0100
0000
1001
0000
,  // measure 68
0010
0000
1000
0000
0101
0000
1000
0100
1000
0001
0010
0000
0101
0000
1010
0000
,  // measure 69
0100
0000
0001
0000
1100
0000
0000
0000
0010
0001
0100
0000
1001
0000
0010
0000
,  // measure 70
0100
0000
0011
0000
1100
0000
0100
0010
0001
1000
0110
0000
0010
0010
0001
0010
,  // measure 71
1001
0010
0100
0000
0001
1000
0100
0010
,  // measure 72
0011
1100
0010
0101
0010
1100
0011
0100
,  // measure 73
1001
0100
0010
1000
0000
0100
0010
0001
,  // measure 74
1100
0011
0100
1010
0001
1100
0011
1100
,  // measure 75
0101
0010
1000
0000
0100
0000
0010
0000
,  // measure 76
1001
0000
0110
0000
0001
0000
0110
1000
0001
1000
0010
0000
1001
0000
0100
0000
,  // measure 77
0011
0000
0110
1100
0000
1010
0101
0000
,  // measure 78
0000
0000
1010
0000
0101
0000
0010
0100
1001
0010
0100
0000
1000
0001
0100
0000
,  // measure 79
2002
0000
0000
0000
,  // measure 80
3003
0000
0000
0000
;
