#TITLE:Japanese Hardcore;
#SUBTITLE:;
#ARTIST:DJ Technorch;
#TITLETRANSLIT:;
#SUBTITLETRANSLIT:;
#ARTISTTRANSLIT:;
#CREDIT:Rynker;
#BANNER:../fallback-bn.png;
#BACKGROUND:screen00144-1.jpg;
#LYRICSPATH:;
#CDTITLE:;
#MUSIC:DJ Technorch - Japanese Hardcore.ogg;
#OFFSET:-0.217;
#SAMPLESTART:21.020;
#SAMPLELENGTH:13.400;
#SELECTABLE:YES;
#DISPLAYBPM:175.000;
#BPMS:0.000=175.000,83.000=172.000,84.500=175.000,85.000=175.000,98.000=172.134,99.500=175.000,325.000=176.000,331.000=175.000;
#STOPS:389.000=2.417
;
#BGCHANGES:;
// cache tags:
#FIRSTBEAT:13.000;
#LASTBEAT:675.000;
#SONGFILENAME:Songs/SSSC PACK/[rynker] - Japanese Hardcore/japanese hardcore.sm;
#HASMUSIC:1;
#HASBANNER:1;
#MUSICLENGTH:238.342;
// end cache tags

//---------------dance-single - Rynker----------------
#NOTES:
     dance-single:
     Rynker:
     Challenge:
     13:
     1.000,1.000,0.537,0.361,1.000,1628.000,128.000,86.000,0.000,0.000:

0000
0000
0000
0000
,
0000
0000
0000
0000
,
0000
0000
0000
0000
,
0000
1100
0001
0001
,
0001
1100
0010
0010
,
0010
0101
1000
1000
,
1000
0101
0010
0010
,
0010
1100
0001
0001
,
0001
1100
0000
0000
,
0000
0011
0001
0100
,
0010
1010
1000
0100
,
0010
0011
0001
0100
,
0001
1001
1000
0100
,
0010
0011
0001
1000
,
0010
0110
0100
0001
,
1000
1100
0100
0010
,
0001
1001
1000
0001
,
0100
0110
0010
1100
,
1000
0011
0001
0101
,
0100
1010
0010
0101
,
0100
1001
0001
1100
,
0000
0000
0000
0000
0010
0001
0010
0001
0010
0000
0001
1000
0001
0000
1000
0001
,
1000
0001
1000
0000
0010
0100
0010
0100
0010
0000
1000
0001
1000
0000
0001
0010
,
0001
0010
0001
0000
0010
0100
0010
0100
0010
0000
0100
1000
0100
0000
1000
0100
,
1000
0100
1000
0000
0001
0100
0001
0100
0002
0000
0000
0000
0000
0000
0000
0003
,
1001
0000
0000
0000
1000
0100
0010
0100
1000
0000
0001
0100
0010
0000
1000
0010
,
1000
0001
0020
0000
0130
0010
0001
1000
0001
0000
0100
0010
1000
0000
0010
1000
,
0001
0010
0200
0000
0310
0001
1000
0001
1000
0000
0010
0100
0001
0000
1000
0001
,
0010
0100
0020
0000
0031
0010
0100
0010
0001
0000
1000
0010
0100
0000
0001
0100
,
0001
1000
0200
0000
0310
0100
1000
0001
1000
0000
0010
0100
0001
0000
0100
0001
,
1000
0100
0020
0000
0130
1000
0001
1000
0001
0000
0100
0010
1000
0000
0001
1000
,
0100
0010
0200
0000
1300
0100
0010
0100
1000
0000
0001
0100
0010
0000
1000
0010
,
1000
0001
0010
0000
0110
0000
0000
0110
0000
0000
1000
0001
0100
0000
0010
1000
,
0001
0010
0200
0000
0310
0001
1000
0001
1000
0000
0010
0100
0001
0000
1000
0001
,
0010
0100
0020
0000
0031
0010
0100
0010
0001
0000
1000
0010
0100
0000
0001
0100
,
0001
1000
0200
0000
0310
0100
1000
0001
1000
0000
0010
0100
0001
0000
0100
0001
,
1000
0100
0020
0000
0130
1000
0001
1000
0001
0000
0100
0010
1000
0000
0001
1000
,
0100
0010
0200
0000
0310
0001
0010
0001
1000
0000
0001
0100
0010
0000
1000
0010
,
0100
0001
1000
0000
0001
0010
0100
1000
0001
0000
1000
0001
0100
0000
0001
1000
,
0010
0100
0010
0000
1000
0010
0100
0001
1000
0000
0001
0010
0001
0000
1000
0100
,
0010
0100
1000
0000
0001
1000
0001
0100
0010
0000
1000
0010
0100
0000
0001
1000
,
0001
1000
0100
0000
0010
0100
0010
0100
1000
0000
0001
1000
0001
0000
0100
0010
,
1000
0010
1000
0000
0001
0100
0001
1000
0100
0000
0010
0100
1000
0000
0001
1000
,
0001
0100
0010
0000
1000
0010
1000
0010
0100
0000
0001
1000
0001
0000
0010
0100
,
0010
0100
1000
0000
0001
1000
0001
0100
0001
0000
1000
0010
1000
0000
0010
0100
,
0010
1000
0001
0000
1000
0001
0010
0100
1000
0000
0001
1000
0001
0000
0100
0010
,
1000
0010
1000
0000
0001
0100
0001
1000
0100
0000
0010
0100
1000
0000
0001
1000
,
0001
0100
0010
0000
1000
0010
0100
0010
1000
0000
0001
0010
0001
0000
1000
0100
,
0010
0100
1000
0000
0001
1000
0001
0100
0010
0000
1000
0010
0100
0000
0001
1000
,
0001
1000
0100
0000
0010
0100
1000
0100
1000
0000
0001
0100
0001
0000
1000
0010
,
1000
0010
0100
0000
0010
1000
0001
1000
0001
0000
0010
0100
1000
0000
0100
0010
,
0100
1000
0100
0000
1000
0001
1000
0001
0100
0000
0001
1000
0010
0000
0100
0010
,
1000
0010
1000
0000
0001
0100
0001
1000
0100
0000
0010
0100
1000
0000
0001
1000
,
0001
1000
0010
0000
0100
0010
1000
0010
1000
0000
0001
0100
0001
0000
1000
0100
,
1000
0100
0010
0000
0100
1000
0001
1000
0001
0000
0100
0001
1000
0000
0001
1000
,
0100
1000
0001
0000
0010
0001
1000
0001
0010
0000
0001
1000
0001
0000
1000
0001
,
1000
0001
1000
0000
0010
0100
0010
1000
0010
0000
0100
0010
1000
0000
0001
0010
,
0100
0010
0001
0000
1000
0100
1000
0100
1000
0000
0001
0100
0001
0000
1000
0001
,
1000
0001
1000
0000
0010
1000
0010
1000
0010
0000
1000
0010
1000
0000
0010
1000
,
0010
1000
0010
0000
0100
0001
1000
0010
0100
0000
0001
0100
0001
0000
1000
0001
,
0010
0001
1000
0000
0001
0010
0001
0010
0001
0000
1000
0100
1000
0000
0001
0100
,
0001
0100
0001
0000
1000
0100
0010
0001
1000
0000
0010
0100
0001
0000
0100
0010
,
1000
0010
1000
0000
0001
0100
0001
0100
0001
0000
1000
0100
1000
0000
0001
0010
,
0001
0010
0001
0000
1000
0001
0010
0001
1000
0000
0100
0010
0001
0000
0010
0100
,
1000
0001
1000
0000
0001
0100
0001
1000
0001
0000
1000
0000
0001
1000
0010
0100
,
0010
1000
0100
0010
0001
0010
0100
0000
1100
0000
0001
0100
0001
0000
1000
0010
,
1000
0010
0200
0000
0310
1000
0010
1000
0001
0000
0010
0001
1000
0000
0100
0010
,
0001
1000
0002
0000
1003
0010
0100
0010
1000
0000
0001
0100
0001
0000
1000
0100
,
0010
0100
2000
0000
3001
0100
0001
1000
0010
0000
0100
0010
1000
0000
0001
0010
,
0001
0100
0002
0000
1003
0100
0010
0100
1000
0000
0100
1000
0010
0000
0100
0010
,
1000
0010
0200
0000
0310
1000
0100
0010
0001
0000
1000
0001
0010
0000
0001
0100
,
0001
0010
0200
0000
1300
0100
1000
0010
0100
0000
0010
1000
0010
0000
0100
0010
,
1000
0001
0020
0000
0031
0010
0001
0100
0001
0000
1000
0100
1000
0000
0100
1000
,
0100
1000
0100
0000
1000
0001
0100
0001
1000
0000
0001
0100
0010
0000
1000
0100
,
0010
0100
2000
0000
3100
1000
0010
1000
0010
0000
0100
0001
0010
0000
0001
0010
,
0001
0100
0020
0000
1030
0010
0100
0010
1000
0000
0001
0010
0001
0000
1000
0100
,
0010
0001
2000
0000
3001
0100
0010
1000
0010
0000
0100
0010
1000
0000
0100
0010
,
0100
1000
0200
0000
1300
0010
1000
0010
0100
0000
0010
0100
0001
0000
0010
0001
,
0010
0001
0100
0000
0001
1000
0001
1000
0001
0000
1000
0010
1000
0000
0010
0100
,
0010
1000
0002
0000
1003
0001
0010
0001
0010
0000
0100
1000
0001
0000
1000
0010
,
1000
0010
0100
0000
0001
0010
0100
1000
0001
0000
0100
0010
1000
0010
0100
0001
,
1000
0001
0010
0100
0010
0000
0000
0000
0012
0000
0000
0000
0010
0000
0000
0000
,
0013
0120
0100
0100
,
0100
0030
1200
0000
1000
0000
1000
0000
,
1000
0300
2001
0000
0001
0000
0001
0000
,
0001
3000
0102
0000
0100
0000
0100
0000
,
0100
0003
0210
0000
0010
0000
0010
0000
,
0010
0300
1020
0000
1000
0000
1000
0000
,
1030
2001
0001
0001
,
3001
0021
0001
0001
,
0001
0030
0210
0000
0010
0000
0010
0000
,
0310
0021
0001
0001
,
0001
0030
1002
0000
1000
0000
1000
0000
,
1000
0003
1020
0000
1000
0000
1000
0000
,
1030
1200
1000
1000
,
1000
0300
0120
0000
0001
0000
0001
0000
,
0031
2000
0000
0002
,
0000
0000
0000
0000
0000
0000
0000
0000
0000
0000
0000
0000
0000
0000
0000
0000
0000
0000
0000
0000
0000
0000
0000
0000
0000
0000
0000
0000
0000
0000
0000
0000
0000
0000
0000
0000
0000
0000
0000
0000
0000
0000
0000
0000
0000
0000
0000
0000
0000
3003
0000
0000
0000
0000
0000
0000
0000
0000
0000
0000
0000
0000
0000
0000
0000
0000
0000
0000
0000
0000
0000
0000
0000
0000
0000
0000
0000
0000
0000
0000
0000
0000
0000
0000
0000
0000
0000
0000
0000
0000
0000
0000
0000
0000
0000
0000
0001
0000
0000
0000
0000
0000
0000
0000
0000
0000
0000
0000
0100
0000
0000
0000
0000
0000
0000
0000
0000
0000
0000
0000
0010
0000
0000
0000
0000
0000
0000
0000
0000
0000
0000
0000
0100
0000
0000
0000
0000
0000
0000
0000
0000
0000
0000
0000
0010
0000
0000
0000
0000
0000
0000
0000
0000
0000
0000
0000
0000
0000
0000
0000
0000
0000
0000
0000
0000
0000
0000
0000
1000
0000
0000
0000
0000
0000
0000
0000
0000
0000
0000
0000
0100
0000
0000
0000
0000
0000
0000
0000
0000
0000
0000
0000
,
0010
0000
0001
0100
0001
0010
0200
0000
0310
0001
1000
0010
0100
0000
0010
1000
,
0100
0000
0010
0001
0010
0100
2000
0000
3100
1000
0010
1000
0001
0000
0010
0001
,
0100
0000
0010
1000
0001
1000
0002
0000
0103
0001
0010
0100
0010
0000
0100
1000
,
0001
0000
0100
0010
1000
0100
0020
0000
0031
0100
0010
0100
0010
0000
1000
0100
,
0010
0000
0001
0100
0001
0010
0200
0000
0310
0001
1000
0010
0100
0000
0010
1000
,
0100
0000
0010
0001
0010
0100
2000
0000
3100
1000
0010
1000
0001
0000
0010
0001
,
0100
0000
0010
1000
0001
1000
0002
0000
0103
0001
0010
0100
0010
0000
0100
1000
,
0001
0000
0100
0010
1000
0100
0020
0000
0031
0100
0010
0100
0010
0000
1000
0100
,
0010
0000
0001
0100
0001
0010
0200
0000
0310
0001
1000
0010
0100
0000
0010
1000
,
0100
0000
0010
0001
0010
0100
2000
0000
3100
1000
0010
1000
0001
0000
0010
0001
,
0100
0000
0010
1000
0001
1000
0002
0000
0103
0001
0010
0100
0010
0000
0100
1000
,
0001
0000
0100
0010
1000
0100
0020
0000
0031
1000
0001
0100
0010
0000
1000
0100
,
0010
0000
0001
0010
0100
1000
0002
0000
0103
0010
0100
0010
1000
0000
0001
0010
,
0100
0000
0010
0001
1000
0001
0200
0000
0310
1000
0010
0100
0001
0000
1000
0100
,
1000
0000
0001
0010
0100
0010
0002
0000
0103
0010
1000
0010
0100
0000
0001
1000
,
0100
0000
0010
0001
0010
0100
0020
0000
0031
1000
0100
0010
0100
0000
0010
0001
,
1000
0000
0010
0100
0001
0010
0200
0000
1300
0001
1000
0010
0100
0000
0001
0010
,
0100
0000
1000
0100
0010
0001
2000
0000
3010
0100
0010
0100
0001
0000
1000
0100
,
0010
0000
0100
1000
0001
1000
0020
0000
0130
0001
0100
0010
1000
0000
0001
0010
,
0001
0000
1000
0100
0010
0100
2000
0000
3010
0100
0001
0100
0010
0000
1000
0001
,
0010
0000
0100
1000
0100
0010
0200
0000
0310
0001
0010
0100
0010
0000
0100
1000
,
0001
0000
0100
0010
1000
0100
0020
0000
0031
1000
0001
0100
0010
0000
1000
0100
,
0010
0000
0001
0010
0100
1000
0002
0000
0103
0010
0100
0010
1000
0000
0001
0010
,
0100
0000
0010
0001
1000
0001
0200
0000
0310
1000
0010
0100
0001
0000
1000
0100
,
1000
0000
0001
0010
0100
0010
0002
0000
0103
0010
1000
0010
0100
0000
0001
1000
,
0100
0000
0010
0001
0010
0100
0020
0000
0130
1000
0100
0010
0100
0000
0010
0001
,
1000
0000
0010
0100
0001
0010
0200
0000
1300
0010
0100
0010
0100
0000
0001
0010
,
0100
0000
1000
0010
1000
0100
0020
0000
0130
1000
0001
0100
0010
0000
0100
0001
,
0010
0000
0100
1000
0100
0010
0002
0000
0013
0001
0100
0001
1000
0000
0100
1000
,
0010
0000
0100
0001
1000
0001
2000
0000
3010
1000
0100
0010
0100
0000
0010
0001
,
1000
0000
0010
0100
0001
0010
0200
0000
1300
0010
0100
0010
0100
0000
0001
0010
,
0100
0000
1000
0010
1000
0100
0020
0000
0130
1000
0001
0100
0010
0000
0100
0001
,
0010
0000
0100
1000
0100
0010
0002
0000
0013
0001
0100
0001
1000
0000
0100
1000
,
0010
0000
0100
0001
1000
0001
2000
0000
3010
1000
0100
0010
0100
0000
0010
0001
,
1000
0000
0010
0100
0001
0010
0200
0000
1300
0001
1000
0010
0100
0000
0001
0010
,
0100
0000
1000
0100
0010
0001
2000
0000
3010
0100
0010
0100
0001
0000
1000
0100
,
0010
0000
0100
1000
0001
1000
0020
0000
0130
0001
0100
0010
1000
0000
0001
0010
,
0001
0000
1000
0100
0010
0100
2000
0000
3010
0100
0001
0100
0010
0000
1000
0001
,
0010
0000
0100
1000
0100
0010
0200
0000
1300
0001
0010
0100
0010
0000
0100
1000
,
0001
0000
0100
0010
1000
0100
0020
0000
0031
1000
0001
0100
0010
0000
1000
0100
,
0010
0000
0001
0010
0100
1000
0002
0000
1003
0010
0100
0010
1000
0000
0001
0010
,
0100
1000
0001
0000
0010
0001
1000
0000
0010
1000
0001
0100
0010
0000
1000
0100
,
0010
0001
0100
0000
0010
1000
0001
0000
0011
0000
0000
0100
1000
0000
1000
0010
,
1000
0000
0000
0101
0000
0000
0001
0010
0100
0010
0001
0100
0010
1000
0100
0010
,
0001
0100
0010
1000
0010
1000
0001
1000
0010
0000
0000
0000
1010
0000
0000
0000
,
1001
0000
0011
0010
0110
0000
1100
0000
,
1000
0100
1100
1000
1001
0000
0101
0000
,
1010
0010
0110
0100
0101
0000
0011
0100
,
1100
0000
1000
0001
1000
0001
0100
0010
0100
0000
0000
0000
0110
0000
0000
0000
,
1010
0000
0101
0001
0011
0000
0110
0000
,
1100
0000
1001
1000
1010
0000
0110
0000
,
0101
0001
0011
0010
0220
0000
0330
0000
,
0000
0000
1100
0100
1100
0000
1001
0000
,
1001
0010
1010
0100
0101
0000
0101
0000
,
0011
0001
1100
1000
1001
0000
1001
0000
,
0101
0010
1010
0100
0101
0000
1001
0000
,
0011
0000
0100
1000
0001
0000
1000
0001
0100
0000
0000
0000
1010
0000
0000
0000
,
0110
0001
1001
1000
0110
0000
0110
0000
,
1001
0001
0101
0100
1010
0000
1010
0000
,
0101
0001
1100
1000
0220
0000
0000
0330
,
0000
0000
1001
0011
,
0110
0000
1001
0000
0101
0001
1001
0000
,
1001
0000
1100
0000
0110
0100
0110
0000
,
1001
0000
1001
0000
1001
1000
1010
0000
,
0110
0000
0101
0000
0011
0001
0110
0000
,
0110
0000
0110
0000
1100
1000
1001
0000
,
0101
0000
1001
0000
1010
0010
0110
0000
,
0101
0000
1001
0000
1100
1000
1100
0000
,
0110
0000
0010
0001
,
1000
0010
0100
0010
,
1000
0000
0000
0000
0001
1000
0001
1000
0001
0000
0000
0000
1001
0000
0000
0000
;
