#TITLE:Within Destruction;
#SUBTITLE:An Ocean Between Us (2007);
#ARTIST:As I Lay Dying;
#TITLETRANSLIT:;
#SUBTITLETRANSLIT:;
#ARTISTTRANSLIT:;
#CREDIT:;
#BANNER:within-bn.png;
#BACKGROUND:within-bg.png;
#LYRICSPATH:;
#CDTITLE:roundbox-cdtitle.png;
#MUSIC:Within Destruction.mp3;
#OFFSET:0.000;
#SAMPLESTART:32.940;
#SAMPLELENGTH:14.000;
#SELECTABLE:YES;
#BPMS:0.000=195.101,95.750=92.660,128.000=92.500,146.000=87.500,194.000=87.480,226.000=195.101,306.000=195.001,354.000=184.320,386.000=184.900;
#STOPS:353.750=0.020
;
#BGCHANGES:;
// cache tags:
#FIRSTBEAT:0.000;
#LASTBEAT:518.500;
#SONGFILENAME:Songs/Astronomic Metal Collection/(roundbox)Within Destruction/Within Destruction.sm;
#HASMUSIC:1;
#HASBANNER:1;
#MUSICLENGTH:234.015;
// end cache tags

//---------------dance-single - ----------------
#NOTES:
     dance-single:
     :
     Hard:
     15:
     1.000,1.000,1.000,0.064,1.000,1727.000,519.000,15.000,4.000,78.000:
0110
0010
0010
0010
0010
0010
0010
0010
0101
0000
1010
0000
0100
0100
0100
0100
,
1010
0000
0110
0000
1000
1000
1000
1000
0110
0000
0101
0000
0110
0000
1010
0000
,
0101
0001
0001
0001
0001
0001
0001
0001
0110
0000
1010
0000
0010
0010
0010
0010
,
1100
0000
0000
0000
0000
0000
0011
0000
0000
0000
0000
0000
0100
0000
0000
0100
0000
0000
0100
0000
0000
0100
0000
0000
0100
0000
0010
0000
0001
0000
0010
0000
0000
0100
0000
0000
1000
0000
0000
0100
0000
0000
0010
0000
0000
0000
0000
0000
,
1100
1000
1000
1000
1000
1000
1000
1000
0101
0000
0110
0000
0001
0001
0001
0001
,
1010
0000
0110
0000
1000
1000
1000
1000
0101
0000
0110
0000
1100
0000
0101
0000
,
1100
0100
0100
0100
0100
0100
0100
0100
0011
0000
1100
0000
0010
0010
0010
0010
,
0001
0000
0010
0000
0100
0000
0010
0000
0000
1000
0000
0000
0010
0000
0000
0000
0000
0000
0001
0000
0000
0000
0000
0000
0010
0000
0100
0000
0010
0000
0001
0000
0000
0100
0000
0000
1000
0000
0000
0000
0000
0000
0010
0000
0000
0000
0000
0000
,
0101
0001
0001
0001
0001
0001
0001
0001
1010
0000
0101
0000
0010
0010
0010
0010
,
1001
0000
0110
0000
0001
0001
0001
0001
0110
0000
1100
0000
0110
0000
0101
0000
,
1100
1000
1000
1000
1000
1000
1000
1000
0101
0000
1001
0000
0010
0010
0010
0010
,
1100
0000
0000
0000
0000
0000
0101
0000
0000
0000
0000
0000
0010
0000
0000
0010
0000
0000
0010
0000
0000
0010
0000
0000
0100
0000
0010
0000
0001
0000
0010
0000
0000
0100
0000
0000
0010
0000
0000
0100
0000
0000
0010
0000
0000
0100
0000
0000
,
0011
0001
0001
0001
0001
0001
0001
0001
1100
0000
0011
0000
0100
0100
0100
0100
,
0011
0000
1100
0000
1000
1000
1000
1000
0101
0000
1001
0000
1010
0000
0110
0000
,
0011
0001
0001
0001
0001
0001
0001
0001
1010
0000
0110
0000
0010
0010
0010
0010
,
0101
0010
0100
1000
0001
0010
0100
1000
0001
0010
0100
1000
0001
0010
0100
0010
,
0101
0010
0100
0010
0001
0010
0100
0010
0001
0010
0100
0010
0001
0010
0100
0010
,
0001
0010
0100
0010
0001
0010
0100
0010
0001
0100
1000
0100
0010
0000
0100
0000
,
0100
0010
0100
1000
0100
0010
0100
1000
0100
0010
0100
1000
0100
0010
0100
1000
,
0100
0010
0100
1000
0100
0010
0100
1000
0110
0000
0000
0101
0000
0000
1010
0000
,
1100
0010
0001
0010
1000
0010
0001
0010
1000
0010
0001
0010
1000
0010
0001
0010
,
1000
0100
0001
0010
1000
0010
0001
0010
1000
0100
0010
0100
0001
0010
0100
1000
,
0100
0010
0100
0001
0100
0010
0100
0001
0100
0010
0100
0001
0100
0010
0100
0001
,
0110
0000
0000
0000
0000
0000
0000
0000
0000
1100
0000
0000
0000
0000
0000
0000
0000
0000
0101
0000
0000
0000
0000
0000
0000
0000
0011
0000
0000
0000
0000
0000
0000
0000
0101
0000
0000
0000
0000
0000
0000
0000
0000
0110
0000
0000
0000
0000
,
0011
0000
0001
0001
0001
0000
0001
0000
0001
0100
0001
0000
0001
0100
0001
0000
0001
0100
0001
0000
0001
0100
0001
0000
0001
0100
0001
0000
0001
0100
0001
0000
,
0110
0000
0010
0010
0010
0000
0010
0000
0010
0100
0010
0000
0010
0100
0010
0000
1100
0100
0100
0100
0020
0000
0030
0000
0100
0100
0100
0100
0002
0000
0003
0000
,
1010
0000
1000
1000
1000
0000
1000
0000
1000
0010
1000
0000
1000
0010
1000
0000
1000
0010
1000
0000
1000
0010
1000
0000
1000
0010
1000
0000
1000
0010
1000
0000
,
0101
0000
0100
0100
0100
0000
0100
0000
0100
0001
0100
0000
0100
0001
0100
0000
0110
0100
0100
0100
0120
0000
0030
0000
0110
0010
0010
0010
0012
0000
0003
0000
,
1100
0000
1000
1000
1000
0000
1000
0000
1100
0010
1000
0000
1000
0010
1000
0000
1000
0010
1000
0000
1000
0010
1000
0000
1100
0010
1000
0000
1000
0010
1000
0000
,
0110
0000
0100
0100
0100
0000
0100
0000
1100
0010
0100
0000
0100
0010
0100
0000
0100
0010
0100
0000
0100
0010
0100
0000
1100
0010
0100
0000
0100
0010
0100
0000
,
0101
0000
0001
0001
0001
0000
0001
0000
0011
0100
0001
0000
0001
0100
0001
0000
0001
0100
0001
0000
0001
0100
0001
0000
0011
0100
0001
0000
0001
0100
0001
0000
,
0110
0000
0010
0010
0010
0000
0010
0000
0011
1000
0010
0000
0010
1000
0010
0000
0110
0100
0100
0100
0120
0000
0030
0000
0110
0010
0010
0010
0012
0000
0003
0000
,
0011
0000
0001
0001
0001
0000
0001
0000
0011
0100
0001
0000
0001
0100
0001
0000
0001
0100
0001
0000
0001
0100
0001
0000
0011
0100
0001
0000
0001
0100
0001
0000
,
0110
0000
0010
0010
0010
0000
0010
0000
0011
0100
0010
0000
0010
0100
0010
0000
0110
0100
0100
0100
0120
0000
0030
0000
0110
0010
0010
0010
0012
0000
0003
0000
,
1010
0000
1000
1000
1000
0000
1000
0000
1100
0010
1000
0000
1000
0010
1000
0000
1000
0010
1000
0000
1000
0010
1000
0000
1100
0010
1000
0000
1000
0010
1000
0000
,
0110
0000
0100
0100
0100
0000
0100
0000
1100
0001
0100
0000
0100
0001
0100
0000
1100
1000
1000
1000
2010
0000
3000
0000
0110
0100
0100
0100
0210
0000
0300
0000
,
0110
0010
0010
0010
0021
0000
0030
0000
0101
0001
0001
0001
0012
0000
0003
0000
1010
0000
0100
0000
0010
0000
0100
0000
0010
0000
0100
0000
0010
0000
0100
0000
,
0010
0100
0010
0100
0010
0100
0010
0100
0010
0100
0010
0100
0010
0100
0010
0100
,
1010
0000
0000
0000
0000
0000
1001
0000
1000
0000
1000
0000
0110
0000
0000
0000
0000
0000
0001
0000
0000
0000
0000
0000
1201
0000
0300
0010
0000
0000
0100
0000
0000
0010
0000
0000
0100
0000
0000
0010
0000
0000
0100
0000
0000
0010
0000
0000
,
0100
0010
0100
0010
0100
0010
0100
0010
0100
0010
0100
0010
0100
0010
0100
0010
,
0110
0000
0000
0100
0000
0000
0101
0000
0000
0001
0000
0000
1001
0000
0000
1010
0000
0000
0110
0000
0000
0101
0000
0000
1021
0000
0030
0100
0000
0000
0010
0000
0000
0100
0000
0000
0010
0000
0000
0100
0000
0000
0010
0000
0000
0100
0000
0000
,
0010
0100
0010
0100
0010
0100
0010
0100
0001
0010
0001
0010
0001
0010
0001
0010
,
0001
0100
0001
0100
0001
0100
0001
0100
0010
0100
0010
0100
0010
0100
0010
0100
,
0010
0100
0010
0100
0010
0100
0010
0100
1010
1000
0001
0001
0000
0100
1100
1000
,
0001
0000
0000
0001
0000
0000
0010
0000
0000
0010
0000
0000
0100
0000
0000
0100
0000
0000
1000
0000
0000
1000
0000
0000
1012
0000
0003
0100
0000
0000
0010
0000
0000
0100
0000
0000
0010
0000
0000
0100
0000
0000
0010
0000
0000
0100
0000
0000
,
0010
0100
0010
0100
0010
0100
0010
0100
0001
0010
0001
0010
0001
0010
0001
0010
,
0001
0100
0001
0100
0001
0100
0001
0100
0010
0100
0010
0100
0010
0100
0010
0100
,
0010
0100
0010
0100
0010
0100
0010
0100
0010
0100
0010
0100
0010
0100
0010
0100
,
0011
0000
0100
0000
111M
0000
0000
0000
1M11
0100
0010
0100
0010
0100
0010
0100
,
0010
0100
0010
0100
0010
0100
0010
0100
0010
1000
0010
1000
0010
1000
0010
1000
,
0100
1000
0100
1000
0100
1000
0100
1000
0010
0100
0010
0100
0010
0100
0010
0100
,
0010
0100
0010
0100
0010
0100
0010
0001
0010
0100
0010
0100
0010
0100
0010
0100
,
0010
0001
0010
0100
1M11
0000
0000
0000
111M
0001
0100
0001
0100
0001
0100
0001
,
0100
0001
0100
0001
0100
0001
0100
0001
0100
0001
0100
0001
0100
0001
0100
0001
,
0100
0001
0100
0001
0100
0001
0100
0001
0100
0001
0100
0001
0100
0001
0100
0001
,
0100
0001
0100
0001
0100
0001
0100
0001
0100
0001
0100
0001
0100
0001
0100
0001
,
0100
0001
0100
0001
0100
0001
0100
0001
1100
0010
0101
1000
0110
0001
1010
0100
,
0011
0100
1001
0010
1100
0010
0101
1000
0110
0001
1010
0100
0011
0100
1010
0001
,
1100
0010
1001
0100
0011
0100
1010
0100
0011
0100
1001
0010
1100
0001
0110
0001
,
1010
0100
0011
1000
0101
0010
1001
0100
1010
0001
0110
1000
0101
0010
1100
0010
,
1001
0100
0011
1000
0110
0001
1010
0100
1001
0010
0101
0010
1100
0001
0110
1000
,
0101
0010
1001
0010
1100
0010
0101
1000
0110
0001
1010
0100
0011
0100
1001
0010
,
1100
0010
0101
1000
0110
0001
1010
0100
0011
0100
1010
0001
1100
0010
1001
0100
,
0011
0100
1010
0100
0011
0100
1001
0010
1100
0001
0110
0001
1010
0100
0011
1000
,
0101
0010
1001
0100
1010
0001
0110
1000
0101
0001
0001
0001
0001
0001
0001
0001
,
0110
0000
1010
0000
0100
0100
0100
0100
0011
0000
1001
0000
0100
0100
0100
0100
,
1010
0000
1001
0000
0101
0000
0110
0000
1100
0100
0100
0100
0100
0100
0100
0100
,
0011
0000
1010
0000
0100
0100
0100
0100
0011
0100
0010
0100
1000
0100
0010
0001
,
0010
0100
0010
0001
0010
0100
1000
0001
1010
0010
0010
0010
0010
0010
0010
0010
,
0101
0000
0110
0000
1000
1000
1000
1000
0011
0000
1100
0000
0010
0010
0010
0010
,
1100
0000
0011
0000
1010
0000
0101
0000
1010
1000
1000
1000
1000
1000
1000
1000
,
0101
0000
0000
0000
0000
0000
0011
0000
0000
0000
0000
0000
0010
0000
0000
0010
0000
0000
0010
0000
0000
0010
0000
0000
0100
0000
0010
0000
0001
0000
0010
0000
0000
1000
0000
0000
0010
0000
0000
0000
0000
0000
0100
0000
0000
0000
0000
0000
,
0010
0000
0100
0000
1000
0000
0100
0000
0000
0010
0000
0000
0001
0000
0000
0000
0000
0000
0010
0000
0000
0000
0000
0000
0101
0000
0000
0001
0000
0000
0001
0000
0000
0001
0000
0000
0001
0000
0000
0001
0000
0000
0001
0000
0000
0001
0000
0000
,
1010
0000
1001
0000
0010
0010
0010
0010
1100
0000
0011
0000
1000
1000
1000
1000
,
0101
0000
0110
0000
1100
0000
0110
0000
0011
0001
0001
0001
0001
0001
0001
0001
,
1010
0000
1100
0000
0010
0010
0010
0010
0101
0000
0110
0000
1000
1000
1000
1000
,
0100
0000
0010
0000
0001
0000
0010
0000
0000
0100
0000
0000
1000
0000
0000
0100
0000
0000
0010
0000
0000
0100
0000
0000
1010
0000
0000
1000
0000
0000
1000
0000
0000
1000
0000
0000
1000
0000
0000
1000
0000
0000
1000
0000
0000
1000
0000
0000
,
0011
0000
1100
0000
0010
0010
0010
0010
0101
0000
1010
0000
0001
0001
0001
0001
,
1010
0000
0101
0000
1001
0000
0110
0000
0011
0010
0010
0010
0010
0010
0010
0010
,
1001
0000
0000
0000
0000
0000
0110
0000
0000
0000
0000
0000
0100
0000
0000
0100
0000
0000
0100
0000
0000
0100
0000
0000
0001
0000
0010
0000
0100
0000
1000
0000
0000
0100
0000
0000
0010
0000
0000
0001
0000
0000
0010
0000
0000
0100
0000
0000
,
0010
0001
0010
0100
1000
0010
0100
1000
0101
0010
0100
0010
0001
0010
0100
0010
,
0001
0010
0100
0010
0001
0010
0100
0010
0001
0010
0100
0010
0001
0010
0100
0010
,
0001
0100
1000
0100
0001
0000
0010
0000
0010
0100
1000
0100
0010
0100
1000
0100
,
0010
0100
1000
0100
0010
0100
1000
0100
0010
0100
1000
0100
0010
0100
1000
0100
,
0011
0000
0000
0110
0000
0000
1100
0000
1100
0010
0001
0010
1000
0010
0001
0010
,
1000
0010
0001
0010
1000
0010
0001
0010
1000
0100
0001
0010
1000
0010
0001
0010
,
1000
0100
0010
0100
0001
0010
0100
1000
0100
0010
0100
0001
0100
0010
0100
0001
,
0100
0010
0100
0001
0100
0010
0100
0001
0110
0000
0000
1100
0000
0000
0101
0000
,
0000
0000
0011
0000
0000
0000
0000
0000
0000
0000
0101
0000
0000
0000
0000
0000
0000
0000
0000
0110
0000
0000
0000
0000
1001
0000
0000
0010
0000
0000
0100
0000
0000
0000
0000
0000
1000
0000
0000
0000
0000
0000
1000
0000
0000
0000
0000
0000
,
1001
0010
0100
0000
1001
0010
0100
0000
1000
0000
1000
0000
1001
0010
0100
0000
,
1001
0010
0100
0000
1000
0000
1000
0000
1001
0010
0100
0000
1000
0000
1000
0000
,
1001
0010
0100
0000
1001
0010
0100
0000
1000
0000
1000
0000
1001
0010
0100
0000
,
1001
0010
0100
0000
1000
0000
1000
0000
1101
0010
0100
0000
1000
0000
1000
0000
,
1001
0010
0100
0000
1001
0010
0100
0000
1000
0000
1000
0000
1001
0010
0100
0000
,
1001
0010
0100
0000
1000
0000
1000
0000
1001
0010
0100
0000
1000
0000
1000
0000
,
1001
0010
0100
0000
1001
0010
0100
0000
1000
0000
1000
0000
1001
0010
0100
0000
,
1001
0010
0100
0000
1000
0000
1000
0000
1010
0000
1010
0000
0100
0000
0100
0000
,
0100
0000
0100
0000
0101
0000
0010
0100
1010
0000
1010
0000
0100
0000
0100
0000
,
0011
0100
0011
0100
1010
1010
0100
0100
,
0100
0000
0100
0000
0101
0000
0010
0100
1010
0000
1010
0000
0100
0000
0100
0000
,
0011
0011
0100
0100
1010
1010
0100
0100
,
0100
0000
0100
0000
0101
0000
0010
0100
1010
0000
1010
0000
0100
0000
0100
0000
,
0011
0100
0011
0100
1010
1010
0100
0100
,
0100
0000
0100
0000
0101
0000
0010
0100
1010
0000
1010
0000
0100
0000
0100
0000
,
0011
0011
0100
0100
1010
1010
1010
1010
,
1010
0000
1010
0000
1010
0000
1010
0101
1010
0000
0101
0000
0101
0000
0101
0000
,
0110
0101
0101
0110
1010
1010
1010
1010
,
1010
0000
1010
0000
1010
0000
1010
0101
1010
0000
0101
0000
0101
0000
0101
0000
,
0110
0110
0101
0101
1010
1010
1010
1010
,
1010
0000
1010
0000
1010
0000
1010
0101
1010
0000
0101
0000
0101
0000
0101
0000
,
0110
0101
0101
0110
1010
1010
1010
1010
,
1010
0000
1010
0000
1010
0000
1010
0101
1010
0000
0101
0000
0101
0000
0101
0000
,
0110
0110
0101
0101
1011
1011
1010
1010
,
1010
0000
1010
0000
1011
0000
0111
1011
0111
0000
0101
0000
0110
0000
0110
0000
,
1101
1101
1010
1010
1011
1011
1010
1010
,
1010
0000
1010
0000
1011
0000
0111
1011
0111
0000
0101
0000
0110
0000
0110
0000
,
1101
1101
1010
1010
1011
1011
1010
1010
,
1010
0000
1010
0000
1011
0000
0111
1011
0111
0000
0101
0000
0110
0000
0110
0000
,
1101
1101
1010
1010
1011
1011
1010
1010
,
1010
0000
1010
0000
1011
0000
0111
1011
0111
0000
0101
0000
0110
0000
0110
0000
,
1101
1101
1010
1010
1011
1011
1010
1010
,
1010
0000
1010
0000
1011
0000
0111
1011
0111
0000
0101
0000
0110
0000
0110
0000
,
1101
1101
1010
1010
1011
1011
1010
1010
,
1010
0000
1010
0000
1011
0000
0111
1011
0111
0000
0101
0000
0110
0000
0110
0000
,
1101
1101
1010
1010
1011
1011
1010
1010
,
1010
0000
1010
0000
1011
0000
0111
1011
0111
0000
0101
0000
0110
0000
0110
0000
,
1101
1101
1010
1010
1011
1011
1010
1010
,
1010
0000
1010
0000
1011
0000
0111
1011
0111
0000
0101
0000
0110
0000
0110
0000
,
1101
1101
1010
1010
1011
1011
1010
1010
,
1010
0000
1010
0000
1011
0000
0111
1011
0111
0000
0101
0000
0000
0000
0000
0000
;
