#TITLE:Monkey Dance;
#SUBTITLE:;
#ARTIST:Y&Co.;
#TITLETRANSLIT:;
#SUBTITLETRANSLIT:;
#ARTISTTRANSLIT:;
#CREDIT:;
#BANNER:MonkeyDance-bn.png;
#BACKGROUND:MonkeyDance-bg.png;
#LYRICSPATH:;
#CDTITLE:!joeCDtitle.png;
#MUSIC:Monkey Dance.mp3;
#OFFSET:0.180;
#SAMPLESTART:67.200;
#SAMPLELENGTH:12.000;
#SELECTABLE:YES;
#BPMS:0.000=155.000;
#STOPS:;
#BGCHANGES:;
// cache tags:
#FIRSTBEAT:4.000;
#LASTBEAT:282.000;
#SONGFILENAME:Songs/Keyboard Collaboration II/-joe - - Monkey Dance/MonkeyDance.sm;
#HASMUSIC:1;
#HASBANNER:1;
#MUSICLENGTH:113.841;
// end cache tags

//---------------dance-single - ----------------
#NOTES:
     dance-single:
     :
     Hard:
     11:
     1.000,1.000,1.000,0.299,0.813,673.000,177.000,34.000,0.000,0.000:  // measure 1
0000
0000
0000
0000
,  // measure 2
0001
0000
0100
0000
2010
0000
3000
0000
0010
0000
0000
1000
0000
0000
0010
0000
,  // measure 3
0000
0000
0010
0000
0010
0000
0000
0000
0010
0000
0000
1000
0000
0000
0010
0000
,  // measure 4
0000
0000
0010
0000
0010
0000
0000
0000
0010
0000
0000
1000
0000
0000
0010
0000
,  // measure 5
0000
0000
0010
0000
0010
0000
0010
0000
0010
0000
0010
1000
0100
0010
0001
0000
,  // measure 6
0100
0000
0001
0000
0101
0000
0000
1000
0001
0000
1000
0001
0100
0000
0001
0000
,  // measure 7
0100
0000
0001
0000
0101
0000
0000
1000
0001
0000
0100
0001
0100
0010
1000
0000
,  // measure 8
0001
0000
1000
0000
1010
0000
0000
1000
0101
0000
0001
1000
0001
0000
0022
0000
,  // measure 9
0033
0000
0220
0000
0330
0000
2020
0000
3030
0000
1001
0010
1000
0010
1000
0010
,  // measure 10
1001
0000
0101
0000
1001
0000
0100
0000
1001
0000
0010
0001
1100
0000
0101
0000
,  // measure 11
1000
0000
0101
0000
1001
0000
0010
0000
1001
0000
0010
1000
0011
0000
1100
0000
,  // measure 12
0100
0000
0101
0000
1100
0000
0001
0000
1100
0000
0001
0010
0100
0000
0011
0000
,  // measure 13
1000
0000
0011
0000
1001
0000
0011
0000
0101
0000
0010
0100
0001
1000
0001
0000
,  // measure 14
1100
0000
0101
0000
1100
0000
0001
0000
1100
0000
0010
0100
0001
0000
0011
0000
,  // measure 15
1000
0000
0101
0000
1001
0000
0010
0000
1001
0000
0010
0001
1100
0000
0011
0000
,  // measure 16
1000
0000
0110
0000
1100
0000
0011
0000
0101
0000
0100
0001
1100
0000
0011
0000
,  // measure 17
2002
0000
0000
0000
0000
0000
0000
0000
3003
0000
1001
0010
1000
0000
0010
0000
,  // measure 18
0101
0010
0000
0100
0010
0100
0001
0100
1001
0000
1000
0000
1100
0000
0100
0000
,  // measure 19
0011
0100
0000
0001
1100
0001
0010
0100
1001
0000
0010
0000
1100
0000
2000
0000
,  // measure 20
3001
0010
0000
0100
0010
0100
0010
0100
1010
0000
1000
0000
0011
0000
0001
0000
,  // measure 21
0011
1000
0000
0001
1100
0001
0010
0100
1001
0010
0100
1000
0001
0000
0100
0010
,  // measure 22
1000
0001
0000
0100
1001
0100
0010
1000
0011
0000
1000
0000
1010
0000
0100
0000
,  // measure 23
0101
0010
0000
1000
0001
1000
0010
0100
0011
0000
0010
0000
1010
0000
2000
0000
,  // measure 24
3001
0010
0000
0010
1100
0001
0010
0100
1001
0000
0100
0000
1010
0000
0001
0000
,  // measure 25
1100
0010
0001
0000
1001
0010
0100
0001
0010
0001
1000
0010
1001
0010
0100
1000
,  // measure 26
0011
0000
0020
0000
0230
0000
0302
0000
2003
0000
3002
0000
2003
0000
3001
0010
,  // measure 27
0100
1000
0000
0001
1000
0000
0100
0000
1100
0001
0000
1000
0010
0100
0001
0100
,  // measure 28
2020
3030
0101
0000
1000
0001
1100
0010
,  // measure 29
1000
0010
1001
0000
1000
0010
1100
0010
,  // measure 30
1000
0001
0110
0000
1000
0001
1100
0010
,  // measure 31
1000
0000
0010
0000
0011
0000
0000
0000
1000
0000
0001
0000
1001
0010
0100
1000
,  // measure 32
0001
0000
1001
0100
1000
0001
1100
0001
,  // measure 33
1000
0010
1010
0000
1001
0100
0110
0100
,  // measure 34
1010
0000
1001
0100
1001
0010
1100
1000
,  // measure 35
1000
0000
0000
0000
0101
0000
0000
0001
0100
0000
0001
1000
0001
0000
0010
0000
,  // measure 36
1100
0001
1010
0101
1100
0001
1001
0010
,  // measure 37
1000
0101
1100
0101
1000
0011
1010
0101
,  // measure 38
1000
0001
1001
0101
1010
0011
1100
0001
,  // measure 39
1000
0000
0101
0000
1010
0000
0101
0000
1000
0000
0011
0000
1000
0001
1000
0001
,  // measure 40
1000
0001
1001
0100
1010
0110
1100
0101
,  // measure 41
1000
0101
1100
0110
1000
0110
1100
0011
,  // measure 42
1000
0010
1010
0010
1100
0101
1010
0110
,  // measure 43
1000
0000
0001
0010
0100
0000
0001
0000
0022
0000
0033
0220
0000
0330
2002
0000
,  // measure 44
3003
0000
0000
0000
,  // measure 45
0011
0000
2000
3001
1000
0001
0110
0001
,  // measure 46
1000
0010
1100
0001
1000
0010
1100
0001
,  // measure 47
0100
0010
1100
0010
1001
0100
0011
0100
,  // measure 48
0001
0000
1000
0000
0101
0000
0010
0000
1001
0000
0001
0100
0001
0000
0101
0000
,  // measure 49
1000
1000
0110
0010
0011
1000
0110
0010
,  // measure 50
0001
0100
0011
0010
0110
0100
1100
1000
,  // measure 51
0001
0100
1010
0100
0101
0001
0011
0100
,  // measure 52
0001
0100
0010
1000
0001
0000
0101
0000
1100
0001
0000
1000
0010
0100
0001
1000
,  // measure 53
0010
0100
0010
1000
0001
0100
0010
1000
0001
1000
0010
0100
0001
1000
0010
0100
,  // measure 54
0001
1000
0010
0100
0001
0100
0010
1000
0001
1000
0001
0100
0001
1000
0001
0100
,  // measure 55
0010
1000
0001
1000
0010
0100
0001
0010
0001
1000
0010
0100
0010
1000
0100
1000
,  // measure 56
0010
0100
0001
0010
0001
1000
0010
0100
0001
0010
0001
1000
0100
1000
0010
0100
,  // measure 57
0001
0010
0001
1000
0100
1000
0010
0100
0001
0010
0001
1000
0010
0100
0001
1000
,  // measure 58
0010
0100
0010
0100
0001
0100
0010
1000
0001
0010
0001
1000
0010
0100
0001
1000
,  // measure 59
0001
1000
0010
1000
0001
0100
0010
1000
0001
0010
0001
0100
0010
0000
2002
0000
,  // measure 60
3003
0000
2002
0000
3003
0000
2002
0000
3003
0000
0010
0100
1000
0001
0100
0010
,  // measure 61
1000
0001
0000
1000
0001
0100
0001
0010
0100
0000
1000
0000
1001
0000
1000
0000
,  // measure 62
0001
0100
0000
0001
1000
0001
0010
0100
1001
0000
0100
0000
1010
0000
1000
0000
,  // measure 63
1001
0010
0000
0010
1000
0001
0010
0100
1001
0000
0010
0000
0110
0000
0001
0000
,  // measure 64
0011
1000
0000
0001
1100
0001
0010
0100
1001
0010
0100
1000
0011
0000
0001
0100
,  // measure 65
0010
1000
0000
0001
0010
0001
1000
0100
0010
0000
0010
0000
0110
0000
0010
0000
,  // measure 66
0011
0100
0000
1000
0001
0100
0010
1000
0100
0000
1000
0000
1001
0000
0001
0000
,  // measure 67
1001
0100
0000
0010
1100
0001
0010
0100
1001
0000
0100
0000
1001
0000
0001
0000
,  // measure 68
1000
0100
0010
0000
1000
0100
0010
0000
0001
1000
0100
0010
0001
0010
0100
1000
,  // measure 69
0001
0000
0100
0000
1001
0000
0010
0000
1010
0000
1000
0001
1100
0000
0001
0000
,  // measure 70
1000
0001
0000
0010
0101
0000
0001
0000
0101
0010
0000
0100
1000
0001
0010
0100
,  // measure 71
2002
0000
3003
0000
;
