#TITLE:A Dreaming Girl;
#SUBTITLE:K-Dance;
#ARTIST:dimitoricTiger from seoul;
#TITLETRANSLIT:;
#SUBTITLETRANSLIT:;
#ARTISTTRANSLIT:;
#CREDIT:Timer (Rabbit);
#BANNER:dreaminggirl_bn.PNG;
#BACKGROUND:adreaminggirl_bg.PNG;
#LYRICSPATH:;
#CDTITLE:timerrabbit.gif;
#MUSIC:adreamingirl.mp3;
#OFFSET:0.000;
#SAMPLESTART:41.667;
#SAMPLELENGTH:12.000;
#SELECTABLE:YES;
#BPMS:0.000=144.000;
#STOPS:;
#BGCHANGES:;
// cache tags:
#FIRSTBEAT:2.000;
#LASTBEAT:259.500;
#SONGFILENAME:Songs/juju step2/A Dreaming Girl/adreaminggirl.sm;
#HASMUSIC:1;
#HASBANNER:1;
#MUSICLENGTH:113.054;
// end cache tags

//---------------dance-single - ----------------
#NOTES:
     dance-single:
     :
     Easy:
     4:
     0.211,0.286,0.212,0.018,0.000,141.000,24.000,2.000,0.000,0.000:
0000
0000
1001
0000
,
1000
0000
1001
0000
,
0001
0000
1001
0000
,
0010
0000
1001
0000
,
0100
0000
1001
0000
,
0100
0010
0100
0010
,
1000
0001
1000
0001
,
0100
0010
0100
0010
,
2002
0000
3003
0000
,
1000
1000
1000
0001
,
0001
0001
1000
1000
,
1000
0100
0001
0010
,
1001
0001
0000
0010
,
1000
0100
0001
0000
,
0001
0100
1000
0010
,
0000
1000
1000
0000
,
0001
0001
0000
1001
,
0000
0000
0000
0000
,
0100
0000
0000
0000
,
0100
0000
0000
0000
,
0010
0000
0000
0000
,
0010
0000
0000
0000
,
1000
0000
0000
0000
,
1000
0000
0000
0000
,
0001
0000
0001
0000
,
0100
0000
0100
0000
,
0010
0000
0010
0000
,
0001
0000
0001
0000
,
1000
0000
1000
0000
,
0010
0000
0010
0000
,
0001
0000
0001
0000
,
0100
0000
0100
0000
,
1000
0000
1000
0000
,
1001
0000
0110
0000
,
1001
0000
0110
0000
,
1100
0000
0101
0000
,
1100
0000
0011
0000
,
1000
0000
1000
0000
,
0001
0000
0001
0000
,
0100
0000
0100
0000
,
0010
0000
0010
0000
,
1001
0000
0100
0100
,
0000
0000
1001
0000
,
0010
0010
0000
1001
,
0000
1000
1000
0000
,
1001
0000
0001
0001
,
0000
1001
0000
0100
,
0100
0000
1001
0000
,
0010
0010
0000
1000
,
1000
1000
0000
0001
,
0001
0001
0000
0100
,
0100
0100
0000
0010
,
0010
0010
0000
0001
,
0001
0001
0000
1000
,
1000
1000
0000
0100
,
0100
0100
0000
0010
,
0010
0010
0000
1001
,
1000
0000
0000
0000
,
1000
0000
0000
0000
,
0100
0000
0000
0000
,
0100
0000
0000
0000
,
0001
0000
0000
0000
,
0001
0000
0000
0000
,
0010
0000
0000
0000
,
0010
0000
0000
1001
;

//---------------dance-single - ----------------
#NOTES:
     dance-single:
     :
     Medium:
     6:
     0.449,0.544,0.283,0.230,0.000,297.000,32.000,26.000,0.000,0.000:
0000
0000
0000
0100
,
0000
0010
0000
1000
,
0000
1001
0000
0011
,
0000
1100
0000
0001
,
0000
1001
0000
1000
,
0100
0001
0000
0001
,
0100
1000
0000
1000
,
0010
0001
0000
0001
,
0100
0000
1000
0000
1000
0001
1000
0001
,
1000
0001
0000
0000
0100
0010
0100
0010
,
0100
0010
0100
0010
0000
1000
0000
1000
,
0001
1000
0001
1000
0001
0000
0100
0010
,
0100
0010
0100
0010
0000
1000
0001
1000
,
0001
1000
0001
0000
0010
0100
0010
0100
,
0010
0100
0010
0000
1000
0001
1000
0001
,
1000
0001
0000
0100
0010
0100
0010
0100
,
0000
1000
0001
1000
0000
1000
0000
0000
,
0100
0001
0000
0001
0000
0100
1000
0000
,
1000
0000
0010
0001
0000
0001
0000
0010
,
1000
0000
1000
0000
0010
0001
0000
0100
,
0000
0100
0010
0000
0010
0000
0010
0100
,
0000
0100
0000
1000
0001
0000
0010
0000
,
0001
1000
0000
0100
0000
1000
0100
0000
,
0010
0000
0001
0100
0000
1000
0000
0001
,
0100
0000
0001
0000
1000
0100
0000
0001
,
0001
0000
0000
0000
1000
1000
0000
0000
,
0001
0001
0000
0000
0000
1000
1000
0000
,
0000
0100
0100
0000
0000
0010
0010
0000
,
0000
0000
1001
0110
0000
0000
0000
0110
,
1001
0000
0000
0000
1001
0110
0000
0000
,
0000
0110
1001
0000
0000
1100
0011
0000
,
0000
0011
1100
0000
0000
0000
1001
0110
,
0000
0000
0000
0110
1001
0000
0000
1000
,
1000
0000
0000
0001
0001
0000
0000
0000
,
1000
1000
0000
0000
0001
0001
0000
0000
,
0000
1000
1000
0000
0000
0001
0001
0000
,
0000
0000
1000
1000
0000
0000
0010
0010
,
0000
0000
0100
0100
0000
0000
0010
0001
,
0000
0000
0000
0100
1000
0000
0000
0000
,
0010
0001
0000
0000
0000
0100
0001
0000
,
0000
1000
0000
0001
1000
1001
0000
0000
,
1000
0001
0100
1000
0100
0001
1001
0000
,
0100
0000
0100
0000
1000
0100
0001
0100
,
1001
0000
0001
1000
0100
0001
1001
0000
,
0010
0100
0000
0000
1000
0010
0001
0100
,
0001
1001
0000
0000
0001
0010
1000
0100
,
1000
1001
0000
0000
1000
0100
0001
0100
,
1000
1001
0000
0000
0001
0100
1000
0100
,
0001
1001
0000
0000
0010
1000
0100
0001
,
0000
0001
0100
1000
0000
1000
0100
0001
,
0000
0001
0010
1000
0000
1000
0010
0001
,
0000
0001
1000
0001
0000
1000
0001
1000
,
0000
0100
0010
0100
0000
0010
0100
0010
,
0000
0100
0010
0100
0000
1000
0100
0001
,
0000
0001
0010
1000
0000
1000
0010
0001
,
0000
0001
0100
1000
0000
1000
0001
1000
,
0001
1000
0001
1001
0000
2000
0000
3200
,
0000
0320
0000
0000
0030
0000
0002
0000
,
0023
0000
2030
0000
0000
3000
0000
0200
,
0000
0320
0000
0032
0000
0000
0003
0000
,
2000
0000
3020
0000
0230
0000
0000
0300
,
0002
0023
2030
3200
,
0300
2000
3200
0320
0032
0003
2000
0000
,
3200
0000
0320
0000
0032
0000
0003
2000
,
3002
0003
1000
0001
1100
0101
1001
0000
;

//---------------dance-single - ----------------
#NOTES:
     dance-single:
     :
     Hard:
     7:
     0.547,0.488,0.230,0.354,0.066,367.000,26.000,40.000,0.000,0.000:
0000
0000
0000
1000
,
0000
0101
0000
0001
,
0000
1010
0000
1001
,
0000
1000
0000
0101
,
0000
0000
0000
1001
0000
0000
1000
0000
0010
0001
0000
0000
,
0001
0000
0010
1000
0000
0001
0000
0000
1000
0000
0010
0001
,
0000
0000
0001
0000
0010
1000
0000
0000
1000
0000
0100
0001
,
0000
0000
0001
0000
0000
0010
1000
0000
0000
0100
0000
0000
,
0010
0000
1001
0000
0000
0000
0000
0000
0000
1000
0000
0000
0100
0000
0000
0010
0000
0000
0001
0000
0000
1000
0000
0000
,
0001
1000
0001
1000
0100
0001
0010
1000
,
0001
0100
0010
0100
1000
0001
0100
0001
,
1000
0010
1000
0100
0001
1000
0001
1000
,
0001
1000
0100
0010
0001
0100
1000
0001
,
0100
0010
1000
0001
0100
1000
0100
0001
,
0010
0100
0001
0100
1000
0010
0100
1000
,
0001
0010
1000
0100
0001
0010
1000
0001
,
0100
0010
0001
1000
1001
0000
1000
0000
,
0000
0000
0010
0001
0100
1000
0100
0001
,
0000
0000
0000
0100
0010
0001
0100
0010
,
1000
0001
0010
0100
0000
1000
0100
0001
,
0010
0100
1000
0001
0100
0001
1000
0010
,
0001
0100
1000
0001
0200
0000
0310
0000
,
1000
0001
0100
0001
1000
0010
0100
0001
,
1000
0100
0010
0001
1000
0001
1000
0001
,
0100
0010
1001
0000
2000
0000
0000
3100
,
0002
0000
0000
1003
0200
0000
0000
0301
,
0020
0000
0000
1030
2000
0000
0000
3001
,
0020
0000
0000
0130
2000
0000
0000
3001
,
0002
0000
0000
1003
0200
0000
0000
0310
,
0020
0000
0000
0130
2000
0000
0000
3001
,
0200
0000
0000
0301
0002
0000
0000
1003
,
0200
0000
0000
0310
0002
0000
0000
1003
,
2000
3001
0100
0010
,
0001
0100
0000
0000
1000
0000
2002
0000
,
3003
0000
0100
0000
0010
0000
0001
1000
,
0000
0000
2002
0000
0000
3003
0000
0010
,
0001
0100
1000
1000
0001
0100
0000
1000
,
0000
1000
0001
0010
1000
0100
1000
0001
,
0000
2000
0000
0000
3002
0000
0000
0000
,
0203
0000
0000
0000
0000
0320
0030
0000
,
0011
1100
1001
0110
0000
2000
0000
0000
,
0000
3001
0000
0002
0000
0000
0000
1003
,
0000
0200
0000
0000
0000
0310
2000
0001
,
0002
0000
0000
0000
3003
0220
0000
0330
,
1001
0110
0000
0000
1001
0000
0200
0000
,
0320
0032
0023
0230
,
2300
0000
3000
0001
0100
0000
1000
0000
,
1000
0001
0100
0010
0100
1000
0001
1001
,
0000
0110
0000
1000
0000
0100
0010
0001
,
0100
1000
0100
0001
0010
1000
1001
0000
,
0110
0000
1000
0001
0100
0001
1000
0010
,
1000
0001
0100
0010
1000
0100
0010
1001
,
0000
0000
0100
0010
0001
1000
0100
0001
,
0100
1000
0010
0001
0100
1000
0001
1000
,
0001
1000
1001
0000
0100
0010
0001
0100
,
1000
0100
0001
0010
1000
0001
0100
0010
,
1000
1001
0000
0000
0100
0000
1000
1000
,
0100
0010
0001
1000
0001
1000
0001
1000
,
0100
0001
0010
1000
0001
0100
0010
0100
,
1000
0001
0100
0001
1000
0010
1000
0100
,
0001
1000
0001
1000
0001
1000
0100
0010
,
0001
0100
1000
0001
0100
0010
1000
0001
,
0100
1000
0100
0001
0010
0100
0001
0100
,
1000
0010
0100
1000
0001
0010
1000
0100
,
0001
0010
1000
0001
0100
2002
0000
3003
;

//---------------dance-single - ----------------
#NOTES:
     dance-single:
     :
     Beginner:
     1:
     0.167,0.172,0.584,0.000,0.000,66.000,66.000,0.000,0.000,0.000:
0000
0000
0000
1001
,
0000
0000
0000
1001
,
0000
0000
0000
1001
,
0000
0000
0000
1001
,
0000
0000
0000
1001
,
0000
0000
0000
1001
,
0000
0000
0000
1001
,
0000
0000
0000
1001
,
0000
0000
0110
0000
,
1001
0000
0000
1001
,
0000
0000
0000
1001
,
0000
0000
0000
1001
,
0000
0000
0000
1001
,
0000
0000
0000
1001
,
0000
0000
0000
1001
,
0000
0000
0000
1001
,
0000
0000
0000
0110
,
0000
0000
0000
1001
,
0000
0000
0000
1001
,
0000
0000
0000
0110
,
0000
0000
0000
1001
,
0000
0000
0000
1100
,
0000
0000
0000
0011
,
0000
0000
0000
0101
,
0000
0000
0000
1010
,
0000
0000
0000
1001
,
0000
0000
0000
1001
,
0000
0000
0000
1001
,
0000
0000
0000
1001
,
0000
0000
0000
1001
,
0000
0000
0000
1001
,
0000
0000
0000
0110
,
0000
0000
0000
1001
,
0000
0000
0000
1100
,
0000
0000
0000
0101
,
0000
0000
0000
1010
,
0000
0000
0000
0011
,
0000
0000
0000
0110
,
0000
0000
0000
0110
,
0000
0000
0000
1001
,
0000
0000
0000
1001
,
0000
0000
0000
1001
,
0000
0000
0000
1001
,
0000
0000
0000
0110
,
0000
0000
0000
1001
,
0000
0000
0000
0110
,
0000
0000
0000
1001
,
0000
0000
0000
0110
,
0000
0000
0000
1001
,
0000
0000
0000
1001
,
0000
0000
0000
1001
,
0000
0000
0000
1001
,
0000
0000
0000
0110
,
0000
0000
0000
1001
,
0000
0000
0000
1001
,
0000
0000
0000
0110
,
0000
0000
0000
1001
,
0000
0000
0000
1001
,
0000
0000
0000
1001
,
0000
0000
0000
1001
,
0000
0000
0000
1001
,
0000
0000
0000
0110
,
0000
0000
0000
1001
,
0000
0000
0000
0110
,
0000
0000
0000
1001
;
