#TITLE:zl;
#SUBTITLE:;
#ARTIST:Dr. Flowershirts;
#TITLETRANSLIT:;
#SUBTITLETRANSLIT:;
#ARTISTTRANSLIT:;
#CREDIT:;
#BANNER:zl-bn.png;
#BACKGROUND:zl-bg.png;
#LYRICSPATH:;
#CDTITLE:djossatitlerk1.png;
#MUSIC:205_zl.mp3;
#OFFSET:1.020;
#SAMPLESTART:34.699;
#SAMPLELENGTH:12.000;
#SELECTABLE:YES;
#BPMS:0.000=167.980;
#STOPS:;
#BGCHANGES:;
// cache tags:
#FIRSTBEAT:9.250;
#LASTBEAT:276.250;
#SONGFILENAME:Songs/hard shit/(Dj_Ossa) zl/zl.sm;
#HASMUSIC:1;
#HASBANNER:1;
#MUSICLENGTH:101.250;
// end cache tags

//---------------dance-single - Blank----------------
#NOTES:
     dance-single:
     Blank:
     Hard:
     14:
     1.000,1.000,1.000,0.701,1.000,624.000,250.000,71.000,0.000,44.000:

0000
0000
0000
0000
,
0000
0000
0000
0000
,
0000
0000
0000
0000
0000
0002
0003
0000
0000
0000
0000
0000
0000
0000
0000
0000
,
1001
0000
1000
1000
0100
0000
1000
0000
0100
0000
1000
0100
0011
0000
0000
0000
,
0101
0000
0100
0100
0010
0000
0100
0000
0010
0000
0100
0010
1001
0000
0000
0000
,
1010
0000
0010
0010
0001
0000
0010
0000
1001
0000
0010
0010
0010
0000
1000
0000
,
0010
0000
0000
1000
0000
0000
0110
0000
0000
0001
0000
0000
1000
0000
1000
0010
1000
0000
1001
0000
0000
0000
0000
0000
,
1001
0101
0011
1001
,
1010
0010
0010
0010
1010
0000
0010
0000
1010
0000
0100
0000
1010
0000
0001
0000
,
1100
1010
1001
1010
,
1100
0100
0100
0100
0101
0000
1000
0000
0101
0000
0000
0000
0102
0003
0000
0000
,
2001
0000
0000
3000
0201
0000
0000
0300
0021
0000
0000
0030
1002
0000
0000
0003
,
0110
0010
0010
0010
0110
0000
0010
0000
1020
0030
0200
0300
2010
3000
0002
0003
,
1020
0000
0000
0000
1000
0000
0000
0000
1000
0030
0002
0003
2010
3000
0200
0300
,
2001
0000
3000
0000
0100
0000
0010
0000
0101
0000
0010
0000
0001
0000
1000
0000
0101
0000
0010
0100
0000
0000
0000
0000
1000
0000
0000
0000
0000
0000
1000
0000
,
0002
0000
0003
0000
0100
0000
0000
0100
2000
0000
3000
0000
0010
0000
0000
0010
,
0201
0000
0000
0000
0001
0000
0000
0000
0301
0000
1000
1000
1001
0000
0100
0000
,
0011
0010
0000
0000
1001
0000
0100
0100
1010
0000
0001
0000
1001
1000
0100
0000
,
0021
0000
0000
0000
0000
0000
0000
0000
0030
0000
0000
0000
0100
0000
0000
0100
,
1002
0000
0003
0000
1010
0000
0000
0010
2001
0000
3000
0000
0101
0000
0000
0001
,
1200
0000
0000
0000
1000
0000
0000
0000
1300
0000
1000
1000
1001
0000
0100
0000
,
0011
0010
0001
0000
0011
0000
0100
0100
1001
0000
0100
0000
0011
0010
0001
0000
,
1010
0100
1010
0110
1001
0100
1010
0100
1001
0100
1001
0101
1000
0100
1001
0100
,
1010
0001
1010
1001
0110
0001
1010
0001
0010
0001
1010
0101
1010
0000
0000
0000
,
1001
1000
1000
1000
0101
0100
0100
0100
0011
0010
0010
0010
1001
0001
0001
0001
,
1010
1010
1010
1010
1010
0000
0010
0000
1010
0000
0100
0000
1010
0000
0001
0000
,
1100
0100
0100
0100
1010
0010
0010
0010
1001
0001
0001
0001
1010
0010
0010
0010
,
1100
1100
1100
1100
1100
0000
1000
0000
1100
0000
0000
0000
1002
0003
0000
0000
,
1001
1000
1000
1000
0101
0100
0100
0100
0011
0010
0010
0010
1001
0001
0001
0001
,
1010
1010
1010
1010
1010
0000
0012
0003
1012
0003
0120
0030
1201
0300
0012
0003
,
1020
0000
0000
0000
1000
0000
0000
0000
1000
0030
0002
0003
2010
3000
0200
0300
,
2010
0000
3000
0000
0100
0000
0010
0000
0101
0000
0010
0000
0001
0000
1000
0000
0101
0000
0010
0100
0000
0000
0000
0000
0000
0000
0000
0000
0000
0000
0000
0000
,
1100
0000
0000
0110
0011
0000
0110
0000
1100
0000
0000
0000
0000
0000
0011
0000
,
0110
1100
0110
0000
0000
0011
0110
1100
,
0011
0000
0000
1101
,
1010
1000
1000
0000
0011
0000
0100
0100
0110
0000
1000
0000
0011
0010
0010
0000
,
0101
0000
0001
0001
1001
0000
0010
0000
1001
1000
0100
0000
0011
0000
0100
0000
,
1020
0000
0000
0000
1001
0100
0001
1000
0101
1000
0100
1000
0102
1003
0100
1000
,
0131
0010
1000
0100
1010
0001
0100
0010
1001
0100
0010
0001
0110
1000
0100
0010
,
1002
0000
0000
0000
2103
3000
0000
0200
0321
0030
0002
0003
2010
3000
0200
0300
,
1012
0000
0000
0000
0000
0000
0003
0000
0100
0000
0000
0000
0000
0000
0000
0000
0000
0000
0000
0000
0000
0000
0000
0000
0000
0000
0000
0000
0000
0000
0000
0000
0000
0000
0000
0000
0000
0000
0000
0000
0000
0000
0000
0000
0000
0000
0000
0000
1010
0000
0000
0000
0000
0000
0000
0000
0000
0000
0000
0000
0000
0000
0000
0000
0000
0000
0000
0000
0000
0000
0000
0000
0000
0000
0000
0000
0000
0000
0000
0000
0000
0000
0000
0000
0100
0000
0000
0000
0000
0000
0000
0000
0000
0000
0000
0000
1010
0000
0000
0000
0000
0000
0000
0000
0000
0000
0000
0000
0000
0000
0000
0000
0000
0000
0000
0000
0000
0000
0000
0000
0001
0000
0000
0000
0000
0000
0000
0000
0000
0000
0000
0000
0000
0000
0000
0000
0000
0000
0000
0000
0000
0000
0000
0000
0110
0000
0000
0000
0000
0000
0000
0000
0000
0000
0000
0000
0000
0000
0000
0000
0000
0000
0000
0000
0000
0000
0000
0000
0001
0000
0000
0000
0000
0000
0000
0000
0000
0000
0000
0000
0000
0000
0000
0000
0000
0000
0000
0000
0000
0000
0000
0000
,
1210
0000
0000
0000
0321
0030
0000
0002
0123
0030
0200
0300
2010
3000
0200
0300
,
1021
0000
0000
0000
0000
0000
0030
0000
0100
0000
0000
0000
0000
0000
0000
0000
0000
0000
0000
0000
0000
0000
0000
0000
0000
0000
0000
0000
0000
0000
0000
0000
0000
0000
0000
0000
0000
0000
0000
0000
0000
0000
0000
0000
0000
0000
0000
0000
0110
0000
0000
0000
0000
0000
0000
0000
0000
0000
0000
0000
0000
0000
0000
0000
0000
0000
0000
0000
0000
0000
0000
0000
0000
0000
0000
0000
0000
0000
0000
0000
0000
0000
0000
0000
0010
0000
0000
0000
0000
0000
0000
0000
0000
0000
0000
0000
1100
0000
0000
0000
0000
0000
0000
0000
0000
0000
0000
0000
0000
0000
0000
0000
0000
0000
0000
0000
0000
0000
0000
0000
1000
0000
0000
0000
0000
0000
0000
0000
0000
0000
0000
0000
0000
0000
0000
0000
0000
0000
0000
0000
0000
0000
0000
0000
0110
0000
0000
0000
0000
0000
0000
0000
0000
0000
0000
0000
0000
0000
0000
0000
0000
0000
0000
0000
0000
0000
0000
0000
0010
0000
0000
0000
0000
0000
0000
0000
0000
0000
0000
0000
0000
0000
0000
0000
0000
0000
0000
0000
0000
0000
0000
0000
,
1101
1000
1000
0000
0001
0000
0100
0100
0100
0000
1001
0000
0010
0010
0010
0000
,
1012
0003
0001
0001
0001
0000
1000
0000
0100
0000
0010
0000
1001
0000
0000
0000
,
1100
0100
0100
0000
0010
0000
0001
0001
0001
0000
0110
0000
1000
1000
1000
0000
,
1012
0003
0100
0100
0100
0000
0010
0000
0001
0001
1000
0000
0110
0000
0000
0000
,
1001
1000
1000
0000
0100
0000
1000
0000
0101
0100
0100
0100
0010
0000
0100
0000
,
0010
0000
0000
0000
0000
0000
0010
0000
0000
0010
0000
0000
1001
0000
0000
0000
0000
0000
0010
0000
0000
0000
0000
0000
0101
0000
0000
0000
0001
0000
1000
0000
0001
0100
0000
0000
0011
0000
0000
0000
0000
0000
0000
0000
0000
0000
0000
0000
,
1001
1000
1000
1000
0101
0100
0100
0100
0011
0010
0010
0010
1001
0001
0001
0001
,
1010
1010
1010
1010
1010
0000
0010
0000
1010
0000
0100
0000
1010
0000
0001
0000
,
1100
0100
0100
0100
1010
0010
0010
0010
1001
0001
0001
0001
1010
0010
0010
0010
,
1100
1100
1100
1100
1100
0000
1000
0000
1100
0000
0000
0000
1002
0003
0000
0000
,
1001
1000
1000
1000
0101
0100
0100
0100
0011
0010
0010
0010
1001
0001
0001
0001
,
1010
1010
1010
1010
1010
0000
0010
0000
1010
0000
0100
0000
1010
0000
0001
0000
,
1020
0000
0000
0000
1000
0000
0000
0000
1000
0030
0002
0003
2010
3000
0200
0300
,
0021
0000
0000
0000
0001
0000
0000
0000
0001
0030
2000
3000
0210
0300
0002
0003
,
1020
0000
0000
0000
1000
0000
0000
0000
1000
0030
2000
3000
0201
0300
0020
0030
,
1002
0000
0000
0000
1000
0000
0000
0000
1023
0000
0000
0030
1100
0000
0110
0000
,
0011
0000
0010
0010
1000
0000
0011
0000
0100
0100
0001
0000
0101
0000
1000
1000
,
0100
0000
0011
0000
0001
0001
1000
0000
0011
0000
1000
1000
0100
0000
0010
0000
,
1001
0000
0000
1000
0100
0010
0001
0000
0001
0010
0000
0010
,
0100
0000
0010
0000
0100
0000
1001
0000
0000
0000
1000
0100
0010
0000
0000
0000
0010
0000
0100
0000
0000
0000
0100
0000
,
1000
0000
0100
0000
1000
0000
0011
0000
0000
0000
1000
0100
0010
0000
0000
0000
0010
0000
0100
0000
0000
0000
0100
0000
,
1001
0100
1000
0001
1000
0100
1010
0001
0010
0001
1000
0100
,
0020
0000
0000
0000
0000
0000
0030
0000
0000
0000
0000
0000
0011
0000
0000
0000
0000
0000
0000
0000
1000
0000
0100
0000
1012
0000
0000
0010
0000
0000
0010
0000
0000
0000
0000
0000
1000
0000
0000
0000
0000
0000
1100
0000
0000
0100
0000
0000
,
0100
0000
0010
0000
1100
1000
1000
0000
0100
0000
1010
0010
0010
0000
0100
0000
,
1010
1100
1010
1100
1010
1100
1010
1100
1010
1100
1010
1100
,
1010
0000
1100
0000
1010
0000
1100
0000
1010
0000
1100
0000
1010
0000
0000
0000
0000
0000
1100
0010
0000
0000
0000
0000
,
2113
3000
0000
0000
0000
0000
0000
0000
0000
0000
0000
0000
0000
0000
0000
0000
;
