#TITLE:Heart Of The Brave;
#SUBTITLE:Taragon (1999);
#ARTIST:Freedom Call;
#TITLETRANSLIT:;
#SUBTITLETRANSLIT:;
#ARTISTTRANSLIT:;
#CREDIT:SulferDragon;
#BANNER:Heart of the Brave-banner.png;
#BACKGROUND:Heart of the Brave-bg.png;
#LYRICSPATH:;
#CDTITLE:!Sulfer.png;
#MUSIC:03 - Heart Of The Brave.mp3;
#OFFSET:0.480;
#SAMPLESTART:165.950;
#SAMPLELENGTH:18.740;
#SELECTABLE:YES;
#BPMS:0.000=75.500,29.000=37.750,29.500=75.500,32.500=37.750,33.000=75.500,72.000=151.000,530.000=75.500,558.000=151.000,630.000=75.500;
#STOPS:;
#BGCHANGES:;
// cache tags:
#FIRSTBEAT:1.000;
#LASTBEAT:658.000;
#SONGFILENAME:Songs/Astronomic Metal Collection 2/(SulferDragon) Heart Of The Brave/03 - Heart Of The Brave.sm;
#HASMUSIC:1;
#HASBANNER:1;
#MUSICLENGTH:317.369;
// end cache tags

//---------------dance-single - ----------------
#NOTES:
     dance-single:
     :
     Hard:
     11:
     1.000,1.000,1.000,0.863,0.792,1570.000,475.000,274.000,0.000,90.000:
0000
0000
2000
3200
0320
0000
0032
0203
,
0320
0000
0000
0030
0002
0000
0023
0230
,
2300
0000
0000
0000
0000
0000
0000
3000
2000
0000
0000
0000
3200
0000
0000
0000
0320
0000
0000
0000
0000
0000
0000
0000
0032
0000
0000
0000
0203
0000
0000
0000
,
0320
0000
0230
2300
3020
0000
0000
0000
,
0000
0000
0000
0000
0000
0000
0000
0000
0000
0000
0000
0000
0000
0000
0000
0000
0000
0000
0000
0000
0000
0000
0000
0000
0000
0000
0000
0000
0000
0000
0000
0000
0000
0000
0000
0000
0000
0000
0000
0000
0000
0000
0000
0000
0000
0000
0000
0000
0000
0000
0000
0000
0000
0000
0000
0000
0000
0000
0000
0000
0000
0000
0000
0000
0000
0000
0000
0000
0000
0000
0000
0000
0000
0000
0000
0000
0000
0000
0000
0000
0000
0000
0000
0000
0000
0000
0000
0000
0000
0000
0000
0000
0000
0000
0030
0000
0101
0000
0000
0000
0000
0000
0000
0000
0000
0000
0000
0000
0010
0000
0000
0000
0000
0000
0000
0000
0000
0000
0000
0000
0100
0000
0000
0000
0000
0000
0000
0000
0000
0000
0000
0000
1000
0000
0000
0000
0000
0000
0000
0000
0000
0000
0000
0000
0001
0000
0000
0000
0000
0000
0000
0000
0000
0000
0000
0000
0100
0000
0000
0000
0000
0000
0000
0000
0000
0000
0000
0000
0010
0000
0000
0000
0000
0000
0000
0000
0000
0000
0000
0000
1000
0000
0000
0000
0000
0000
0000
0000
0000
0000
0000
0000
,
0001
0010
0001
1000
0010
0000
0000
0000
0101
1000
0100
0010
1000
0001
0100
0010
,
1000
0001
1000
0100
0010
0000
0000
0000
1100
0001
0010
0100
1000
0010
0100
0001
,
0101
0101
0010
1000
0001
0000
1100
0001
0100
0010
1000
0100
0010
0001
1010
1010
,
1000
0001
0010
0000
1001
0000
0100
0000
1001
0000
0010
0100
1000
0000
0001
0000
,
1010
0000
0100
0010
1001
0000
0010
1000
0001
0000
0100
0001
1010
0000
0100
0000
,
0001
0000
0000
0000
0000
0000
0000
0000
0000
0000
0000
0000
0000
0000
0000
0000
0000
0000
0000
0000
0000
0000
0000
0000
1000
0000
0000
0000
0000
0000
0000
0000
0000
0000
0000
0000
0000
0000
0000
0000
0000
0000
0000
0000
0000
0000
0000
0000
0101
0000
0000
0000
0000
0000
0000
0000
0000
0000
0000
0000
0000
0000
0000
0000
0000
0000
0000
0000
0000
0000
0000
0000
0002
0003
0000
0000
0000
0000
0000
0000
0000
0000
0000
0000
0000
0000
0000
0000
0000
0000
0000
0000
0000
0000
0000
0000
0002
0003
0000
0000
0000
0000
0000
0000
0000
0000
0000
0000
0000
0000
0000
0000
0000
0000
0000
0000
0000
0000
0000
0000
1002
0003
0000
0000
0000
0000
0000
0000
0000
0000
0000
0000
0010
0000
0000
0000
0000
0000
0000
0000
0000
0000
0000
0000
1100
0000
0000
0000
0000
0000
0000
0000
0000
0000
0000
0000
0000
0000
0000
0000
0000
0000
0000
0000
0000
0000
0000
0000
0020
0030
0000
0000
0000
0000
0000
0000
0000
0000
0000
0000
0000
0000
0000
0000
0000
0000
0000
0000
0000
0000
0000
0000
,
0020
0030
0000
0000
0000
0000
0000
0000
0000
0000
0000
0000
0000
0000
0000
0000
0000
0000
0000
0000
0000
0000
0000
0000
0120
0030
0000
0000
0000
0000
0000
0000
0000
0000
0000
0000
1000
0000
0000
0000
0000
0000
0000
0000
0000
0000
0000
0000
0101
0000
0000
0000
0000
0000
0000
0000
0000
0000
0000
0000
0000
0000
0000
0000
0000
0000
0000
0000
0000
0000
0000
0000
1020
0030
0000
0000
0000
0000
0000
0000
0000
0000
0000
0000
0100
0000
0000
0000
0000
0000
0000
0000
0000
0000
0000
0000
0021
0030
0000
0000
0000
0000
0000
0000
0000
0000
0000
0000
0000
0000
0000
0000
0000
0000
0000
0000
0000
0000
0000
0000
0120
0030
0000
0000
0000
0000
0000
0000
0000
0000
0000
0000
1000
0000
0000
0000
0000
0000
0000
0000
0000
0000
0000
0000
0101
0000
0000
0000
0000
0000
0000
0000
0000
0000
0000
0000
0000
0000
0000
0000
0000
0000
0000
0000
0000
0000
0000
0000
0200
0300
0000
0000
0000
0000
0000
0000
0000
0000
0000
0000
0000
0000
0000
0000
0000
0000
0000
0000
0000
0000
0000
0000
,
0200
0300
0000
0000
0000
0000
0000
0000
0000
0000
0000
0000
0000
0000
0000
0000
0000
0000
0000
0000
0000
0000
0000
0000
0200
0300
0000
0000
0000
0000
0000
0000
0000
0000
0000
0000
0000
0000
0000
0000
0000
0000
0000
0000
0000
0000
0000
0000
1001
0000
0000
0000
0000
0000
0000
0000
0000
0000
0000
0000
0010
0000
0000
0000
0000
0000
0000
0000
0000
0000
0000
0000
0100
0000
0000
0000
0000
0000
0000
0000
0000
0000
0000
0000
1000
0000
0000
0000
0000
0000
0000
0000
0000
0000
0000
0000
0001
0000
0000
0000
0000
0000
0000
0000
0000
0000
0000
0000
0100
0000
0000
0000
0000
0000
0000
0000
0000
0000
0000
0000
0011
0000
0000
0000
0000
0000
0000
0000
0000
0000
0000
0000
1000
0000
0000
0000
0000
0000
0000
0000
0000
0000
0000
0000
0011
0000
0000
0000
0000
0000
0000
0000
0000
0000
0000
0000
0100
0000
0000
0000
0000
0000
0000
0000
0000
0000
0000
0000
0001
0000
0000
0000
0000
0000
0000
0000
0000
0000
0000
0000
1000
0000
0000
0000
0000
0000
0000
0000
0000
0000
0000
0000
,
0110
0001
0000
0000
0000
0000
0000
0000
0000
0000
0000
0000
0000
0000
0000
0000
1001
0000
0000
0000
0100
0000
0000
0000
0010
0000
0000
0000
1000
0000
0000
0000
0001
0000
0000
0000
0010
0000
0000
0000
0101
0000
0000
0000
1000
0000
0000
0000
0101
0000
0000
0000
0010
0000
0000
0000
0100
0000
0000
0000
0001
0000
0000
0000
,
2010
0001
0000
0000
0000
0000
0000
0000
3200
0000
0000
0000
0000
0000
0000
0000
0321
0000
0000
0000
0000
0000
0000
0000
0000
0000
0000
0000
0000
0000
0000
0000
0132
0000
0000
0000
0000
0000
0000
0000
1203
0000
0000
0000
0000
0000
0000
0000
0321
0000
0000
0000
0000
0000
0000
0000
0000
0000
0000
0000
0000
0000
0000
0000
,
1130
0001
0000
0000
0000
0000
0000
0000
0000
0000
0000
0000
0000
0000
0000
0000
0210
0000
0000
0000
0000
0000
0000
0000
0000
0000
0000
0000
0000
0000
0000
0000
0321
1000
0000
0000
0000
0000
0000
0000
0231
0000
0000
0000
0000
0000
0000
0000
2310
0000
0000
0000
0000
0000
0000
0000
0000
0000
0000
0000
0000
0000
0000
0000
,
3101
0000
0000
0000
0000
0000
0000
0000
0000
0000
0000
0000
0000
0000
0000
0000
0000
0000
0000
0000
0000
0000
0000
0000
0100
0000
0000
0000
0000
0000
0000
0000
0000
0000
0000
0000
0000
0000
0000
0000
0000
0000
0000
0000
0000
0000
0000
0000
0010
0000
0100
0000
0000
0000
0000
0000
0000
0000
0000
0000
0000
0000
0000
0000
0000
0000
0000
0000
0000
0000
0000
0000
0000
0000
0000
0000
0000
0000
0000
0000
0000
0000
0000
0000
0000
0000
0000
0000
0000
0000
0000
0000
0000
0000
0000
0000
0101
0000
0000
0000
0000
0000
0000
0000
0000
0000
0000
0000
0000
0000
0000
0000
0000
0000
0000
0000
0000
0000
0000
0000
0110
0000
0000
0000
0000
0000
0000
0000
0000
0000
0000
0000
0110
0000
0000
0000
0000
0000
0000
0000
0000
0000
0000
0000
0110
0000
0000
0000
0000
0000
0000
0000
0000
0000
0000
0000
0110
0000
0000
0000
0000
0000
0000
0000
0000
0000
0000
0000
0110
0000
0000
0000
0000
0000
0000
0000
0000
0000
0000
0000
0110
0000
0000
0000
0000
0000
0000
0000
0000
0000
0000
0000
,
0110
0110
0110
0110
0110
0110
0110
0110
0110
0110
0110
0110
0110
0110
0110
0110
,
0110
0001
0100
0001
0100
0001
0100
0001
1100
0000
0010
0000
1000
0000
0101
0000
,
1000
0000
0101
0000
0010
0000
0101
0000
1001
0010
0101
0010
0100
0001
1010
0100
,
0001
1000
0101
1000
0011
0100
1001
0010
0101
0000
1010
0000
0001
0000
1010
0000
,
0001
0000
1010
0000
0100
0000
1010
0000
1001
0010
0101
0010
0100
0001
1010
0100
,
0011
0000
0000
0000
1000
0000
0000
0000
0010
0000
0000
0000
0100
0000
0000
0000
0001
0000
0000
0000
1000
0000
0000
0000
0010
0000
0000
0000
0100
0000
0000
0000
1002
0003
0000
0000
0000
0000
0000
0000
0020
0030
0000
0000
0000
0000
0000
0000
0200
0300
0000
0000
0000
0000
0000
0000
0002
0003
0000
0000
0000
0000
0000
0000
,
0020
0030
0000
0000
0000
0000
0000
0000
0200
0300
0000
0000
0000
0000
0000
0000
0002
0003
0000
0000
0000
0000
0000
0000
2000
3000
0000
0000
0000
0000
0000
0000
0102
0003
0000
0000
0000
0000
0000
0000
0021
0030
0000
0000
1000
0000
0000
0000
0210
0300
0000
0000
1000
0000
0000
0000
0102
0003
0000
0000
1000
0000
0000
0000
,
0021
0030
0000
0000
1000
0000
0000
0000
0210
0300
0000
0000
1000
0000
0000
0000
0102
0003
0000
0000
0010
0000
0000
0000
2100
3000
0000
0000
0010
0000
0000
0000
1001
0000
0000
0000
0000
0000
0000
0000
1000
0000
0000
0000
0000
0000
0000
0000
0001
0000
0000
0000
0010
0000
0000
0000
1001
0000
0000
0000
0000
0000
0000
0000
,
0101
0000
0100
0000
1001
0010
0001
0000
1010
0000
1000
0000
0011
1000
0010
0000
,
1100
0000
0100
0000
0010
0100
1010
0000
1001
0000
0001
0000
1100
0010
1000
0000
,
0101
0000
0100
0000
1001
0010
1000
0000
0012
0000
1000
0000
0010
0100
1000
0003
,
0020
0000
1000
0000
0130
0001
1100
0000
0101
0000
0001
0000
1100
0010
0101
0000
,
1001
0000
1000
0000
0101
0010
0100
0000
1001
0000
0001
0000
1010
0100
1000
0000
,
0110
0000
0010
0000
1000
0001
1000
0000
0110
0000
0100
0000
1001
0010
0001
0000
,
1100
0000
1000
0000
0101
0010
0100
0001
1010
0100
0010
0100
0001
1000
0100
0010
,
0101
0011
1000
0100
0011
0000
0000
0000
0202
0303
0000
0000
0000
0000
0000
0000
,
0202
0303
0000
0000
0000
0000
0000
0000
0011
1001
0010
0001
0100
0010
0100
1000
,
0001
0100
0001
0100
0010
1000
0001
1000
0202
0303
0000
0000
0000
0000
0000
0000
,
0202
0303
0000
0000
0000
0000
0000
0000
0011
1001
0010
0001
0100
0010
0100
1000
,
0001
0100
0001
0100
0010
1000
0001
1000
0101
0000
0100
0000
0011
1000
0001
0000
,
1010
0000
0010
0000
0101
1000
0001
0000
0110
0000
0100
0000
0011
1000
0010
0000
,
1001
0000
1000
0000
0001
0010
1001
0000
0101
0000
0100
0000
0011
0100
0010
0000
,
1001
0000
1000
0000
0011
0100
0010
0000
1200
0000
0001
0000
1000
0010
0001
0300
,
0020
0000
0100
0000
1030
0001
1100
0000
1001
0000
0001
0000
1010
0100
1001
0000
,
0011
0000
0010
0000
1001
0100
1000
0000
0101
0000
0001
0000
1100
0001
0100
0000
,
0011
0000
0010
0000
1000
0001
1000
0000
0102
0000
0103
0000
0010
0100
0010
0000
,
1002
0000
1003
0000
0011
0100
0001
0010
1100
0001
0100
1001
0101
1000
0100
0010
,
1001
0101
1000
0010
0101
0000
0000
0000
0011
1000
0001
1000
0100
1000
0011
0100
,
0011
1000
0100
1000
0010
1000
0101
1000
0101
0010
0100
0001
0100
0010
1001
0100
,
1001
0010
0100
0001
0010
0100
1010
0100
1010
0001
0010
0100
0010
0100
1001
0010
,
1001
0100
0001
0010
1001
0010
0001
1000
0101
0010
1000
0010
0100
0010
1000
0100
,
1001
0010
1000
0100
1001
0100
1000
0001
2100
3000
0011
0100
0010
0100
2001
3000
,
0010
0100
0011
0100
2000
3000
0101
0010
0200
0300
1001
0010
0001
0010
1200
0300
,
0001
0010
1001
0010
0200
0000
1000
0300
0020
0000
1000
0000
0000
0000
1000
0000
,
0000
0000
0000
0000
0000
0000
1000
0000
0000
0000
0000
0000
0032
0000
0000
0000
0000
0000
1000
0000
0000
0000
0000
0000
0000
0000
0000
0000
0000
0003
0101
0000
0000
0011
0000
0000
0100
0000
0000
0010
0000
0000
0001
0000
0000
0010
0000
0000
,
2000
0001
0100
0010
3201
0000
0000
0000
0321
0000
0000
0000
1000
0000
0000
0000
,
0132
1203
0321
1000
,
0001
1030
0102
1000
,
0123
0000
1230
0000
2301
0000
0100
3000
,
2001
0000
0000
0000
3210
0000
0000
0000
1301
0010
0001
0010
0001
0010
0101
1000
,
0100
1000
0100
1000
0110
1000
0010
1000
0011
0100
0010
0100
0010
0001
0110
0001
,
0100
0001
0100
0001
1010
0100
0010
1000
0120
0000
0000
0000
1000
0000
0000
0000
,
0031
1000
0120
1000
,
2032
0000
0000
0000
0000
0000
0000
0000
0000
0000
0000
0000
0000
0000
0000
3000
0200
0000
0000
0000
0000
0000
0000
0000
0000
0000
0000
0000
0000
0000
0000
0300
0123
0000
0000
0000
0000
0000
0000
0000
0000
0000
0000
0000
0000
0000
0000
0000
1000
0000
0000
0000
0000
0000
0000
0000
0000
0000
0000
0000
0000
0000
0000
0000
,
0132
1203
0321
1000
,
0001
1030
0012
1000
,
0123
0000
1230
0000
2301
0000
0100
3000
,
2001
0000
0000
0000
3210
0000
0000
0000
1301
0010
0100
0010
0100
0010
0101
1000
,
0100
1000
0100
1000
0110
1000
0010
1000
0011
0100
0001
0100
0001
1000
0110
0001
,
0010
0001
0010
0001
1010
0001
0100
0001
0120
0000
0000
0000
1000
0000
0000
0000
,
0031
0000
0000
0000
1000
0000
0000
0000
0101
0011
0100
0010
1000
0100
1000
0101
,
0011
1000
0100
0010
1100
0000
0000
0000
0202
0303
0000
0000
1010
0000
0010
0000
,
0202
0303
0000
0000
1010
0000
0010
0000
1001
0101
0010
0001
0100
0010
0100
1000
,
0001
0100
0001
0100
1010
0001
1000
0001
1100
0000
0100
0000
0001
1000
0101
0000
,
0011
0000
0010
0000
0001
1000
0011
0000
1010
0000
1000
0000
0100
1000
0100
0000
,
0010
0000
0010
0000
0001
0100
0011
0000
1001
0000
1000
0000
0010
0100
1010
0000
,
0110
0000
0100
0000
0011
0100
0010
0000
0102
0000
1000
0000
0010
0100
1000
0003
,
0020
0000
0100
0000
0001
1000
0130
0000
0011
0000
0001
0000
1000
0100
1001
0000
,
0011
0000
0010
0000
1000
0100
1001
0000
0101
0000
0001
0000
0010
0100
0010
0000
,
0100
0000
0100
0000
1000
0001
1000
0000
0110
0000
0010
0000
0100
0001
1100
0000
,
0101
0000
0001
0000
1010
0001
1000
0000
0011
0000
1000
0100
0001
0010
0100
0010
,
1000
0100
0010
0001
0010
0100
0001
1000
0101
0010
0100
0010
1000
0010
0101
0010
,
0101
0010
1000
0100
1000
0100
1001
0010
1001
0100
0001
1000
0001
0100
1010
0001
,
1010
0001
1000
0001
0100
0010
1100
0001
1100
0010
1000
0010
1000
0001
1010
0100
,
1010
0100
0010
0100
1010
0001
0010
0100
1001
0010
0001
0010
0001
0010
0001
0100
,
0011
0100
0010
0100
0011
1000
0100
1000
0120
0030
1100
0001
1000
0001
0120
0030
,
1000
0001
1100
0001
0020
0030
0101
1000
0002
0003
0110
1000
0100
1000
0012
0003
,
0100
1000
0110
1000
0002
0000
0010
0003
2000
0000
0010
0000
0000
0000
0010
0000
,
0000
0000
0000
0000
0000
0000
0010
0000
0000
0000
0000
0000
3200
0000
0000
0000
0000
0000
0010
0000
0000
0000
0000
0000
0000
0000
0000
0000
0000
0300
1010
0000
0000
0101
0000
0000
0010
0000
0000
0000
0000
0000
1000
0000
0000
0010
0000
0000
,
2100
0001
0100
0001
3210
0000
0000
0000
0321
0000
0000
0000
1000
0000
0000
0000
,
1032
1203
1320
1000
,
1000
1030
1002
1000
,
1023
0000
1230
0000
2301
0000
0001
3000
,
2001
0000
3201
0000
0321
0000
0100
0032
,
0100
0000
0213
0000
0321
0000
0001
0230
,
0001
2301
3021
0001
,
0031
0001
0021
0001
,
1031
1100
0010
0000
0201
0000
0000
0000
0321
0000
0000
0000
1000
0000
0000
0000
,
1032
1203
1320
1000
,
1000
1030
1002
1000
,
1023
0000
1230
0000
2301
0000
0001
3000
,
2001
0000
3201
0000
0321
0000
0000
1032
,
0000
0000
0213
0000
1320
0000
0000
0131
,
1000
0001
1000
0100
0010
0001
0100
1000
0120
0000
0100
0000
0100
0000
0100
0000
,
0130
0000
0100
0000
0100
0000
0100
1000
0100
0000
0100
0000
0100
0000
0100
0000
,
0002
0000
0000
0000
0000
0000
0000
0000
0000
0000
0000
0000
0000
0000
0000
0003
0110
0000
0000
0000
0100
0000
0000
0000
0100
0000
0000
0000
0100
0000
0000
0000
,
0100
0000
0100
0000
0100
0000
0100
1000
0100
0000
0100
0000
0100
0000
0100
0000
,
0002
0000
0000
0000
0000
0000
0000
0000
0000
0000
0000
0000
0000
0000
0000
0003
0101
0000
0000
0000
0100
0000
0000
0000
0100
0000
0000
0000
0100
0000
0000
0000
,
0101
1000
0100
0000
0100
0000
0100
0000
0101
1000
0100
0000
0100
0000
0100
0000
,
0101
0000
0000
0000
0100
0000
0000
0000
0020
0000
0000
0030
0002
0000
0000
0003
0101
0000
0000
0000
0100
0000
0000
0000
0100
0000
0000
0000
0100
0000
0000
0000
,
0101
1000
0100
0000
0100
0000
0100
0000
0101
1000
0100
0000
0100
0000
0100
0000
,
0101
0000
0000
0000
0100
0000
0000
0000
0020
0000
0000
0030
0002
0000
0000
0003
0120
0000
0000
0000
0000
0000
0000
0000
0100
0000
0000
0000
2130
0000
0000
0000
,
3201
0000
1320
1230
1320
0000
2130
3100
,
0120
0000
0130
0100
0201
0000
1000
2310
,
3201
0000
1320
1030
1002
0000
1203
1300
,
1002
0000
0000
0000
0100
0000
0103
0000
0110
1000
0100
0000
0100
0000
1100
0000
,
0101
1000
0100
0000
0110
0001
1010
0000
0110
1000
0100
0000
1100
0000
0100
0000
,
0101
1000
0100
0000
0100
1000
0010
0000
0110
1000
0100
0000
0100
0000
1100
0000
,
0101
1000
0100
0000
0110
0001
0010
0000
0101
1000
0100
0000
1010
0000
0100
0000
,
0011
0000
0000
1000
0000
0000
0100
0000
0000
0010
0000
0000
0001
0000
0000
0100
0000
0000
1000
0000
0000
0100
0000
0000
0021
0000
0000
0000
0000
0000
0000
0000
0000
0000
0000
0000
0000
0000
0000
0000
0030
0000
0020
0000
0000
0000
0030
0000
,
0120
0000
0000
0000
0000
0000
2030
0000
3000
2000
0000
3000
2001
0000
0000
0000
0000
0000
3200
0000
0000
0000
0000
0000
,
1320
0000
0000
0000
0000
0000
0030
0000
0000
0000
0000
0000
0021
0000
0000
0000
0000
0000
0000
0000
0030
0020
0000
0030
,
1020
0000
0000
0000
0000
0000
0230
0000
0000
0000
0000
0000
0312
0000
0000
0000
0000
0003
0012
0000
0000
0000
0000
0003
,
0012
0000
0000
0000
0000
0000
0000
0000
0000
0000
0000
0000
0003
0000
0000
0000
0000
0000
0000
0000
0000
0000
0000
0000
0021
0000
0000
0000
0000
0000
0000
0000
0000
0000
0000
0000
0100
0000
0000
0001
0030
0000
0020
0000
0000
0001
0030
0000
,
0120
0000
0000
0000
0000
0000
0000
0000
0000
0000
0000
0000
2030
0000
0000
0100
3000
0000
2000
0000
0000
0100
3000
0000
2001
0000
0000
0000
0000
0000
0000
0000
0000
0000
0000
0000
3200
0000
0000
0001
0000
0000
0010
0000
0000
0001
0000
0000
,
1320
0000
0000
0000
0000
0000
0000
0000
0000
0000
0000
0000
1030
0000
0000
0100
0000
0000
1000
0000
0000
0100
0000
0000
0021
0000
0000
0000
0000
0000
0000
0000
0000
0000
0000
0000
1000
0000
0000
0001
0030
0000
0020
0000
0000
0001
0030
0000
,
0120
0000
0000
0000
0100
1000
0100
1000
0132
0000
0000
0000
2003
0100
0010
0100
,
3012
0000
0000
0000
0103
0010
0100
0010
0101
1000
0101
0010
0100
0010
0101
0010
,
0100
1000
0101
0010
0100
0010
0101
0010
0100
0001
1100
0010
0001
0010
0101
1000
,
0100
0001
1100
0010
0001
0010
0101
1000
0010
0001
1010
0100
0010
0100
1010
0100
,
0010
0001
1010
0100
0010
0100
1010
0100
0020
0000
1000
0000
0000
0000
1000
0000
,
0032
0000
1000
0000
1013
0110
1001
0000
0100
1000
0101
0010
0100
0010
0101
0010
,
0100
1000
0101
0010
0100
0010
0101
0010
0100
0001
1100
0010
0001
0010
0101
1000
,
0100
0001
1100
0010
0001
0010
0101
1000
0010
0001
1010
0100
0010
0100
1010
0100
,
0010
0001
1010
0100
0010
0100
1010
0100
1001
0000
1001
0000
1001
0000
1001
0000
,
2001
0000
0000
0000
0000
0000
0000
0000
0000
0000
0000
0000
0000
0000
0000
0000
0000
0000
0000
0000
0000
0000
0000
0000
0000
0000
0000
0000
0000
0000
0000
0000
0000
0000
0000
0000
0010
0000
0000
0000
3000
0000
1000
0000
0000
0000
0000
0000
0201
0000
0000
0000
0000
0000
0000
0000
0000
0000
0000
0000
0000
0000
0000
0000
0000
0000
0000
0000
0000
0000
0000
0000
0001
0000
0000
0000
0000
0000
0000
0000
0000
0000
0000
0000
0000
0000
0000
0000
0000
0000
0000
0000
0000
0000
0000
0000
0321
0000
0000
0000
0000
0000
0000
0000
0000
0000
0000
0000
0000
0000
0000
0000
0000
0000
0000
0000
0000
0000
0000
0000
0000
0000
0000
0000
0000
0000
0000
0000
0000
0000
0000
0000
0000
0000
0000
0000
0000
0000
0000
0000
0000
0000
0000
0000
0032
0000
0000
0000
0000
0000
0000
0000
0000
0000
0000
0000
0000
0000
0000
0000
0000
0000
0000
0000
0000
0000
0000
0000
0203
0000
0000
0000
0000
0000
0000
0000
0000
0000
0000
0000
0000
0000
0000
0000
0000
0000
0000
0000
0000
0000
0000
0000
,
0320
0000
0000
0030
0002
0000
0023
0230
,
2300
0000
0000
0000
0000
0000
0000
3000
2000
0000
0000
0000
3200
0000
0000
0000
0320
0000
0000
0000
0000
0000
0000
0000
0032
0000
0000
0000
0203
0000
0000
0000
,
0320
0000
0230
2300
3020
0000
0000
0000
,
0000
0000
0000
0000
2030
0000
3200
0000
1320
1000
1000
0131
1002
1000
1203
1000
,
1320
1000
1000
1000
1031
1000
1000
1000
1002
1000
1000
0113
1020
1000
1230
1000
,
2310
0010
0010
3010
2010
3010
0210
0310
1020
1030
1000
0102
1013
1000
1200
1300
,
1020
1030
1000
1200
1301
1000
2010
3010
0110
0001
0010
0100
1000
0010
0100
1000
,
0110
0001
0010
0100
0010
1000
0100
0010
0101
1001
0100
0010
1001
0101
1000
0001
,
0110
1001
0110
1001
0110
1001
0110
1001
0120
0000
0000
0000
0000
0000
1000
0000
,
0032
1000
0203
1000
0320
1000
0000
1000
,
0000
1000
0030
1000
0012
1000
0000
1000
,
0023
1000
0230
0001
2300
0001
0000
3001
,
2000
0000
0001
0000
3200
0000
0001
0000
1310
0100
0001
0100
0001
1000
0011
0100
,
0010
0100
0010
0100
1010
0001
0100
0001
0110
1000
0010
1000
0010
1000
0101
1000
,
0001
1000
0001
0010
1100
0001
0100
0001
0120
0000
1000
0000
0000
0000
1000
0000
,
0030
1000
0000
1000
0020
1000
0000
1000
,
1031
0101
1000
0100
1010
0001
0010
0100
0021
0000
1000
0000
0000
0000
1000
0000
,
0032
1000
0203
1000
0320
1000
0000
1000
,
0000
1000
0030
1000
0002
1000
0000
1000
,
0023
1000
0230
0001
2300
0001
0000
3001
,
2000
0000
0001
0000
3200
0000
0001
0000
1301
0100
0010
0100
0010
0100
0011
1000
,
0001
1000
0001
0100
1010
0001
0010
0001
0110
0001
1000
0001
1000
0010
1100
0010
,
1000
0100
1000
0100
1010
0001
0100
0001
0120
0000
0000
0000
0000
0000
1032
0000
,
0000
0000
1203
0000
1320
0000
0000
0230
,
0310
0000
0100
0000
1000
0000
0100
0000
0010
0000
0001
0000
0100
0000
0010
0000
0001
0000
0010
0000
0100
0000
1000
0000
0021
0000
0000
0100
0000
0000
0001
0000
0000
1000
0000
0000
0100
0000
0000
0001
0000
0000
0100
0000
0000
1000
0000
0000
,
0031
0100
0001
1000
0100
0000
0000
0000
1001
0010
0100
1000
0001
0100
0010
1000
,
0001
0100
0001
1000
0100
0000
0000
0000
1001
0010
0100
1000
0001
0100
0010
1000
,
0001
0100
0001
1000
0100
0000
0000
0000
1001
0010
0100
1000
0001
0100
0010
1000
,
0001
0100
0001
1000
0100
0000
0000
0000
1001
0000
0000
0000
0000
0000
0000
0000
,
0000
0000
1001
0000
,
0000
0000
1001
0000
,
0000
0000
1001
0000
;

//---------------dance-single - ----------------
#NOTES:
     dance-single:
     :
     Medium:
     10:
     0.888,1.000,0.769,0.794,0.729,1477.000,244.000,252.000,0.000,62.000:
0000
0000
2000
3200
0320
0000
0032
0203
,
0320
0000
0000
0030
0002
0000
0023
0230
,
2300
0000
0000
0000
0000
0000
0000
3000
2000
0000
0000
0000
3200
0000
0000
0000
0320
0000
0000
0000
0000
0000
0000
0000
0032
0000
0000
0000
0203
0000
0000
0000
,
0320
0000
0230
2300
3020
0000
0000
0000
,
0000
0000
0000
0000
0000
0000
0000
0000
0000
0000
0000
0000
0000
0000
0000
0000
0000
0000
0000
0000
0000
0000
0000
0000
0000
0000
0000
0000
0000
0000
0000
0000
0000
0000
0000
0000
0000
0000
0000
0000
0000
0000
0000
0000
0000
0000
0000
0000
0000
0000
0000
0000
0000
0000
0000
0000
0000
0000
0000
0000
0000
0000
0000
0000
0000
0000
0000
0000
0000
0000
0000
0000
0000
0000
0000
0000
0000
0000
0000
0000
0000
0000
0000
0000
0000
0000
0000
0000
0000
0000
0000
0000
0000
0000
0030
0000
0101
0000
0000
0000
0000
0000
0000
0000
0000
0000
0000
0000
0010
0000
0000
0000
0000
0000
0000
0000
0000
0000
0000
0000
0100
0000
0000
0000
0000
0000
0000
0000
0000
0000
0000
0000
1000
0000
0000
0000
0000
0000
0000
0000
0000
0000
0000
0000
0001
0000
0000
0000
0000
0000
0000
0000
0000
0000
0000
0000
0100
0000
0000
0000
0000
0000
0000
0000
0000
0000
0000
0000
0010
0000
0000
0000
0000
0000
0000
0000
0000
0000
0000
0000
1000
0000
0000
0000
0000
0000
0000
0000
0000
0000
0000
0000
,
0001
0010
0001
1000
0010
0000
0000
0000
0101
1000
0100
0010
0001
0100
0010
1000
,
0001
1000
0001
0010
0100
0000
0000
0000
1100
0001
0010
0100
1000
0010
0100
0001
,
1100
1100
0010
1000
0001
0000
0101
1000
0010
0100
0001
0010
0100
1000
0101
0101
,
1000
0100
0010
0000
1001
0000
0100
0000
1001
0000
0010
0100
1000
0000
0001
0000
,
1010
0000
0100
0010
1001
0000
0010
1000
0001
0000
0100
0001
1010
0000
0100
0000
,
0001
0000
0000
0000
0000
0000
0000
0000
0000
0000
0000
0000
0000
0000
0000
0000
0000
0000
0000
0000
0000
0000
0000
0000
1000
0000
0000
0000
0000
0000
0000
0000
0000
0000
0000
0000
0000
0000
0000
0000
0000
0000
0000
0000
0000
0000
0000
0000
0101
0000
0000
0000
0000
0000
0000
0000
0000
0000
0000
0000
0000
0000
0000
0000
0000
0000
0000
0000
0000
0000
0000
0000
0002
0003
0000
0000
0000
0000
0000
0000
0000
0000
0000
0000
0000
0000
0000
0000
0000
0000
0000
0000
0000
0000
0000
0000
0002
0003
0000
0000
0000
0000
0000
0000
0000
0000
0000
0000
0000
0000
0000
0000
0000
0000
0000
0000
0000
0000
0000
0000
0002
0003
0000
0000
0000
0000
0000
0000
0000
0000
0000
0000
0000
0000
0000
0000
0000
0000
0000
0000
0000
0000
0000
0000
0110
0000
0000
0000
0000
0000
0000
0000
0000
0000
0000
0000
0000
0000
0000
0000
0000
0000
0000
0000
0000
0000
0000
0000
0020
0030
0000
0000
0000
0000
0000
0000
0000
0000
0000
0000
0000
0000
0000
0000
0000
0000
0000
0000
0000
0000
0000
0000
,
0020
0030
0000
0000
0000
0000
0000
0000
0000
0000
0000
0000
0000
0000
0000
0000
0000
0000
0000
0000
0000
0000
0000
0000
0020
0030
0000
0000
0000
0000
0000
0000
0000
0000
0000
0000
0000
0000
0000
0000
0000
0000
0000
0000
0000
0000
0000
0000
1010
0000
0000
0000
0000
0000
0000
0000
0000
0000
0000
0000
0000
0000
0000
0000
0000
0000
0000
0000
0000
0000
0000
0000
0020
0030
0000
0000
0000
0000
0000
0000
0000
0000
0000
0000
0000
0000
0000
0000
0000
0000
0000
0000
0000
0000
0000
0000
0020
0030
0000
0000
0000
0000
0000
0000
0000
0000
0000
0000
0000
0000
0000
0000
0000
0000
0000
0000
0000
0000
0000
0000
0020
0030
0000
0000
0000
0000
0000
0000
0000
0000
0000
0000
0000
0000
0000
0000
0000
0000
0000
0000
0000
0000
0000
0000
1100
0000
0000
0000
0000
0000
0000
0000
0000
0000
0000
0000
0000
0000
0000
0000
0000
0000
0000
0000
0000
0000
0000
0000
0200
0300
0000
0000
0000
0000
0000
0000
0000
0000
0000
0000
0000
0000
0000
0000
0000
0000
0000
0000
0000
0000
0000
0000
,
0200
0300
0000
0000
0000
0000
0000
0000
0000
0000
0000
0000
0000
0000
0000
0000
0000
0000
0000
0000
0000
0000
0000
0000
0200
0300
0000
0000
0000
0000
0000
0000
0000
0000
0000
0000
0000
0000
0000
0000
0000
0000
0000
0000
0000
0000
0000
0000
1001
0000
0000
0000
0000
0000
0000
0000
0000
0000
0000
0000
0010
0000
0000
0000
0000
0000
0000
0000
0000
0000
0000
0000
0100
0000
0000
0000
0000
0000
0000
0000
0000
0000
0000
0000
1000
0000
0000
0000
0000
0000
0000
0000
0000
0000
0000
0000
0001
0000
0000
0000
0000
0000
0000
0000
0000
0000
0000
0000
0100
0000
0000
0000
0000
0000
0000
0000
0000
0000
0000
0000
0011
0000
0000
0000
0000
0000
0000
0000
0000
0000
0000
0000
1000
0000
0000
0000
0000
0000
0000
0000
0000
0000
0000
0000
0011
0000
0000
0000
0000
0000
0000
0000
0000
0000
0000
0000
0100
0000
0000
0000
0000
0000
0000
0000
0000
0000
0000
0000
0001
0000
0000
0000
0000
0000
0000
0000
0000
0000
0000
0000
1000
0000
0000
0000
0000
0000
0000
0000
0000
0000
0000
0000
,
0001
0100
0000
0000
0000
0000
0000
0000
0000
0000
0000
0000
0000
0000
0000
0000
1001
0000
0000
0000
0100
0000
0000
0000
0010
0000
0000
0000
1000
0000
0000
0000
0001
0000
0000
0000
0010
0000
0000
0000
0101
0000
0000
0000
1000
0000
0000
0000
0101
0000
0000
0000
0010
0000
0000
0000
0100
0000
0000
0000
0001
0000
0000
0000
,
2000
0010
0000
0000
0000
0000
0000
0000
3200
0000
0000
0000
0000
0000
0000
0000
0321
0000
0000
0000
0000
0000
0000
0000
0000
0000
0000
0000
0000
0000
0000
0000
0132
0000
0000
0000
0000
0000
0000
0000
1203
0000
0000
0000
0000
0000
0000
0000
0321
0000
0000
0000
0000
0000
0000
0000
0000
0000
0000
0000
0000
0000
0000
0000
,
0031
1000
0000
0000
0000
0000
0000
0000
0000
0000
0000
0000
0000
0000
0000
0000
0210
0000
0000
0000
0000
0000
0000
0000
0000
0000
0000
0000
0000
0000
0000
0000
0320
1000
0000
0000
0000
0000
0000
0000
0231
0000
0000
0000
0000
0000
0000
0000
2310
0000
0000
0000
0000
0000
0000
0000
0000
0000
0000
0000
0000
0000
0000
0000
,
3101
0000
0100
0000
0110
0000
0000
0000
0101
0000
0100
0100
0100
0100
0100
0100
,
0100
0100
0100
0100
0100
0100
0100
0100
0100
0100
0100
0100
0100
0100
0100
0100
,
0100
0001
0100
0001
0100
0001
0100
0001
1000
0010
1000
0010
1000
0010
1000
0010
,
1000
0010
1000
0010
1000
0010
1000
0010
0100
0001
0010
0001
0010
0100
1000
0010
,
0100
0001
0100
0001
0010
0100
1000
0010
0100
0001
0100
0001
0100
0001
0100
0001
,
0100
0001
0100
0001
0100
0001
0100
0001
0010
0100
1000
0100
1000
0001
0010
0100
,
1000
0010
0100
0001
1000
0010
0100
0001
1100
0000
0010
0000
1000
0000
0001
0000
,
1000
0000
0010
0000
1000
0000
0001
0000
1010
0000
0100
0010
0100
0010
0100
0010
,
0100
0010
0100
0010
0100
0010
0100
0010
1001
0000
1000
0000
0010
0000
1001
0000
,
0101
0100
1001
0010
1010
1000
0011
0010
,
1100
1000
0001
1010
1001
0010
1100
1000
,
0101
0000
0100
0000
1001
0000
0010
0000
0202
0000
0000
0000
0000
0000
0000
0303
,
2020
0000
3030
1100
0101
0001
1100
0101
,
1001
1000
0101
0010
1001
0001
1010
1000
,
0110
0010
1000
0001
0110
0100
1001
0010
,
1100
0000
1000
0000
0001
0010
0100
1000
0010
0100
0010
0100
0001
1000
0100
0010
,
0001
1000
0001
0100
1010
0000
0000
0000
0202
0303
0000
0000
0000
0000
0000
0000
,
0202
0303
0000
0000
0000
0000
0000
0000
0001
0010
0001
1000
0100
0010
0100
1000
,
0001
0100
0001
0100
0010
1000
0001
1000
0202
0303
0000
0000
0000
0000
0000
0000
,
0202
0303
0000
0000
0000
0000
0000
0000
0001
0010
0001
1000
0100
0010
0100
1000
,
0001
0100
0001
0100
0010
1000
0001
1000
0101
0000
0100
0000
0011
0000
0001
0000
,
1010
0010
0101
1000
0110
0100
0011
0010
,
1001
1000
0100
1001
0101
0100
0011
1000
,
1001
0000
0100
0000
0011
0000
0010
0000
2200
0000
0000
0000
0000
0000
0000
3300
,
0220
0000
0330
1100
1001
0001
1010
1001
,
0011
0010
1001
1000
0101
0001
1100
0100
,
0011
0010
0100
1000
0102
1003
0001
0100
,
1002
0000
1003
0000
0010
0100
0001
0010
0100
1000
0001
0100
0001
1000
0100
0010
,
0001
0100
0001
1000
0101
0000
0000
0000
0010
0100
0010
0100
0010
0100
0010
0100
,
0010
0100
0010
0100
0010
0100
0010
0100
0001
1000
0001
1000
0001
1000
0001
1000
,
0001
1000
0001
1000
0001
1000
0001
1000
0100
1000
0100
1000
0100
1000
0100
1000
,
0100
1000
0100
1000
0100
1000
0100
1000
0100
1000
0100
1000
0100
1000
0100
1000
,
0001
0010
0100
1000
0001
0010
0100
1000
0002
0003
0100
0010
0100
0010
2000
3000
,
0010
0100
0010
0100
0002
0003
1000
0001
1000
0000
0001
0100
0001
0100
0020
0030
,
1000
0010
1000
0010
0200
0000
0000
0300
0020
0000
0000
0000
0000
0000
0000
0000
,
0000
0000
0000
0000
0000
0000
0000
0000
0000
0000
0000
0000
0000
0000
0000
0000
0000
0000
0000
0000
0000
0000
0000
0000
0000
0000
0000
0000
0000
0000
0000
0000
0000
0000
0000
0000
0000
0000
0000
0000
0000
0000
0030
0000
0000
0000
0000
0000
0002
0000
0000
0000
0000
0000
0000
0000
0000
0000
0000
0000
0000
0000
0000
0000
0000
0000
0000
0000
0000
0000
0000
0000
0000
0000
0000
0000
0000
0000
0000
0000
0000
0000
0000
0000
0000
0000
0000
0000
0000
0000
0000
0000
0000
0000
0000
0000
0000
0000
0000
0000
0000
0000
0000
0000
0000
0000
0000
0000
0000
0000
0000
0000
0000
0000
0000
0000
0003
0000
0000
0000
0100
0000
0000
0000
0000
0000
0000
0000
0000
0000
0000
0000
0010
0000
0000
0000
0000
0000
0000
0000
0000
0000
0000
0000
0100
0000
0000
0000
0000
0000
0000
0000
0000
0000
0000
0000
0001
0000
0000
0000
0000
0000
0000
0000
0000
0000
0000
0000
0010
0000
0000
0000
0000
0000
0000
0000
0000
0000
0000
0000
0100
0000
0000
0000
0000
0000
0000
0000
0000
0000
0000
0000
,
1000
0001
1000
0010
0201
0000
0000
0000
0321
0000
0000
0000
1000
0000
0000
0000
,
0132
1203
0321
1000
,
0001
1030
0102
1000
,
0123
0000
1230
0000
2301
0000
0100
3000
,
2001
0000
0000
0000
3210
0000
0000
0000
0301
0010
0001
0010
0001
0010
0100
1000
,
0100
1000
0100
1000
0010
1000
0010
1000
0010
0100
0010
0100
0010
0100
0001
0100
,
0001
0100
0001
0100
0001
1000
0001
1000
0120
0000
0000
0000
1000
0000
0000
0000
,
0031
1000
0120
1000
,
2032
0000
0000
0000
0000
0000
0000
3000
0200
0000
0000
0000
0000
0000
0000
0300
0123
0000
0000
0000
0000
0000
0000
0000
1000
0000
0000
0000
0000
0000
0000
0000
,
0132
1203
0321
1000
,
0001
1030
0012
1000
,
0123
0000
1230
0000
2301
0000
0100
3000
,
2001
0000
0000
0000
3210
0000
0000
0000
0301
0100
0001
0100
0001
0100
0001
1000
,
0001
1000
0001
1000
0010
1000
0010
1000
0001
0010
0001
0010
0001
0010
0100
1000
,
0100
1000
0100
1000
0001
1000
0001
1000
0120
0000
0000
0000
1000
0000
0000
0000
,
0031
0000
0000
0000
1000
0000
0000
0000
0001
0100
0001
0010
0100
1000
0100
0010
,
0001
0100
0001
0010
1100
0000
0000
0000
0202
0303
0000
0000
1010
0000
1000
0000
,
0202
0303
0000
0000
1010
0000
1000
0000
0001
0010
0001
1000
0010
0100
0010
1000
,
0001
0010
0001
0010
0100
1000
0010
1000
0110
0000
0001
0000
0100
0000
0101
0000
,
0011
1000
0100
0011
1010
1000
0100
0010
,
0100
1000
0001
0011
1001
0100
1000
1010
,
0110
0000
0100
0000
0011
0000
0010
0000
0202
0000
0000
0000
0000
0000
0000
0303
,
2002
0000
0000
3003
0011
0001
0100
1001
,
0011
0010
0100
1001
0101
0001
0100
0010
,
0100
0001
1000
0010
0110
1000
0001
1100
,
0101
0000
0001
0000
1010
0000
1000
0000
0011
0000
0100
0010
1000
0010
0100
0010
,
1000
0100
0010
0001
0010
0100
0010
0001
0100
0010
0100
0010
0100
0010
0100
0010
,
0100
0010
0100
0010
0100
0010
0100
0010
1000
0001
1000
0001
1000
0001
1000
0001
,
1000
0001
1000
0001
1000
0001
1000
0001
0100
0001
0100
0001
0100
0001
0100
0001
,
0100
0001
0100
0001
0100
0001
0100
0001
0100
0001
0100
0001
0100
0001
0100
0001
,
1000
0100
0010
0001
1000
0100
0010
0001
0200
0300
0001
1000
0001
1000
0020
0030
,
1000
0001
1000
0001
0200
0300
0010
0100
0010
0000
1000
0100
1000
0100
0020
0030
,
0001
0010
0001
0010
0200
0000
0000
0300
2000
0000
0000
0000
0000
0000
0000
0000
,
0000
0000
0000
0000
3020
0000
0000
0000
0000
0000
1030
0001
0010
0000
0001
0010
,
0100
1000
0100
0010
0201
0000
0000
0000
0321
0000
0000
0000
1000
0000
0000
0000
,
1032
1203
1320
1000
,
1000
1030
1002
1000
,
1023
0000
1230
0000
2301
0000
0001
3000
,
2001
0000
3201
0000
0321
0000
0100
0032
,
0100
0000
0213
0000
0321
0000
0001
0230
,
0001
2301
3021
0001
,
0031
0001
0021
0001
,
0031
0100
0010
0000
0201
0000
0000
0000
0321
0000
0000
0000
1000
0000
0000
0000
,
1032
1203
1320
1000
,
1000
1030
1002
1000
,
1023
0000
1230
0000
2301
0000
0001
3000
,
2001
0000
3201
0000
0321
0000
0000
1032
,
0000
0000
0213
0000
1320
0000
0000
0131
,
1000
0100
0010
0001
1000
0100
0010
0001
0120
0000
0100
0000
0100
0000
0100
0000
,
0130
0000
0100
0000
0100
0000
0100
1000
0100
0000
0100
0000
0100
0000
0100
0000
,
0002
0000
0000
0000
0000
0000
0000
0000
0000
0000
0000
0000
0000
0000
0000
0003
0110
0000
0000
0000
0100
0000
0000
0000
0100
0000
0000
0000
0100
0000
0000
0000
,
0100
0000
0100
0000
0100
0000
0100
1000
0100
0000
0100
0000
0100
0000
0100
0000
,
0002
0000
0000
0000
0000
0000
0000
0000
0000
0000
0000
0000
0000
0000
0000
0003
0100
0000
0000
0000
0100
0000
0000
0000
0100
0000
0000
0000
0100
0000
0000
0000
,
0100
1000
0100
0000
0100
0000
0100
0000
0100
1000
0100
0000
0100
0000
0100
0000
,
0100
0000
0000
0000
0100
0000
0000
0000
0020
0000
0000
0030
0002
0000
0000
0003
0100
0000
0000
0000
0100
0000
0000
0000
0100
0000
0000
0000
0100
0000
0000
0000
,
0100
1000
0100
0000
0100
0000
0100
0000
0100
1000
0100
0000
0100
0000
0100
0000
,
0100
0000
0000
0000
0100
0000
0000
0000
0020
0000
0000
0030
0002
0000
0000
0003
0120
0000
0000
0000
0000
0000
0000
0000
0000
0000
0000
0000
2030
0000
0000
0000
,
3201
0000
0320
0230
0320
0000
2030
3000
,
0120
0000
0030
0000
0201
0000
0000
2300
,
3201
0000
0320
0030
0002
0000
0203
0300
,
1002
0000
0000
0003
0120
0000
0000
2030
,
3201
0000
0320
0230
0320
0000
2030
0000
,
3120
0000
0000
0030
0201
0000
0000
2300
,
3201
0320
0032
0203
,
0301
0000
0000
0100
0000
0000
0010
0000
0000
1000
0000
0000
0001
0000
0000
0100
0000
0000
0010
0000
0000
1000
0000
0000
0120
0000
0000
0000
0000
0000
0000
0000
0000
0000
0000
0000
0000
0000
0000
0000
0030
0000
0020
0000
0000
0000
0030
0000
,
0120
0000
0000
0000
0000
0000
2030
0000
3000
2000
0000
3000
2001
0000
0000
0000
0000
0000
3200
0000
0000
0000
0000
0000
,
1320
0000
0000
0000
0000
0000
0030
0000
0000
0000
0000
0000
0021
0000
0000
0000
0000
0000
0000
0000
0030
0020
0000
0030
,
1020
0000
0000
0000
0000
0000
0230
0000
0000
0000
0000
0000
0312
0000
0000
0000
0000
0003
0012
0000
0000
0000
0000
0003
,
0012
0000
0000
0000
0003
0000
0000
0000
0021
0000
0000
0000
0031
1000
0001
1000
,
0120
0000
0000
0000
1030
0100
1000
0100
2001
0000
0000
0000
3001
1000
0001
1000
,
0120
0000
0000
0000
1030
0100
1000
0100
0021
0000
0000
0000
0031
1000
0001
1000
,
0120
0000
0000
0000
1030
0100
1000
0100
1002
0000
0000
0000
0103
0010
0100
0010
,
0102
0000
0000
0000
1003
0001
1000
0001
0100
0010
1000
0001
1000
0001
0010
0001
,
0100
0010
1000
0001
1000
0001
0010
0001
1000
0100
0010
0001
0010
0100
0010
0001
,
1000
0100
0010
0001
0010
0100
0010
0001
1000
0010
0100
0001
0010
0001
0010
0100
,
1000
0010
0100
0001
0010
0001
0010
0100
0020
0000
0000
0000
0000
0000
0000
0000
,
0032
0000
0000
0000
1003
0001
0100
0000
0010
0100
0001
1000
0001
1000
0100
1000
,
0010
0100
0001
1000
0001
1000
0100
1000
0001
0010
0100
1000
0100
0010
0100
1000
,
0001
0010
0100
1000
0100
0010
0100
1000
0001
0100
0010
1000
0100
1000
0100
0010
,
0001
0100
0010
1000
0100
1000
0100
0010
1001
0000
1001
0000
1001
0000
1001
0000
,
2001
0000
0000
3010
0201
0000
0000
0000
0321
0000
0000
0000
0032
0000
0203
0000
,
0320
0000
0000
0030
0002
0000
0023
0230
,
2300
0000
0000
0000
0000
0000
0000
3000
2000
0000
0000
0000
3200
0000
0000
0000
0320
0000
0000
0000
0000
0000
0000
0000
0032
0000
0000
0000
0203
0000
0000
0000
,
0320
0000
0230
2300
3020
0000
0000
0000
,
0000
0000
0000
0000
2030
0000
3200
0000
1310
1000
1000
1100
1001
1000
1000
1000
,
1010
1000
1000
1000
1001
1000
1000
1000
1010
1000
1000
1100
1001
1000
1000
1000
,
1010
1000
1000
1000
1001
1000
1000
1000
1010
1000
1000
1100
1001
1000
1000
1000
,
1010
1000
1000
1000
1001
1000
1000
1000
0010
0100
0010
0100
0001
0010
0100
1000
,
0010
0100
0010
0100
0001
0010
0100
1000
0001
0010
0001
0100
0001
0010
0001
1000
,
0010
0100
0010
0100
0010
0100
0010
0100
1020
0000
0000
0000
0000
0000
1000
0000
,
0032
1000
0203
1000
0320
1000
0000
1000
,
0000
1000
0030
1000
0012
1000
0000
1000
,
0023
1000
0230
0001
2300
0001
0000
3001
,
2000
0000
0001
0000
3200
0000
0001
0000
0310
0100
0010
0100
0010
0100
0001
0100
,
0001
0100
0001
0100
0001
1000
0001
1000
0010
1000
0010
1000
0010
1000
0100
1000
,
0100
1000
0100
1000
0001
1000
0001
1000
0120
0000
1000
0000
0000
0000
1000
0000
,
0030
1000
0000
1000
0020
1000
0000
1000
,
0031
0100
0001
0010
0100
1000
0010
0100
0021
0000
1000
0000
0000
0000
1000
0000
,
0032
1000
0203
1000
0320
1000
0000
1000
,
0000
1000
0030
1000
0002
1000
0000
1000
,
0023
1000
0230
0001
2300
0001
0000
3001
,
2000
0000
0001
0000
3200
0000
0001
0000
1300
0010
1000
0010
1000
0010
1000
0001
,
1000
0001
1000
0001
0100
0010
0100
0010
0100
0001
0100
0001
0100
0001
0010
0001
,
0010
0001
0010
0001
1000
0001
1000
0001
0120
0000
0000
0000
0000
0000
1032
0000
,
0000
0000
1203
0000
1320
0000
0000
0230
,
0301
0000
0010
0000
0100
0000
1000
0000
0001
0000
0010
0000
0100
0000
1000
0000
0001
0000
0010
0000
0100
0000
1000
0000
0020
0000
0000
0100
0000
0000
1000
0000
0000
0100
0000
0000
0001
0000
0000
0100
0000
0000
1030
0000
0000
0100
0000
0000
,
0010
0001
0010
0100
1000
0000
0000
0000
1001
0010
0100
1000
0001
0100
0010
1000
,
0001
0100
0001
1000
0100
0000
0000
0000
1001
0010
0100
1000
0001
0100
0010
1000
,
0001
0100
0001
1000
0100
0000
0000
0000
1001
0010
0100
1000
0001
0100
0010
1000
,
0001
0100
0001
1000
0100
0000
0000
0000
1001
0000
0000
0000
0000
0000
0000
0000
,
0000
0000
1001
0000
,
0000
0000
1001
0000
,
0000
0000
1001
0000
;
