#TITLE:Csikospost;
#SUBTITLE:(Double Drum Mix);
#ARTIST:Dj. Quetzal;
#TITLETRANSLIT:;
#SUBTITLETRANSLIT:;
#ARTISTTRANSLIT:;
#CREDIT:;
#BANNER:Csikos POST (Double Drum Mix)-bn.PNG;
#BACKGROUND:Csikos POST (Double Drum Mix)-bg.PNG;
#LYRICSPATH:;
#CDTITLE:;
#MUSIC:Csikos POST (Double Drum Mix).mp3;
#OFFSET:-2.460;
#SAMPLESTART:35.793;
#SAMPLELENGTH:12.000;
#SELECTABLE:YES;
#BPMS:0.000=180.000;
#STOPS:;
#BGCHANGES:;
// cache tags:
#FIRSTBEAT:12.000;
#LASTBEAT:301.000;
#SONGFILENAME:Songs/stepmix .10/Csikos POST (Double Drum Mix)/Csikos POST (Double Drum Mix).sm;
#HASMUSIC:1;
#HASBANNER:1;
#MUSICLENGTH:105.461;
// end cache tags

//---------------dance-single - ----------------
#NOTES:
     dance-single:
     :
     Hard:
     8:
     0.764,0.749,0.503,0.322,0.095,476.000,53.000,34.000,0.000,2.000:  // measure 1
0000
0000
0000
0000
,  // measure 2
0000
0000
0000
0000
,  // measure 3
0000
0000
0000
0000
,  // measure 4
1000
0010
0100
0000
0001
0100
0010
0000
,  // measure 5
1000
0100
0010
0001
1000
0000
0110
0000
,  // measure 6
1001
0000
1000
0010
0100
0001
0100
0010
,  // measure 7
1000
0100
0010
0001
2000
0000
3000
0000
,  // measure 8
1000
0010
0100
0001
1000
0010
0100
0001
,  // measure 9
1000
0001
0010
0100
1000
0100
0010
0000
,  // measure 10
0110
0000
1000
0001
0100
0010
1000
0001
,  // measure 11
0010
0100
1000
0001
2000
0000
3000
0000
,  // measure 12
0001
1000
0001
1000
0010
0100
0010
0100
,  // measure 13
0001
0000
1000
0010
0100
0000
1001
0000
,  // measure 14
1010
0101
2002
3003
,  // measure 15
0011
1100
2002
3003
,  // measure 16
2000
0000
3001
0010
0100
1000
0001
0000
,  // measure 17
0002
0000
1003
0100
0010
0100
1000
0000
,  // measure 18
0110
1001
0220
0330
,  // measure 19
1001
0110
2002
3003
,  // measure 20
1000
0010
0100
0000
0001
0100
0010
1000
,  // measure 21
0001
0010
0100
1000
0001
0000
0110
0000
,  // measure 22
1000
0010
0100
0000
0001
0100
0010
0000
,  // measure 23
1000
0100
0010
0001
1000
0000
0110
0000
,  // measure 24
1001
0000
1000
0010
0100
0001
0100
0010
,  // measure 25
1000
0100
0010
0001
2000
0000
3000
0000
,  // measure 26
1000
0010
0100
0001
1000
0010
0100
0001
,  // measure 27
1000
0001
0010
0100
1000
0100
0010
0000
,  // measure 28
0110
0000
1000
0001
0100
0010
1000
0001
,  // measure 29
0010
0100
1000
0001
2000
0000
3000
0000
,  // measure 30
0001
1000
0001
1000
0010
0100
0010
0100
,  // measure 31
0001
0000
1000
0010
0100
0000
1001
0000
,  // measure 32
1010
0101
2002
3003
,  // measure 33
0011
1100
2002
3003
,  // measure 34
2000
0000
3001
0010
0100
1000
0001
0000
,  // measure 35
0002
0000
1003
0100
0010
0100
1000
0000
,  // measure 36
0110
1001
0220
0330
,  // measure 37
1001
0110
2002
3003
,  // measure 38
1000
0010
0100
0000
0001
0100
0010
1000
,  // measure 39
0001
0010
0100
1000
0001
0000
0110
0000
,  // measure 40
0001
1000
0001
1000
0001
1000
0001
1000
,  // measure 41
0001
0100
0001
0100
0001
0100
0001
0100
,  // measure 42
0010
1000
0010
1000
0010
1000
0010
1000
,  // measure 43
0010
0100
0010
0100
0010
0100
0010
0100
,  // measure 44
0001
0100
0001
0100
0001
0100
0001
0100
,  // measure 45
0010
1000
0010
1000
0010
1000
0010
1000
,  // measure 46
0100
1000
0100
1000
0100
1000
0100
1000
,  // measure 47
1001
0110
1001
0110
,  // measure 48
1000
0100
0010
0001
1000
0100
0010
0001
,  // measure 49
1000
0000
0000
0000
0100
0000
0000
0000
0010
0000
0000
0000
0001
0000
0000
0000
1000
0010
0000
0000
0100
0000
0000
0000
0001
0000
0100
0000
0010
0000
0000
0000
,  // measure 50
1000
0010
0100
0001
1000
0010
0100
0001
,  // measure 51
1000
0000
0000
0000
0010
0000
0000
0000
0100
0000
0000
0000
0001
0000
0000
0000
1000
0010
0000
0000
0100
0000
0000
0000
0001
0000
0100
0000
0010
0000
0000
0000
,  // measure 52
1000
0001
0100
0010
1000
0001
0100
0010
,  // measure 53
1000
0000
0000
0000
0001
0000
0000
0000
0100
0000
0000
0000
0010
0000
0000
0000
1000
0001
0000
0000
0100
0000
0000
0000
0001
0000
1000
0000
0010
0000
0000
0000
,  // measure 54
1000
0000
0000
0000
0001
0000
0000
0000
0100
0000
0000
0000
0010
0000
0000
0000
1000
0001
0000
0000
0100
0000
0000
0000
0001
0000
1000
0000
0010
0000
0000
0000
,  // measure 55
1000
0000
0100
0000
0010
0000
0001
0000
1000
0100
0010
0000
0001
0010
0100
0000
,  // measure 56
1000
0000
0010
0000
0100
0000
0001
0000
1000
0010
0100
0000
0001
0100
0010
0000
,  // measure 57
1000
0100
0010
0001
1000
0100
0010
0001
,  // measure 58
1000
0000
0000
0000
0100
0000
0000
0000
0010
0000
0000
0000
0001
0000
0000
0000
1000
0010
0000
0000
0100
0000
0000
0000
0001
0000
0100
0000
0010
0000
0000
0000
,  // measure 59
1000
0010
0100
0001
1000
0010
0100
0001
,  // measure 60
1000
0000
0000
0000
0010
0000
0000
0000
0100
0000
0000
0000
0001
0000
0000
0000
1000
0010
0000
0000
0100
0000
0000
0000
0001
0000
0100
0000
0010
0000
0000
0000
,  // measure 61
1000
0001
0100
0010
1000
0001
0100
0010
,  // measure 62
1000
0000
0000
0000
0001
0000
0000
0000
0100
0000
0000
0000
0010
0000
0000
0000
1000
0001
0000
0000
0100
0000
0000
0000
0001
0000
1000
0000
0010
0000
0000
0000
,  // measure 63
1000
0000
0100
0000
0010
0000
0001
0000
1000
0100
0010
0000
0001
0010
0100
0000
,  // measure 64
1001
0110
2002
3003
,  // measure 65
0110
1001
0220
0330
,  // measure 66
1000
0100
0010
0001
1000
0100
0010
0000
,  // measure 67
0001
0100
0010
1000
0001
0100
0010
0000
,  // measure 68
0110
1001
0220
0330
,  // measure 69
1001
0110
2002
3003
,  // measure 70
1000
0010
0100
0000
0001
0100
0010
1000
,  // measure 71
0001
0010
0100
1000
0001
0000
0110
0000
,  // measure 72
0010
0100
0001
0000
1000
0100
0010
0100
,  // measure 73
1000
0010
0100
0010
1000
0000
1001
0000
,  // measure 74
1000
0001
0100
0000
0001
0010
0100
1000
,  // measure 75
0010
0100
0001
0100
0010
0000
0212
0000
,  // measure 76
0000
0313
0000
0000
;
