#TITLE:DIST SQUAD;
#SUBTITLE:;
#ARTIST:DJ Sharpnel;
#TITLETRANSLIT:;
#SUBTITLETRANSLIT:;
#ARTISTTRANSLIT:;
#CREDIT:;
#BANNER:dist squad bn.png;
#BACKGROUND:dist squad bg.png;
#LYRICSPATH:;
#CDTITLE:;
#MUSIC:Dist Squad.ogg;
#OFFSET:-0.046;
#SAMPLESTART:18.055;
#SAMPLELENGTH:19.199;
#SELECTABLE:YES;
#DISPLAYBPM:200.000;
#BPMS:0.000=200.000;
#STOPS:;
#BGCHANGES:;
// cache tags:
#FIRSTBEAT:28.000;
#LASTBEAT:300.000;
#SONGFILENAME:Songs/SHARPNELSTREAMZ v2/Dist Squad/Dist Squad.sm;
#HASMUSIC:1;
#HASBANNER:1;
#MUSICLENGTH:91.924;
// end cache tags

//---------------dance-single - 14 (TYLR)----------------
#NOTES:
     dance-single:
     14 (TYLR):
     Challenge:
     14:
     1.000,1.000,0.120,0.479,1.000,698.000,11.000,44.000,27.000,0.000:
0000
0000
0000
0000
,
0000
0000
0000
0000
,
0000
0000
0000
0000
,
0000
0000
0000
0000
,
0000
0000
0000
0000
,
0000
0000
0000
0000
,
0000
0000
0000
0000
,
1001
0000
1000
0001
0040
0000
0000
0000
0000
0000
0000
0000
0000
0000
0031
1000
,
0100
0000
0000
0010
0001
0000
0100
0000
0000
0010
1000
0000
0001
0010
0001
0010
,
0100
0000
1000
0001
0400
0000
0000
0000
0000
0000
0000
0000
0000
0000
0310
1000
,
0001
0000
0000
0010
0100
1000
0010
0100
0001
1000
0100
0000
0000
0010
0001
1000
,
0010
0000
0100
0001
4000
0000
0000
0000
0000
0000
0000
0000
0000
0000
3001
0010
,
0100
0000
0000
1000
0001
0000
0100
0000
0010
1000
0001
0000
0010
0100
0010
0100
,
1000
0000
0001
0100
0040
0000
0000
0000
0000
0000
0000
0000
0000
0000
0130
0001
,
2000
0000
0002
0000
0000
0000
3003
M00M
,
1001
0000
0001
0010
0100
M00M
0100
0000
0001
0010
0100
0000
1000
0000
0001
0000
,
0100
0000
0010
1000
0100
M00M
0100
0000
0010
1000
0100
0000
0010
0000
0002
0000
,
0103
0000
0010
1000
0100
M00M
0100
0000
0010
1000
0100
0000
0010
0000
0001
0000
,
0100
0000
0001
1000
0001
0100
0010
1000
0100
0010
0002
0013
0100
1000
0002
0103
,
0010
0000
1000
0100
0010
M00M
0010
0000
1000
0100
0010
0000
0001
0000
0100
0000
,
0010
0000
1000
0100
0010
M00M
0010
0000
1000
0100
0010
0000
0001
0000
0200
0000
,
0310
0000
1000
0001
0010
M00M
0010
0000
1000
0001
0010
0000
0100
0000
1000
0000
,
0001
0100
0001
0100
0010
1000
0100
0010
0001
1000
0020
0130
0001
0100
0020
1030
,
0100
0000
1000
0010
0100
M00M
0100
0000
1000
0010
0100
0000
0001
0000
1000
0000
,
0100
0000
0010
0001
0100
M00M
0100
0000
0010
0001
0100
0000
0010
0000
2000
0000
,
3100
0000
0010
0001
0100
M00M
0100
0000
0010
0001
0100
0000
0010
0000
1000
0000
,
0100
0000
1000
0001
1000
0100
0010
0001
0100
0010
2000
3010
0100
0001
2000
3100
,
0010
0000
0001
0100
0010
M00M
0010
0000
0001
0100
0010
0000
1000
0000
0100
0000
,
0010
0000
0001
0100
0010
M00M
0010
0000
0001
0100
0010
0000
1000
0000
0200
0000
,
0310
0000
0001
1000
0010
M00M
0010
0000
0001
1000
0010
0000
0100
0000
0001
0000
,
1000
0000
0100
0010
0100
0010
0100
0010
0001
0000
0100
0010
0100
0010
0100
0010
,
1000
0200
1300
0020
0130
0002
0103
0020
,
1030
0200
0310
0002
0013
0200
1300
0002
,
0103
0000
0010
1000
0010
0100
0001
1000
0100
0010
0100
1000
0010
0100
0001
1000
,
0100
0000
0010
0001
0010
0100
1000
0001
0100
0010
0100
0001
0010
0100
1000
0001
,
0100
0000
0010
1000
0010
0100
0001
1000
0100
0010
0100
1000
0010
0100
0001
1000
,
0100
0000
0010
0001
0010
0100
1000
0001
0100
0010
0100
0001
0010
0100
1000
0001
,
0100
0000
0010
1000
0100
0010
0001
0010
0100
1000
0010
0100
0001
0010
0100
1000
,
0001
0000
1000
0100
0010
0001
0100
0010
1000
0010
0100
0001
0010
0100
1000
0010
,
0100
0000
0010
1000
0100
0010
0001
0100
0010
1000
0010
0100
0001
0010
0200
0000
,
1300
0000
0001
0010
0100
1000
0010
0100
0001
0100
0010
1000
0100
0010
0002
0000
,
1003
0000
0010
1000
0001
0010
0100
1000
0010
0100
0010
1000
0100
0010
0001
1000
,
0010
0000
0100
0010
1000
0001
0010
0100
1000
0010
0100
0001
1000
0100
0010
0001
,
1000
0000
1000
0000
1000
0000
1000
0020
,
0130
0000
0000
0000
,
1001
0000
0001
1000
0400
0000
0000
0000
0000
0000
0000
0000
0000
0000
1300
0001
,
0010
0000
0000
0100
1000
0000
0010
0000
0000
0100
0001
0000
1000
0100
1000
0100
,
0010
0000
0001
1000
0040
0000
0000
0000
0000
0000
0000
0000
0000
0000
0130
0001
,
1000
0000
0000
0100
0010
0001
0100
0010
1000
0001
0010
0000
0000
0100
1000
0001
,
0100
0000
0010
1000
0004
0000
0000
0000
0000
0000
0000
0000
0000
0000
1003
0100
,
0010
0000
0000
0001
1000
0000
0010
0000
0100
0001
1000
0000
0100
0010
0100
0010
,
0001
0000
1000
0010
0400
0000
0000
0000
0000
0000
0000
0000
0000
0000
0310
1000
,
0001
0000
0000
0000
,
0000
0000
0000
0000
,
0000
0000
0000
0000
,
0000
0000
0000
0000
,
0000
0000
0000
0000
,
1000
0010
1000
0001
0100
0010
0100
0001
0010
0100
1000
0001
1000
0100
0010
0001
,
0100
0010
1000
0010
0100
0001
1000
0100
0010
0001
0100
0010
1000
0001
0020
0130
,
1000
0001
0100
0001
0010
0100
1000
0100
0010
0001
1000
0010
1000
0010
0100
0001
,
0010
0100
1000
0100
0010
0001
0010
0100
1000
0001
0200
0310
1000
0010
0200
0301
,
0010
0100
1000
0001
1000
0100
0010
0001
0100
0010
1000
0001
0100
0001
1000
0100
,
0010
0001
1000
0001
0100
0010
1000
0010
0100
0001
0010
0100
1000
0001
0200
0310
,
1000
0010
0100
0001
0010
0100
1000
0001
0100
0001
1000
0001
1000
0100
0010
0001
,
0200
0300
0000
0000
0200
0300
0000
0000
0200
0300
0000
0000
0200
0300
0000
0000
,
0001
0100
0001
1000
0010
0100
0010
1000
0100
0010
0001
1000
0001
0010
0100
1000
,
0010
0100
0001
0100
0010
1000
0001
0010
0100
1000
0010
0100
0001
1000
0200
0310
,
0001
1000
0010
1000
0100
0010
0001
0010
0100
1000
0001
0100
0001
0100
0010
1000
,
0100
0010
0001
0010
0100
1000
0100
0010
0001
1000
0020
0130
0001
0100
0020
1030
,
0100
0010
0001
1000
0001
0010
0100
1000
0010
0100
0001
1000
0010
1000
0001
0010
,
0100
1000
0001
1000
0010
0100
0001
0100
0010
1000
0100
0010
0001
1000
0020
0130
,
0001
0100
0010
1000
0100
0010
0001
1000
0010
1000
0001
1000
0001
0010
0100
1000
,
0020
0030
0000
0000
0200
0300
0000
0000
0002
0003
0002
0003
2000
3000
0002
0003
,
0020
0030
0000
0000
0200
0300
1000
0000
0002
0003
0100
0000
0000
0000
0000
0000
,
0000
0000
0000
0000
,
M000
0000
0000
0000
;

//---------------dance-single - Switchless----------------
#NOTES:
     dance-single:
     Switchless:
     Hard:
     14:
     1.000,1.000,0.120,0.479,1.000,698.000,11.000,44.000,3.000,0.000:
0000
0000
0000
0000
,
0000
0000
0000
0000
,
0000
0000
0000
0000
,
0000
0000
0000
0000
,
0000
0000
0000
0000
,
0000
0000
0000
0000
,
0000
0000
0000
0000
,
1001
0000
1000
0001
0040
0000
0000
0000
0000
0000
0000
0000
0000
0000
0031
1000
,
0100
0000
0000
0010
0001
0000
0100
0000
0000
0010
1000
0000
0001
0010
0001
0010
,
0100
0000
1000
0001
0400
0000
0000
0000
0000
0000
0000
0000
0000
0000
0310
1000
,
0001
0000
0000
0010
0100
1000
0010
0100
0001
1000
0100
0000
0000
0010
0001
1000
,
0010
0000
0100
0001
4000
0000
0000
0000
0000
0000
0000
0000
0000
0000
3001
0010
,
0100
0000
0000
1000
0001
0000
0100
0000
0010
1000
0001
0000
0010
0100
0010
0100
,
1000
0000
0001
0100
0040
0000
0000
0000
0000
0000
0000
0000
0000
0000
0130
0001
,
2000
0000
0002
0000
0000
0000
3003
M00M
,
1001
0000
0001
0010
0100
0000
1000
0000
0001
0010
0100
0000
1000
0000
0001
0000
,
0100
0000
0010
1000
0100
0000
1000
0000
0010
1000
0100
0000
0010
0000
0002
0000
,
0103
0000
0010
1000
0001
0000
0100
0000
0010
1000
0001
0000
0010
0000
0001
0000
,
0100
0000
0001
1000
0001
0100
0010
1000
0100
0010
0002
0013
0100
1000
0002
0103
,
0010
0000
1000
0100
0010
0000
0001
0000
1000
0100
0010
0000
0001
0000
0100
0000
,
0010
0000
1000
0001
0010
0000
0100
0000
1000
0001
0010
0000
0100
0000
2000
0000
,
3010
0000
0100
0001
0010
0000
0001
0000
0100
0001
0010
0000
0100
0000
1000
0000
,
0001
0100
0001
0100
0010
1000
0100
0010
0001
1000
0020
0130
0001
0100
0020
1030
,
0100
0000
1000
0010
0100
0000
0001
0000
1000
0010
0100
0000
0001
0000
1000
0000
,
0100
0000
0010
0001
1000
0000
0100
0000
0010
0001
1000
0000
0010
0000
2000
0000
,
3100
0000
0010
0001
0100
0000
0001
0000
0010
0001
0100
0000
0010
0000
1000
0000
,
0100
0000
1000
0001
1000
0100
0010
0001
0100
0010
2000
3010
0100
0001
2000
3100
,
0010
0000
0001
0100
0010
0000
1000
0000
0001
0100
0010
0000
1000
0000
0100
0000
,
0010
0000
0001
1000
0010
0000
0100
0000
0001
1000
0010
0000
0100
0000
0002
0000
,
1003
0000
0100
0010
0001
0000
1000
0000
0100
0010
0001
0000
0100
0000
0001
0000
,
1000
0000
0100
0010
0100
0010
0100
0010
0001
0000
0100
0010
0100
0010
0100
0010
,
1000
0200
1300
0020
0130
0002
0103
0020
,
1030
0200
0310
0002
0013
0200
1300
0002
,
0103
0000
0010
1000
0010
0100
0001
1000
0100
0010
0100
1000
0010
0100
0001
1000
,
0100
0000
0010
0001
0010
0100
1000
0001
0100
0010
0100
0001
0010
0100
1000
0001
,
0100
0000
0010
1000
0010
0100
0001
1000
0100
0010
0100
1000
0010
0100
0001
1000
,
0100
0000
0010
0001
0010
0100
1000
0001
0100
0010
0100
0001
0010
0100
1000
0001
,
0100
0000
0010
1000
0100
0010
0001
0010
0100
1000
0010
0100
0001
0010
0100
1000
,
0001
0000
1000
0100
0010
0001
0100
0010
1000
0010
0100
0001
0010
0100
1000
0010
,
0100
0000
0010
1000
0100
0010
0001
0100
0010
1000
0010
0100
0001
0010
0200
0000
,
1300
0000
0001
0010
0100
1000
0010
0100
0001
0100
0010
1000
0100
0010
0002
0000
,
1003
0000
0010
1000
0001
0010
0100
1000
0010
0100
0010
1000
0100
0010
0001
1000
,
0010
0000
0100
0010
1000
0001
0010
0100
1000
0010
0100
0001
1000
0100
0010
0001
,
1000
0000
1000
0000
1000
0000
1000
0020
,
0130
0000
0000
0000
,
1001
0000
0001
1000
0400
0000
0000
0000
0000
0000
0000
0000
0000
0000
1300
0001
,
0010
0000
0000
0100
1000
0000
0010
0000
0000
0100
0001
0000
1000
0100
1000
0100
,
0010
0000
0001
1000
0040
0000
0000
0000
0000
0000
0000
0000
0000
0000
0130
0001
,
1000
0000
0000
0100
0010
0001
0100
0010
1000
0001
0010
0000
0000
0100
1000
0001
,
0100
0000
0010
1000
0004
0000
0000
0000
0000
0000
0000
0000
0000
0000
1003
0100
,
0010
0000
0000
0001
1000
0000
0010
0000
0100
0001
1000
0000
0100
0010
0100
0010
,
0001
0000
1000
0010
0400
0000
0000
0000
0000
0000
0000
0000
0000
0000
0310
1000
,
0001
0000
0000
0000
,
0000
0000
0000
0000
,
0000
0000
0000
0000
,
0000
0000
0000
0000
,
0000
0000
0000
0000
,
1000
0010
1000
0001
0100
0010
0100
0001
0010
0100
1000
0001
1000
0100
0010
0001
,
0100
0010
1000
0010
0100
0001
1000
0100
0010
0001
0100
0010
1000
0001
0020
0130
,
1000
0001
0100
0001
0010
0100
1000
0100
0010
0001
1000
0010
1000
0010
0100
0001
,
0010
0100
1000
0100
0010
0001
0010
0100
1000
0001
0200
0310
1000
0010
0200
0301
,
0010
0100
1000
0001
1000
0100
0010
0001
0100
0010
1000
0001
0100
0001
1000
0100
,
0010
0001
1000
0001
0100
0010
1000
0010
0100
0001
0010
0100
1000
0001
0200
0310
,
1000
0010
0100
0001
0010
0100
1000
0001
0100
0001
1000
0001
1000
0100
0010
0001
,
0200
0300
0000
0000
0200
0300
0000
0000
0200
0300
0000
0000
0200
0300
0000
0000
,
0001
0100
0001
1000
0010
0100
0010
1000
0100
0010
0001
1000
0001
0010
0100
1000
,
0010
0100
0001
0100
0010
1000
0001
0010
0100
1000
0010
0100
0001
1000
0200
0310
,
0001
1000
0010
1000
0100
0010
0001
0010
0100
1000
0001
0100
0001
0100
0010
1000
,
0100
0010
0001
0010
0100
1000
0100
0010
0001
1000
0020
0130
0001
0100
0020
1030
,
0100
0010
0001
1000
0001
0010
0100
1000
0010
0100
0001
1000
0010
1000
0001
0010
,
0100
1000
0001
1000
0010
0100
0001
0100
0010
1000
0100
0010
0001
1000
0020
0130
,
0001
0100
0010
1000
0100
0010
0001
1000
0010
1000
0001
1000
0001
0010
0100
1000
,
0020
0030
0000
0000
0200
0300
0000
0000
0002
0003
0002
0003
2000
3000
0002
0003
,
0020
0030
0000
0000
0200
0300
1000
0000
0002
0003
0100
0000
0000
0000
0000
0000
,
0000
0000
0000
0000
,
M000
0000
0000
0000
;

//---------------dance-single - JUMP SQUAD----------------
#NOTES:
     dance-single:
     JUMP SQUAD:
     Edit:
     15:
     1.000,1.000,1.000,0.337,0.957,584.000,136.000,31.000,27.000,0.000:
0000
0000
0000
0000
,
0000
0000
0000
0000
,
0000
0000
0000
0000
,
0000
0000
0000
0000
,
0000
0000
0000
0000
,
0000
0000
0000
0000
,
0000
0000
0000
0000
,
1001
0000
1000
0001
0040
0000
0000
0000
0000
0000
0000
0000
0000
0000
0031
1000
,
0100
0000
0000
0010
0001
0000
0100
0000
0000
0010
1000
0000
0001
0010
0001
0010
,
0100
0000
1000
0001
0400
0000
0000
0000
0000
0000
0000
0000
0000
0000
0310
1000
,
0001
0000
0000
0010
0100
1000
0010
0100
0001
1000
0100
0000
0000
0010
0001
1000
,
0010
0000
0100
0001
4000
0000
0000
0000
0000
0000
0000
0000
0000
0000
3001
0010
,
0100
0000
0000
1000
0001
0000
0100
0000
0010
1000
0001
0000
0010
0100
0010
0100
,
1000
0000
0001
0100
0040
0000
0000
0000
0000
0000
0000
0000
0000
0000
0130
0001
,
2000
0000
0002
0000
0000
0000
3003
M00M
,
1001
0000
0001
0010
0100
M00M
0100
0000
0001
0010
0100
0000
1000
0000
0001
0000
,
0100
0000
0010
1000
0100
M00M
0100
0000
0010
1000
0100
0000
0010
0000
0002
0000
,
0103
0000
0010
1000
0100
M00M
0100
0000
0010
1000
0100
0000
0010
0000
0001
0000
,
0100
0000
0001
1000
0001
0100
0010
1000
0100
0010
0002
0013
0100
1000
0002
0103
,
0010
0000
1000
0100
0010
M00M
0010
0000
1000
0100
0010
0000
0001
0000
0100
0000
,
0010
0000
1000
0100
0010
M00M
0010
0000
1000
0100
0010
0000
0001
0000
0200
0000
,
0310
0000
1000
0001
0010
M00M
0010
0000
1000
0001
0010
0000
0100
0000
1000
0000
,
0001
0100
0001
0100
0010
1000
0100
0010
0001
1000
0020
0130
0001
0100
0020
1030
,
0100
0000
1000
0010
0100
M00M
0100
0000
1000
0010
0100
0000
0001
0000
1000
0000
,
0100
0000
0010
0001
0100
M00M
0100
0000
0010
0001
0100
0000
0010
0000
2000
0000
,
3100
0000
0010
0001
0100
M00M
0100
0000
0010
0001
0100
0000
0010
0000
1000
0000
,
0100
0000
1000
0001
1000
0100
0010
0001
0100
0010
2000
3010
0100
0001
2000
3100
,
0010
0000
0001
0100
0010
M00M
0010
0000
0001
0100
0010
0000
1000
0000
0100
0000
,
0010
0000
0001
0100
0010
M00M
0010
0000
0001
0100
0010
0000
1000
0000
0200
0000
,
0310
0000
0001
1000
0010
M00M
0010
0000
0001
1000
0010
0000
0100
0000
0001
0000
,
1000
0000
0100
0010
0100
0010
0100
0010
0001
0000
0100
0010
0100
0010
0100
0010
,
1000
0200
1300
0020
0130
0002
0103
0020
,
1030
0200
0310
0002
0013
0200
1300
0002
,
0103
0000
0010
1000
0010
0100
0001
1000
0100
0010
0100
1000
0010
0100
0001
1000
,
0100
0000
0010
0001
0010
0100
1000
0001
0100
0010
0100
0001
0010
0100
1000
0001
,
0100
0000
0010
1000
0010
0100
0001
1000
0100
0010
0100
1000
0010
0100
0001
1000
,
0100
0000
0010
0001
0010
0100
1000
0001
0100
0010
0100
0001
0010
0100
1000
0001
,
0100
0000
0010
1000
0100
0010
0001
0010
0100
1000
0010
0100
0001
0010
0100
1000
,
0001
0000
1000
0100
0010
0001
0100
0010
1000
0010
0100
0001
0010
0100
1000
0010
,
0100
0000
0010
1000
0100
0010
0001
0100
0010
1000
0010
0100
0001
0010
0200
0000
,
1300
0000
0001
0010
0100
1000
0010
0100
0001
0100
0010
1000
0100
0010
0002
0000
,
1003
0000
0010
1000
0001
0010
0100
1000
0010
0100
0010
1000
0100
0010
0001
1000
,
0010
0000
0100
0010
1000
0001
0010
0100
1000
0010
0100
0001
1000
0100
0010
0001
,
1000
0000
1000
0000
1000
0000
1000
0020
,
0130
0000
0000
0000
,
1001
0000
0001
1000
0400
0000
0000
0000
0000
0000
0000
0000
0000
0000
1300
0001
,
0010
0000
0000
0100
1000
0000
0010
0000
0000
0100
0001
0000
1000
0100
1000
0100
,
0010
0000
0001
1000
0040
0000
0000
0000
0000
0000
0000
0000
0000
0000
0130
0001
,
1000
0000
0000
0100
0010
0001
0100
0010
1000
0001
0010
0000
0000
0100
1000
0001
,
0100
0000
0010
1000
0004
0000
0000
0000
0000
0000
0000
0000
0000
0000
1003
0100
,
0010
0000
0000
0001
1000
0000
0010
0000
0100
0001
1000
0000
0100
0010
0100
0010
,
0001
0000
1000
0010
0400
0000
0000
0000
0000
0000
0000
0000
0000
0000
0310
1000
,
0001
0000
0000
0000
,
0000
0000
0000
0000
,
0000
0000
0000
0000
,
0000
0000
0000
0000
,
0000
0000
0000
0000
,
1100
0110
0011
1001
1010
0110
1001
1100
,
0011
0000
1001
0000
1010
0000
0110
0000
1001
0000
1100
0000
0101
0000
0021
0030
,
1001
1100
0110
0011
1001
1010
1001
0011
,
0110
0000
1100
0000
1001
0000
0101
0000
0110
0000
0201
0300
1001
0000
1200
0300
,
0110
0011
1001
0101
0110
1010
1001
1100
,
0101
0000
1001
0000
1100
0000
1001
0000
0101
0000
0110
0000
1001
0000
2100
3000
,
0101
1001
1100
1010
0110
1001
1100
0110
,
0011
0011
0011
0011
,
1001
1100
0110
0011
1001
1010
0110
1010
,
1001
0000
0011
0000
0110
0000
1001
0000
1010
0000
0011
0000
1001
0000
1020
0030
,
0101
0110
1010
1001
1100
0110
0011
1001
,
1010
0000
0110
0000
1001
0000
1100
0000
0110
0000
1002
0003
1010
0000
0012
0003
,
1001
1100
1001
0011
0110
1100
1001
0101
,
0110
0000
1001
0000
1100
0000
0110
0000
0011
0000
0101
0000
1001
0000
2100
3000
,
0110
1001
1010
0101
0011
1001
1010
1001
,
1100
0000
1100
0000
1100
0110
0011
0101
,
1010
0110
1001
0000
,
0000
0000
0000
0000
,
M000
0000
0000
0000
;
