#TITLE:Tricky Disco;
#SUBTITLE:;
#ARTIST:Discotronic;
#TITLETRANSLIT:;
#SUBTITLETRANSLIT:;
#ARTISTTRANSLIT:;
#CREDIT:;
#BANNER:untitled.bmp;
#BACKGROUND:;
#LYRICSPATH:;
#CDTITLE:;
#MUSIC:Discotronic - Tricky Disco (Club Mix).ogg;
#OFFSET:-0.504;
#SAMPLESTART:70.153;
#SAMPLELENGTH:12.000;
#SELECTABLE:YES;
#DISPLAYBPM:143.000;
#BPMS:0.000=143.749,102.000=287.498,105.000=143.749,230.000=287.498,231.500=143.749,298.000=71.874,316.000=143.749;
#STOPS:102.000=0.209
,103.000=0.209
,104.000=0.209
,230.000=0.105
,230.500=0.105
,231.000=0.105
;
#BGCHANGES:;
// cache tags:
#FIRSTBEAT:10.000;
#LASTBEAT:412.000;
#SONGFILENAME:Songs/lvsb tourney pack/Tricky Disco/Tricky Disco.sm;
#HASMUSIC:1;
#HASBANNER:1;
#MUSICLENGTH:105.000;
// end cache tags

//---------------dance-single - Blank----------------
#NOTES:
     dance-single:
     Blank:
     Challenge:
     10:
     1.000,1.000,0.790,0.048,0.690,847.000,83.000,5.000,0.000,0.000:












0000
0000
0000
0000
,
0000
0000
0000
0000
,
0000
0000
0000
0000
1000
0010
0100
0001
,
0010
0001
1000
0000
0100
0010
0001
0100
,
0010
1000
0001
0000
0010
0001
1100
0001
,
0000
0000
0011
0000
1000
0100
0110
0001
,
0000
0000
0001
0000
0100
0010
1100
0100
,
0010
0001
1000
0000
0010
1000
0110
1000
,
0000
1000
0001
0000
0011
0000
0010
0001
,
0000
0001
0100
0010
1000
0100
0010
0001
,
1001
1000
0001
0000
1000
1000
1000
1000
,
0100
0000
0010
0000
0001
0000
0001
0010
0001
0000
0100
0000
0010
0000
0100
0000
,
0010
0100
0001
0000
0001
0001
0001
0001
,
0010
0000
0100
0000
1000
0000
1000
0100
1000
0000
0010
0000
0100
0000
0010
0000
,
0100
0000
0010
0000
1000
0000
0001
1000
0001
0000
0010
0000
0010
0000
0100
0000
,
0100
0000
1000
0000
0010
0000
0100
0001
1000
0000
0100
0000
0010
0000
0001
0000
,
0011
0000
0010
0000
1100
0000
0000
0000
1000
0000
0010
0000
0100
0000
0001
0010
,
0001
0000
0010
0000
0100
0000
1000
0001
0100
0000
0010
0000
1000
0000
0100
1000
,
0100
0010
0001
0001
0100
0100
0010
0010
,
1000
0000
0100
1000
0010
0000
0100
0000
0101
0000
0001
0000
1000
0000
0010
0000
,
0100
0000
0100
0001
0010
0000
0001
0000
1100
0000
1000
0000
0010
0000
0100
0000
,
0001
0000
0010
0001
0010
0000
0001
0000
0100
0000
0010
0000
1010
0000
1000
0000
,
0100
0000
0010
0001
1000
0000
1001
0000
0001
0010
0000
0010
0100
0000
1000
0100
,
1000
0001
0000
1000
0010
0000
0100
0001
0100
0010
0000
1000
0100
0000
0010
0000
,
0001
0010
0000
0001
0100
0000
0010
0000
1000
0100
1000
0100
1000
0001
0100
0010
,
0100
0010
1000
0001
0010
0100
0010
0000
1001
0000
0000
0000
0011
0000
0000
0000
,
1010
0000
1100
0000
0010
0010
0001
0001
,
0100
0000
0100
0000
0010
0000
1000
0100
0010
0000
0010
0000
0001
0000
0100
0000
,
0110
0010
1010
0000
4000
0000
0000
0000
,
0000
0000
0000
0000
0000
3000
0010
1000
0001
0000
0004
0000
0000
0000
0000
0000
,
0000
0000
0010
0000
0000
0003
1000
0000
0010
0000
1000
0000
0100
0000
0010
0000
,
0011
0000
0001
0000
0100
0000
0001
0100
0010
0000
1000
0000
0100
0000
0010
0000
,
0011
0010
0100
0000
1000
0100
0010
0001
,
0100
0000
0010
0000
1001
0000
0000
0000
0001
0000
0100
0000
0010
0000
1000
0010
,
0100
0001
0011
0001
1001
0001
0101
0001
,
1001
0000
0001
0000
1000
0000
0010
0100
0001
0000
4000
0000
0010
0000
0000
0000
,
0001
0000
0000
0000
0100
3000
0000
0000
1000
0000
0001
0000
0100
0000
0010
0000
,
1000
0000
1000
0000
0010
0000
0100
0001
0010
0000
0100
0000
1000
0000
0010
0000
,
0100
0010
0101
0100
0010
1000
0101
0010
,
0001
0000
0100
0000
0010
0000
1000
0100
0010
0000
0001
0000
0100
0000
0010
0000
,
1000
0100
0011
0000
0001
0100
0010
1000
,
1100
0000
0100
0000
1001
0000
0000
0000
1000
0000
0010
0100
0001
0000
0001
0010
,
0001
1000
0100
1000
0001
0000
0000
0000
1000
0000
0100
0000
0110
0000
0001
0000
,
0100
0000
0010
0000
1010
0000
1000
0100
0010
0000
0001
0000
0100
0000
0010
0000
,
1000
0100
0011
0000
0001
0001
0100
0010
,
1010
0000
1000
0000
0100
0000
0010
0001
0010
0000
0001
0000
0100
0000
0010
0000
,
1010
1000
0100
0010
0110
0010
0001
0100
,
0010
0000
0010
0000
1000
0000
0100
1000
0010
0000
0100
0000
0001
0000
0010
0000
,
0100
1000
0001
0000
0010
0100
1000
0010
,
0100
0000
0001
0000
0010
0000
0100
1000
0001
0000
0100
0000
0001
0000
0010
0000
,
0110
0100
1100
0010
1001
0000
0000
0000
,
1000
0000
0001
0000
0100
0000
0010
1000
,
0001
0010
0001
0000
1000
0001
0100
0000
,
0010
1000
0001
0010
0001
1000
0000
0100
,
0000
1000
0001
0100
0010
1000
0010
0100
,
0000
0010
0000
1000
0100
0000
0000
0010
,
0000
0001
0000
1000
0001
0000
1000
0100
,
0000
1000
1000
0010
0010
0100
0001
1000
,
0001
0100
0010
1000
0001
0010
0100
0000
1000
0000
0001
0000
0100
0000
0010
0000
,
1000
0100
0010
0001
1000
0001
0100
0010
,
1000
0010
0000
0000
0100
0001
1000
0100
,
0010
0100
1000
0001
0100
0010
1000
0100
,
0010
0001
0001
1000
1000
0001
0010
0000
,
0100
0010
0100
1000
0001
0100
0010
1000
,
0001
0010
0000
0000
0100
1000
0001
0100
,
0010
1000
0100
0010
0001
1000
0001
0100
,
0010
1000
1010
0000
1000
0001
0010
0100
,
2000
0000
0001
3000
1000
0001
0100
0010
,
2000
0000
0000
0000
0010
3000
0000
0000
1000
0000
0100
0000
0010
0000
0100
0000
,
2000
0001
3000
0100
0001
0000
1000
0000
,
0010
0000
0010
0000
0000
0000
0000
0000
0100
0001
0000
0100
0001
0000
0010
0001
,
0010
0001
0000
0001
1000
0000
0010
0100
0001
1000
0000
0100
0010
0000
0001
0010
,
0100
1000
0000
1000
0010
0000
0100
0001
0100
0001
1000
0010
1000
0001
0100
0001
,
1000
0001
0010
0001
1000
0100
1000
0001
0010
0001
1000
0001
0010
0100
1000
0001
,
1000
0000
0001
0000
2002
0000
0000
3003
,
1000
0000
0100
0000
1000
0000
0001
0000
0100
0000
0010
0000
1000
0000
0100
1000
0100
0000
0010
0000
0001
0000
0100
0000
0010
0000
1000
0000
0100
0000
0000
0000
,
0010
0000
0001
0000
1000
0000
0010
0000
0100
0000
0001
0000
0010
0000
0100
1000
0010
0000
0100
0000
0001
0000
0010
0000
0001
0000
1000
0000
0001
0000
0100
0000
,
0010
0000
1000
0000
0100
0000
0010
0000
0001
0000
0100
0000
0010
0000
1000
0100
1000
0000
0100
0000
0010
0000
0001
0000
0100
0000
0001
0000
1000
0000
0000
0000
,
0100
0000
0010
0000
0001
0000
1000
0000
0010
0000
1000
0000
0100
0000
0010
0001
1000
0000
0010
0000
1000
0000
0100
0000
0010
0000
0001
0000
1000
0000
0001
0000
,
0011
0000
0100
0000
1000
0000
0001
0000
0100
0000
0010
0000
0110
0000
1000
0001
,
1000
0100
0110
0010
0001
0100
0110
0000
,
1010
0000
1000
0000
0100
0000
0010
0000
0011
0000
0001
0000
0100
0000
0010
1000
,
0001
0001
0010
0100
1100
1000
1000
0010
,
0100
0000
0100
0000
0101
0000
0010
0001
0010
0000
1100
0000
1100
0000
0001
0100
,
0010
0000
0110
0000
0011
0000
0010
0001
0100
0000
0100
0000
0110
0000
0000
0000
,
1000
0001
1000
0001
1000
0001
1000
0001
0010
0001
0010
0001
1000
0100
1000
0100
,
0010
0001
0010
0001
1000
0001
0100
0001
1000
0100
0010
0001
0010
0000
0000
0000
,
0011
0000
0001
0000
0101
0000
0100
0000
0110
0000
0010
0000
1010
0000
1000
0100
,
0010
0001
0101
0100
0110
0010
1001
0000
,
0011
0000
0010
0000
1100
0000
1000
0000
0101
0000
0001
0000
0011
0000
0100
1000
,
0001
0100
0110
0010
1000
0100
0011
0001
,
0100
0000
0010
0000
1010
0000
1000
0000
0110
0000
0001
0000
0100
0000
0010
1000
,
0100
0010
0011
0001
0100
0010
1100
0000
,
0010
0001
0100
0010
1100
0100
1000
0000
,
1000
0000
0001
0000
0100
0000
0001
0100
0010
0000
1000
0000
0100
0000
0010
0000
,
0010
0000
0001
0000
0101
0000
0100
0000
0010
0000
0010
0000
1100
0000
0010
0001
,
0100
0010
1010
1000
0110
0001
0100
0000
,
0010
0000
1000
0000
1100
0000
1000
0000
0010
0000
0100
0000
0001
0000
0010
0001
,
0100
0010
1000
0100
0011
0001
0100
0010
,
0110
0000
0100
0000
0001
0000
1000
0000
0100
0000
0010
0000
0110
0000
0001
1000
,
0100
1000
0010
0100
1001
0100
0110
0000
,
0010
0001
0000
0001
0100
0000
0010
0000
1000
0100
0000
0100
0010
0000
0001
0000
,
0010
0100
1000
0001
0100
0010
1000
0100
0010
0001
0100
0010
1000
0100
0010
0001
,
1000
0000
0000
0000
;

//---------------dance-double - Blank----------------
#NOTES:
     dance-double:
     Blank:
     Challenge:
     10:
     1.000,1.000,0.448,0.019,0.681,851.000,47.000,2.000,151.000,0.000:











00000000
00000000
00000000
00000000
,
00000000
00000000
00000000
00000000
,
00000000
00000000
00000000
00000000
10000000
00000000
00100000
00100000
,
00000000
00100000
00100000
00000000
01000000
00000000
00010000
00100000
,
00000000
00100000
00001000
00000000
00000010
00000000
00001000
01000000
,
00000000
01000000
00001000
00000000
00000100
00000000
00000001
00000010
,
00000000
00000100
00001000
00000000
00000100
00010000
00001000
00100000
,
00010000
00000000
00000000
00000000
10000000
01000000
00010000
01000000
,
00100000
00000000
00001000
00000000
00011000
00000000
00010000
00001000
,
00000000
00000100
00000001
00001000
00000100
00010000
00001000
00010000
,
00100000
00100000
00000000
00000000
00100000
00100000
00100000
00100000
,
10000000
00000000
01000000
00000000
00010000
00000000
00000100
00001000
00000100
00000000
00000010
00000000
00000001
00000000
00000010
00000000
,
00000001
00000010
00000100
MMMM0000
00000100
00000100
00000100
00000100
,
00000100
00000000
00001000
00000000
00000010
00000000
00010000
00001000
00010000
00000000
01000000
00000000
10000000
00000000
01000000
00000000
,
10000000
00000000
01000000
00000000
00010000
00000000
00001000
00010000
00001000
00000000
00000100
00000000
00000100
00000000
00000010
00000000
,
00001000
00000000
00010000
00000000
01000000
00000000
00100000
10000000
00010000
00000000
00100000
00000000
00001000
00000000
00000010
00000000
,
00000010
00000000
00000001
00000000
00000001
00000000
00MMMM00
00000000
00000100
00000000
00001000
00000000
00010000
00000000
00100000
10000000
,
00100000
00000000
01000000
00000000
00010000
00000000
01000000
00001000
01000000
00000000
00000010
00000000
00001000
00000000
00000100
00001000
,
00000100
00000010
00000001
00000100
00000101
00000100
00000010
00000010
,
00001000
00000000
00000100
00001000
00000010
00000000
00010000
00000000
00000101
00000000
00000001
00000000
00010000
00000000
00000010
00000000
,
00000100
00000000
00000100
00000001
00000010
00000000
00000001
00000000
00000110
00000000
00010000
00000000
00001000
00000000
00100000
00000000
,
00010000
00000000
00100000
00010000
00100000
00000000
00010000
00000000
01000000
00000000
00100000
00000000
01000000
00000000
00010000
00000000
,
00100000
00000000
00001000
00100000
00010000
00000000
01000000
00000000
00010000
10000000
00000000
00010000
01000000
00000000
00010000
00000000
,
10000000
01000000
00000000
00100000
00001000
00000000
01000000
00000000
00001000
00010000
00000000
00010000
00000100
00000000
00000010
00000000
,
00000001
00000100
00000000
00000010
00000100
00000000
00000010
00000000
00010000
00001000
00010000
00001000
00010000
00000010
00001000
00000100
,
00010000
00001000
00100000
00000100
00001000
00000001
00001000
00000001
00000100
00000000
00000000
00000000
00001100
00000000
00000000
00000000
,
00011000
00000000
00011000
00000000
00001000
00001000
00000100
00000100
,
00000001
00000000
00000001
00000000
00001000
00000000
00000100
00010000
00001000
00000000
00100000
00000000
00000100
00000000
00010000
00000000
,
00011000
00001000
01000000
0M000000
00100000
10000000
00100000
01000000
,
00010000
00000000
00100000
00000000
00010000
00000000
00010000
01000000
00001000
00000000
00010000
00000000
00000100
00000000
00000010
00000000
,
00000001
00000100
00011000
00001000
10000000
01000000
10000000
00100000
,
01000000
00000000
00001000
00000000
00100000
00000000
00001000
00100000
00010000
00000000
01000000
00000000
00100000
00000000
10000000
00000000
,
01000000
00100000
00010000
00MMM000
00010000
00000100
00010000
00001000
,
00000010
00000000
00000001
00000000
00001000
00000000
MMMMMMMM
00000000
00001000
00000000
00000100
00000000
00010000
00000000
00001000
00100000
,
00010000
01000000
00100000
01000000
00010000
10000000
01000000
00100000
,
00010000
00000000
00100000
00000000
01000000
00000000
10000000
00100000
01000000
00000000
00001000
00000000
00010000
00000000
01000000
00000000
,
00010000
01000000
10000000
MMMMMMMM
10000000
00010000
01000000
00100000
,
01000000
00000000
01000000
00000000
00010000
00000000
00100000
00001000
00010000
00000000
00001000
00000000
00010000
00000000
00000100
00000000
,
00000010
00000100
00001001
00000001
00000100
00000010
00001000
00000100
,
00010000
00000000
00001000
00000000
01000000
00000000
01000000
00100000
10000000
00000000
01000000
00000000
00100000
00000000
00010000
00000000
,
00100000
00001000
00011000
0MMMMM00
00001000
00100000
00010000
01000000
,
00110000
00000000
00010000
00000000
00100000
00000000
00000000
00000000
00100000
00000000
00001000
00010000
00000100
00000000
00000100
00001000
,
00000100
00010000
00001000
00100000
00010000
00000000
00000000
00000000
10000000
00000000
01000000
00000000
01100000
00000000
00100000
00000000
,
00010000
00000000
01000000
00000000
00001000
00000000
00010000
00001000
00010000
00000000
00000100
00000000
00000010
00000000
00000001
00000000
,
00000100
00000010
00001100
00000000
00000100
00000100
00010000
00001000
,
01000000
00000000
00010000
00000000
00100000
00000000
01000000
10000000
00100000
00000000
01000000
00000000
01000000
00000000
00001000
00000000
,
00010000
00000100
00001000
00000100
00000010
00000001
00000100
00000010
,
00001000
00000000
00000100
00000000
00010000
00000000
00001000
00010000
00000100
00000000
00001000
00000000
00000010
00000000
00001000
00000000
,
00000100
00010000
01000000
MMM00000
10000000
00010000
01000000
00010000
,
00100000
00000000
00010000
00000000
01000000
00000000
00001000
00010000
00000100
00000000
00000100
00000000
00000010
00000000
00000001
00000000
,
00001001
00001000
00001100
00000100
00001001
00000000
00000000
00000000
,
00001000
00000000
00000001
00000000
00000100
00000000
00000010
00001000
,
00000001
00000010
00000001
00000000
00001000
00000001
00000100
00000000
,
00000100
00000010
00001000
00000100
00010000
00000000
00001000
00000000
,
01000000
00000000
00100000
01000000
00010000
01000000
00100000
10000000
,
00000000
01000000
00000000
00100000
00001000
00000000
00000000
00000100
,
00000000
00000010
00000000
00010000
00000010
00000000
00010000
00001000
,
00000000
00100000
00100000
00001000
00001000
00010000
00010000
00001000
,
00010000
00001000
00100000
00010000
01000000
00010000
00100000
00010000
10000000
00000000
00000100
00000000
00010000
00000000
00001000
00000000
,
00100000
00010000
00100000
00000100
00100000
00000100
01000000
00000100
,
00100000
00000010
00000000
00000000
00010000
00000001
00010000
00000001
,
00010000
00000010
00100000
00001000
10000000
00000100
01000000
00000100
,
00010000
00000001
00000010
00000010
00000100
00010000
00001000
00000000
,
00000010
00100000
00001000
10000000
00001000
01000000
00000100
00010000
,
00000001
00010000
00000000
00000000
00000100
01000000
00001000
00100000
,
00100000
00010000
01000000
00100000
10000000
01000000
00100000
00001000
,
00010000
00001000
00011000
00000000
00000001
00000100
00000010
00001000
,
MM0M0101
00000000
MM101000
00000000
000010M0
MMM10000
01000000
001M0000
,
00011M00
00MM0000
0M000110
MMM00000
00001000
01000000
001MM0M0
01000MM0
,
11MM0000
MM0011MM
MMMMMM01
MM00100M
,
M001000M
00000000
00010000
00000000
M0000000
00000000
M000000M
00000000
00100000
00001000
MM0000MM
00100000
00001000
00000000
00M100M0
00001000
,
00010000
00001000
MMM000MM
00001000
01000000
00000000
MM01000M
00100000
00001000
01000000
000M0000
00100000
1M000000
00000000
M001M0MM
00100000
,
00010000
00100000
M0000000
00001000
0M010000
00000000
00010000
00000100
00M01000
00000100
MMM010MM
00000100
000MM010
00000001
000M0100
00000010
,
0M000100
00000010
MMMM1000
00000010
MM010000
00001000
MMM100MM
00000100
MM010000
00001000
00100000
00001000
MMM100MM
00000100
00010000
00000000
,
MMM11MMM
00000000
00011000
00000000
MM2MM2MM
00000000
00000000
00300300
,
00100000
00000000
00010000
00000000
00100000
00000000
00000100
00000000
00000010
00000000
00000001
00000000
00000100
00000000
00001000
00010000
00100000
00000000
10000000
00000000
01000000
00000000
10000000
00000000
00010000
00000000
01000000
00000000
00001000
00000000
00MMM000
00000000
,
00011000
00000000
00000010
00000000
00001000
00000000
00000100
00000000
00000010
00000000
00000001
00000000
00000100
00000000
00000100
00000001
00000010
00000000
00000100
00000000
00001000
00000000
00000100
00000000
00010000
00000000
00001000
00000000
00100000
00000000
00001000
00000000
,
01000000
00000000
00001000
00000000
00100000
00000000
00001000
00000000
00010000
00000000
00000010
00000000
00001000
00000000
00000100
00001000
00000100
00000000
00000010
00000000
00000001
00000000
00000001
00000000
00000100
00000000
00000010
00000000
00010000
00000000
000M0000
00000000
,
00001000
00000000
00100000
00000000
00010000
00000000
00100000
00000000
01000000
00000000
10000000
00000000
10000000
00000000
01000000
00100000
00010000
00000000
00100000
00000000
00010000
00000000
01000000
00000000
00001000
00000000
00001000
00000000
00010000
00000000
00000010
00000000
,
00000110
00000000
00000000
00000000
00010000
00000000
00000010
00000000
00001000
00000000
00000000
00000000
00001100
00000000
00001000
00000010
,
00010000
00001000
00100000
00010000
10000000
01000000
00100000
00000000
,
00001000
00000000
00000010
00000000
00000001
00000000
00000010
00000000
00000011
00000000
00000001
00000000
00000100
00000000
00000010
00001000
,
00000001
00000001
00000010
00000100
00100000
00001000
00001000
00000010
,
00000100
00000000
00001000
00000000
00000101
00000000
00000010
00000001
00000010
00000000
00000001
00000000
00000001
00000000
00000100
00000010
,
00001000
00000000
00000010
00000000
00000010
00000000
00010000
00001000
00010000
00000000
00001000
00000000
00001000
00000000
00100000
00000000
,
01000000
00100000
01000000
10000000
01000000
10000000
01000000
00100000
00010000
00100000
00001000
00010000
00000100
00001000
00000100
00000010
,
00000001
00000010
00000100
00001000
00000010
00010000
00001000
00010000
00001000
01000000
00100000
01000000
00001000
00000000
00000000
00000000
,
00000110
00000000
00000010
00000000
00001010
00000000
00001000
00000000
00001100
00000000
00000100
00000000
00010100
00000000
00010000
00001000
,
00010000
00001000
00101000
00100000
01000000
10000000
10100000
M0M00000
,
00011000
00000000
00001000
00000000
00110000
00000000
00100000
00000000
00010100
00000000
00000100
00000000
00000010
00000000
00000001
00000010
,
00000001
00001000
00001100
00000100
00010000
00001000
00100000
00100000
,
01000000
00000000
10000000
00000000
10000000
00000000
00100000
00000000
01000000
00000000
00001000
00000000
00010000
00000000
00001000
00100000
,
00010000
01000000
01000000
00001000
00010000
00001000
00000010
00000MMM
,
00010000
00001000
00100000
00010000
01100000
00100000
01000000
0M000000
,
01000000
00000000
10000000
00000000
00100000
00000000
01000000
00010000
00100000
00000000
00001000
00000000
00010000
00000000
00000100
00000000
,
00000010
00000000
00000001
00000000
00000100
00000000
00000010
00000000
00010000
00000000
00010000
00000000
00001000
00000000
01000000
00001000
,
00100000
00010000
01010000
00010000
00110000
00100000
01000000
0M000000
,
10000000
00000000
01000000
00000000
00100000
00000000
00010000
00000000
00100000
00000000
00001000
00000000
00010000
00000000
00000100
00000010
,
00000001
00000010
00000001
00000100
00000110
00000010
00001000
00001000
,
00000100
00000000
00000100
00000000
00010000
00000000
00001000
00000000
01000000
00000000
00100000
00000000
01100000
00000000
00010000
10000000
,
01000000
10000000
00100000
01000000
00001000
00100000
00010000
00000000
,
01000000
00001000
00000000
00001000
00100000
00000000
00010000
00000000
01000000
00100000
00000000
00100000
10000000
00000000
01000000
00000000
,
00100000
00010000
00100000
00001000
00010000
00000010
00001000
00000001
00000010
00000100
00001000
00000100
00010000
00001000
00100000
00010000
,
01000000
00000000
00000000
00000000
;

//---------------dance-single - Rynker----------------
#NOTES:
     dance-single:
     Rynker:
     Hard:
     8:
     0.922,1.000,0.152,0.048,0.176,657.000,16.000,5.000,1.000,0.000:






0000
0000
0000
0000
,
0000
0000
0000
0000
,
0000
0000
0000
0000
1000
0001
1000
0001
,
1000
0001
1000
0000
0010
0100
0010
0100
,
0010
0100
0010
0000
1000
0001
1000
0001
,
0010
0001
1000
0000
0100
0010
0100
1000
,
0000
0000
0001
0000
0100
0001
1000
0000
,
0001
0000
0010
0000
0100
1000
0001
0100
,
0001
1000
0010
0000
0100
0000
0010
1000
,
0000
0000
0001
0000
0010
0001
0100
0001
,
1000
0010
0100
0000
0001
0000
0001
0000
,
0010
0000
0000
0000
0100
0000
1000
0100
1000
0000
0000
0000
0100
0000
0000
0000
,
0010
0000
0100
0000
1000
0001
0100
0001
,
1000
0000
0000
0000
0010
0000
0100
0010
0100
0000
0000
0000
0001
0000
0000
0000
,
1000
0100
0010
0100
1000
0000
0100
0000
,
0010
0000
0001
0000
1000
0000
0001
0100
0001
0000
1000
0000
0010
0000
0000
0000
,
0100
0000
0010
0000
1000
0000
0000
0000
0100
0000
0010
0000
0100
0000
1000
0001
,
1000
0100
0010
0001
0100
0010
1000
0100
,
0010
0100
0001
0100
0020
0030
0020
0000
,
0032
0000
0000
0003
1000
0000
0000
0000
0001
0000
0100
0000
1000
0000
0100
0000
,
0010
0000
1000
0000
0100
0001
0100
1000
,
0001
0100
0010
0000
1000
0010
0100
0001
,
0010
0001
0100
0000
0001
1000
0100
0010
,
0100
0000
1000
0000
0001
0100
0001
1000
,
0010
0100
0010
1000
0100
0010
0100
1000
,
0001
0100
0010
1000
0001
0000
0010
0000
,
0100
0000
1000
0000
0001
0100
0001
1000
,
0010
0000
0100
0000
0010
0000
1000
0100
1000
0000
0010
0000
0100
0000
0000
0000
,
0010
0100
0001
0000
0001
0100
0001
1000
,
0001
0000
0000
0000
0010
0000
0100
0010
0100
0000
0000
0000
1000
0000
0000
0000
,
0100
1000
0001
0100
0001
1000
0010
0100
,
0010
0000
1000
0000
0100
0000
0010
0100
1000
0000
0000
0000
0100
0000
0000
0000
,
1000
0001
0100
0000
1000
0100
0010
1000
,
0100
0010
0100
0000
1000
0100
1000
0010
,
0100
0001
0010
0000
0001
1000
0001
0100
,
0010
0000
0100
0000
1000
0000
0100
0010
0100
0000
0001
0000
1000
0000
0100
0000
,
0001
0100
1000
0000
0001
0010
0100
0000
,
1000
0000
0001
0000
0100
0000
0001
0100
0001
0000
1000
0000
0010
0000
0100
0000
,
1000
0100
0010
0000
1000
0100
0010
0100
,
1000
0000
1100
0000
1000
0100
0010
0000
,
0001
1000
0001
0100
0001
1000
0010
0100
,
1000
0100
0010
0100
0010
0001
0010
1000
,
0100
0010
0110
0000
0010
0100
1000
0001
,
0100
0000
0001
0000
1000
0000
0010
0100
0010
0000
1000
0000
0100
0000
0010
0000
,
0100
1000
0001
0000
0010
0000
0001
0000
,
0100
0000
0001
0000
1000
0000
0010
0100
0010
0000
0100
0000
0010
0000
1000
0000
,
0100
0010
0100
1000
0001
0000
0100
0001
,
0010
0000
0001
0100
0010
1000
0100
0010
,
0100
1000
1100
0000
1000
0100
0010
0100
,
1000
0000
0001
0000
0100
0000
0010
0100
0010
0000
0100
0000
1000
0000
0100
0000
,
0010
0100
0001
0010
0001
0000
0000
0000
,
0010
0100
1000
0100
,
0000
1000
0001
0100
,
0001
1000
0010
0000
0100
0000
0001
0000
,
1000
0000
0100
0000
0010
0000
0000
0001
,
0000
0100
0000
0010
1000
0000
0000
0001
,
0000
0010
0000
0000
0001
0000
0000
0100
,
0000
0001
1000
0001
0100
0001
1000
0001
,
1000
0001
1000
0000
0001
0100
0001
1000
,
0010
0100
0010
0000
1000
0001
0010
0001
,
0010
0000
0000
0000
0001
0100
0001
0000
,
1000
0010
1000
0000
0010
0100
0010
1000
,
0100
0010
0100
0001
0100
0000
1000
0000
,
0001
0100
0001
0000
1000
0010
0100
0010
,
0001
0000
0010
0000
0100
0010
1000
0100
,
0010
0000
0100
0000
1000
0001
0100
0001
,
1000
0000
0001
0000
0010
0001
0100
0001
,
0101
0000
0100
0000
0010
1000
0010
0100
,
0110
0000
0100
0000
0001
0010
0001
1000
,
1100
1100
0110
0010
,
0100
0010
0000
0000
0010
0000
0001
0000
,
1000
0001
0000
0100
0001
0000
0100
0000
0001
1000
0000
0010
1000
0000
0010
0000
,
0100
0000
0000
0000
0010
0000
0000
0000
0100
0001
0000
0001
0010
0000
0001
0000
,
0010
0001
0100
0000
0100
0001
1000
0001
,
0100
0000
0000
0000
0010
0000
0000
0000
2020
0000
0000
0000
0000
0000
0000
3030
,
0001
0000
1000
0001
0000
0001
0100
0000
0010
0000
1000
0100
0000
0010
0001
0001
,
0100
0000
0010
1000
0000
0010
0100
0000
0001
0000
0010
0100
0000
0M00
0010
0000
,
1001
0000
0001
0100
0000
0100
0110
0000
0010
0000
1000
0001
0000
0001
0011
0010
,
1100
0000
0100
0010
0000
0000
0001
0000
1100
0000
0001
0100
0000
0100
0010
0000
,
1000
0100
1000
0001
,
0100
0000
0001
0000
0010
0001
0100
0001
,
1000
0010
0100
0010
,
1000
0100
0001
0100
,
1000
0001
0100
0000
0001
1000
0010
0000
,
0100
0010
1000
0000
0100
0010
0100
0000
,
1000
0001
0100
0001
1000
0001
0100
0010
,
1000
0010
0100
1000
0100
0010
0100
0000
,
0001
0000
0010
0000
0001
0000
0100
0000
0001
0000
1000
0000
0001
0000
1000
0100
,
1000
0001
0010
0001
0100
0010
0100
0000
,
0001
0010
1000
0010
0001
1000
0001
0000
,
0010
0000
0001
0000
0100
0001
1000
0001
,
0100
0000
0000
0000
0001
0000
0000
0000
0100
0000
0000
0000
0001
0000
0100
0001
,
0100
0010
1000
0100
0010
1000
0010
0000
,
0100
1000
0001
0100
0001
0100
0010
0000
,
0100
1000
0100
0010
0100
0010
0100
0000
,
0001
0010
0001
0010
0100
0010
0100
1000
,
0001
0100
0001
1000
0010
0100
1000
0100
,
0010
1000
0100
0010
1000
0010
0100
1000
,
0001
0100
0001
0010
0001
0100
0010
0000
,
1000
0100
0010
0000
0100
1000
0001
0000
,
0100
0001
1000
0000
0010
0100
0001
0000
,
0010
0001
0100
0001
,
1000
0010
0100
0110
,
1001
0000
0000
0000
;

//---------------dance-single - Blank----------------
#NOTES:
     dance-single:
     Blank:
     Medium:
     6:
     0.713,1.000,0.181,0.295,0.081,474.000,19.000,31.000,0.000,0.000:



0000
0000
0000
0000
,
0000
0000
0000
0000
,
0000
0000
0100
0001
,
1000
0000
0100
0000
0010
0100
1000
0000
,
0001
0000
0100
0000
0001
0010
0001
0010
,
0000
0000
0001
0000
1000
0000
0001
0100
,
0000
0000
0010
0000
1000
0100
0010
0100
,
1000
0100
0010
0001
,
0100
0101
0100
0010
,
1000
0010
1000
0000
0100
0000
0010
0000
,
0100
0000
1000
0000
,
0001
0000
0100
0010
,
1000
0100
0010
0000
,
0001
0000
0000
0000
0100
0001
1000
0000
,
0010
0000
0100
0000
0010
1000
0100
0000
,
0010
0000
0010
0100
0010
0000
0100
0000
,
1000
0001
0100
0000
0001
0000
1000
0000
,
0001
0100
0010
1000
,
0100
0010
0011
0010
,
0001
0100
0110
0100
,
0010
1000
0011
0010
,
0001
0100
1001
1000
,
0100
0010
0110
1000
,
0001
0000
0100
0000
,
0010
0000
1000
0100
,
0010
0001
1000
0001
,
1000
0001
0100
0001
,
1000
0010
0100
0101
,
0100
0001
1000
0100
,
0010
0110
0010
0001
,
1000
0001
0100
0000
0001
0000
1000
0000
,
0010
0100
1000
0000
0100
0000
0001
0000
,
1000
0100
0010
0000
0100
0000
1000
0000
,
0001
0010
0100
1000
,
0001
0100
0001
1000
0010
0000
0100
0000
,
0001
1000
0100
0010
0100
0000
1000
0000
,
0001
0000
0100
0000
0001
0010
0001
0100
,
0001
0000
1000
0000
0001
0100
0010
1000
,
0100
0000
1000
0000
0100
0010
0100
1000
,
0100
0000
0010
0000
0001
1000
0001
0200
,
0020
0000
0000
0000
0000
0300
0000
0000
0130
0000
0010
0000
1000
0000
0100
0000
,
0020
0000
0000
0030
0100
0000
0000
0000
2000
0000
0000
0000
3200
0000
0000
0000
,
0320
0000
0000
0000
0002
0030
0000
0003
1000
0000
0001
0000
0100
0000
0001
0000
,
1000
0010
0100
0010
,
1000
0000
0000
0000
0200
0000
0000
0300
0010
0000
0100
0000
0010
0000
0100
0000
,
0010
0000
0000
0000
0002
0000
0000
0003
2000
0000
0000
0000
3002
0000
0000
0000
,
0203
0000
0000
0000
0320
0000
0000
0030
1000
0000
0001
0000
0010
0000
0001
0000
,
0010
0000
0000
0000
0002
0000
0000
0000
0200
0003
0000
0000
0020
0300
0000
0000
,
2030
0000
0000
0000
0200
3000
0000
0000
1300
0000
0100
0000
1000
0000
0100
0000
,
2000
0000
0000
0000
0002
3000
0000
0000
0200
0003
0000
0000
0020
0300
0000
0000
,
2000
0030
0000
0000
0001
3000
0000
0000
0011
0000
0000
0000
0000
0000
0000
0000
,
0001
0000
0100
0000
,
0010
0000
1000
0001
,
0100
0000
0000
0000
0010
1000
0100
0000
,
1000
0000
0001
0010
,
0001
0100
0010
0000
,
1000
0000
0000
0000
0100
0000
0000
0010
,
0000
0001
0100
0001
,
0100
0001
1000
0001
,
0100
0010
1000
0100
,
0010
0000
0110
0000
0010
0001
1000
0000
,
0001
0100
0010
0000
1000
0010
0100
0010
,
0100
0010
1000
0001
,
0010
0001
0010
0001
0010
0000
0001
0000
,
0001
0100
0010
1000
,
0100
0010
0100
1000
0100
0000
1000
0000
,
0001
0100
0101
0100
,
0110
0000
0100
0000
0010
1000
0010
0100
,
0001
0000
0010
0000
0001
0010
0001
0010
,
0001
0100
0010
1000
,
0100
0010
0000
0000
0001
0000
0100
0000
,
0001
1000
0010
0100
,
0010
1000
0100
0010
0100
0000
0010
0000
,
0100
1000
0001
0100
,
0110
0000
0000
0000
1001
0000
0000
0000
2002
0000
0000
0000
0000
0000
0000
3003
,
0100
0000
0001
1000
0000
0001
1000
0000
0002
0000
0103
0001
0000
0001
1000
0001
,
0002
0000
0103
0010
0000
1000
0100
0000
1000
0000
0100
1000
0000
0000
1000
0000
,
0100
0000
0010
0002
0000
0013
0002
0000
1003
0000
0001
1000
0000
0001
1000
0001
,
1000
0000
0001
0100
0000
0001
0100
0000
0020
0000
1030
0010
0000
0000
1000
0000
,
0001
0100
0001
1000
,
0100
0000
0010
0000
0001
1000
0001
0100
,
0001
1000
0000
0000
,
0001
0000
0100
0000
,
0010
1000
0010
0000
0100
0001
0100
0000
,
0001
0010
0001
0000
1000
0100
1000
0000
,
0100
1000
0001
0100
0001
1000
0010
0100
,
0010
1000
0100
0010
0100
1000
0001
0000
,
1000
0001
0100
0000
0001
1000
0001
0000
,
0010
0001
0100
0001
,
1000
0010
0100
0000
0010
1000
0001
0000
,
0010
0001
0100
0000
0001
1000
0001
0100
,
0020
0000
0000
0030
0100
0000
0000
0000
0010
0000
0000
0000
1000
0000
0000
0000
,
0100
0000
0010
0000
0100
1000
0001
0100
,
0001
1000
0001
0010
,
0011
0000
0101
0000
,
0100
0000
0000
0000
0010
0000
0000
0000
1000
0000
0000
0000
0100
0000
0010
0100
,
1000
0100
1000
0001
,
0100
0001
0010
0001
,
1000
0010
0100
0000
,
0001
1000
0100
0010
,
0110
0010
0001
1000
,
0001
0100
0010
1000
,
0010
0100
0001
0010
,
1001
0000
0000
0000
;

//---------------dance-single - Blank----------------
#NOTES:
     dance-single:
     Blank:
     Easy:
     4:
     0.449,0.638,0.114,0.019,0.038,316.000,12.000,2.000,0.000,0.000:



0000
0000
0000
0000
,
0000
0000
0000
0000
,
0000
0000
1000
0000
,
0001
0000
0100
0010
,
1000
0000
0010
0100
,
0001
1000
0100
0010
,
0001
0000
0100
1000
,
0001
0100
0010
1000
,
0001
0000
0100
0000
,
1000
0000
0001
0000
,
0100
0000
1000
1000
,
1000
0001
0100
0001
,
1000
0000
0010
0010
,
1000
0001
0010
0001
,
0100
0000
0001
1000
,
0100
0100
0010
0100
,
1000
0000
0001
0100
,
0001
0001
1000
0010
,
0100
0010
1000
0001
,
0010
0011
0000
0101
,
1010
0000
1000
1100
,
0011
0000
1000
0100
,
0001
1000
0010
0000
,
0100
0000
0001
0000
,
1000
0000
0100
0000
,
0001
1000
0001
1000
,
0001
1000
0001
0100
,
0001
1000
0010
0000
,
0100
0000
0101
0000
,
0011
0000
1000
0001
,
0100
0000
0001
0010
,
1000
0000
0001
0001
,
0100
0001
1000
0100
,
0010
0000
0001
0001
,
0100
0100
0001
1000
,
0100
0000
1000
0001
,
0100
0000
0010
0000
,
0001
0100
0001
0000
,
0100
0010
1000
0000
,
0001
0010
0001
0000
,
0100
0000
1000
0000
,
0001
0100
0010
1000
,
0010
0000
0100
0000
,
0001
0000
1000
1000
,
1000
0000
0010
0000
,
0100
0000
0001
0001
,
0001
0000
1100
0000
,
0011
0000
0001
0100
,
0000
0001
0100
0000
,
0010
0000
1000
0100
,
0010
0100
0100
0000
,
1000
0000
0001
0000
,
0100
0000
0001
0000
,
1000
0000
0100
0000
,
0010
0000
0001
0000
,
0100
0001
1000
0000
,
0010
0100
0001
0000
,
1000
0100
0010
0000
,
0000
0001
0100
0001
,
1000
0010
0000
0010
,
1000
0000
0001
0010
,
0000
0100
0001
1000
,
0010
0000
0100
0001
,
0000
1000
1000
1000
,
0001
0000
0100
0001
,
1000
0001
0100
0010
,
1000
1010
1000
0001
,
0100
0001
1000
0000
,
0010
0001
1000
0001
,
0100
0000
0100
0010
,
1000
0000
0001
0010
,
0001
0100
0001
1000
,
1000
0000
0010
0100
,
0010
1000
0001
0000
,
0001
0000
0000
0000
1000
0000
0000
0000
2002
0000
0000
0000
0000
0000
0000
3003
,
0001
0000
0000
0100
0000
0000
0010
0000
1000
0000
0000
0001
0000
0000
0010
0000
,
0001
0000
0000
0100
0000
0000
0010
0000
1000
0000
0000
0010
0000
0000
0100
0000
,
0001
0000
0000
0010
0000
0000
0001
0000
0100
0000
0000
0010
0000
0000
1000
0000
,
0010
0000
0000
1000
0000
0000
0010
0000
0100
0000
0000
0001
0000
0000
0010
0000
,
0001
1000
0001
0000
,
0000
0001
1000
0010
,
0100
0001
1000
0100
,
0010
0000
0001
0000
,
0100
0001
1000
1000
,
0010
0100
0000
0100
,
0100
0001
1000
0100
,
0000
0001
1000
0001
,
1000
1000
1000
0001
,
0100
0001
0100
0001
,
0100
0001
0000
0010
,
0100
0010
0000
1000
,
0001
0000
0010
0000
,
0001
0100
0000
0001
,
1000
0000
0010
0100
,
0001
1000
0100
0000
,
0010
0010
0010
0000
,
0001
0000
0100
0000
,
0010
1000
0010
0000
,
0100
0000
0001
0000
,
0010
0000
0001
0000
,
0100
0010
1000
0000
,
0010
0010
1000
0000
,
0100
0010
0001
1000
,
1001
0000
0000
0000
;

//---------------dance-single - Blank----------------
#NOTES:
     dance-single:
     Blank:
     Beginner:
     1:
     0.193,0.245,0.057,0.000,0.000,136.000,6.000,0.000,0.000,0.000:



0000
0000
0000
0000
,
0000
0000
0000
0000
,
0000
0000
0100
0000
,
0010
0000
0000
0000
,
0100
0000
0000
0000
,
0100
0000
0000
0000
,
0001
0000
0000
0000
,
0001
0000
0000
0000
,
0001
0000
0000
0000
,
1000
0000
0000
0000
,
1000
0000
0010
0000
,
0000
0000
0010
0000
,
0000
0000
0010
0000
,
0000
0000
0100
0000
,
0100
0000
0000
0000
,
0001
0000
0001
0000
,
0000
0000
1000
0000
,
0000
0000
1000
0000
,
0000
0000
0010
0000
,
0000
0000
1000
0000
,
0000
0000
0100
0000
,
0000
0000
0100
0000
,
0000
0000
0010
0000
,
0000
0000
1001
0000
,
0000
0000
0000
0000
,
1001
0000
1001
0000
,
0000
0000
0001
0000
,
0100
0000
0000
0000
,
0001
0000
1000
0000
,
0000
0100
0000
0000
,
0000
0010
0000
0000
,
0001
0000
0100
0000
,
0001
0000
0000
1000
,
0000
0000
0100
0000
,
0010
0000
0001
0000
,
0000
1000
0000
0000
,
0000
0001
0000
0001
,
0000
0100
0000
0000
,
0010
0010
0010
0000
,
1000
0000
0100
0000
,
0000
0010
0000
0000
,
0001
0000
0000
0000
,
1000
0000
0000
0010
,
0000
0000
0000
0000
,
0010
0000
0000
1000
,
0000
0100
0000
0000
,
0000
1000
0000
0000
,
0000
0001
0000
0000
,
0000
0001
0000
0000
,
0100
0000
0100
0000
,
0000
0000
0100
0000
,
0000
0010
0000
0000
,
0010
0000
0000
1000
,
0000
0000
1000
0000
,
0000
0000
1000
0000
,
0000
0000
0001
0000
,
0000
0000
0001
0000
,
0000
0000
0001
0000
,
0000
0000
0001
0000
,
0000
0000
0100
0000
,
0000
0000
0010
0000
,
0000
0000
1000
0000
,
0000
0000
0001
0000
,
0000
0000
0010
0000
,
0000
0000
0000
0100
,
0000
0000
1000
0000
,
0000
0000
0001
0000
,
0000
0000
0010
0000
,
0000
0000
0110
0000
,
0000
0000
1001
0000
,
0000
0000
1000
0000
,
1000
0000
0100
0000
,
0000
0000
0001
0000
,
0010
0000
0001
0000
,
0100
0000
1000
0000
,
0001
0000
0100
0000
,
0010
0000
1000
0000
,
0000
1000
0000
0001
,
0000
0001
0000
0001
,
0010
0000
0000
0000
,
0100
0000
0000
0000
,
1000
0000
0000
0000
,
1000
0000
0000
0000
,
0001
0000
0100
0000
,
0000
0000
0100
0000
,
0100
0000
0010
0000
,
0010
0000
0000
0000
,
0010
0000
1000
0000
,
1000
0000
1000
0000
,
0001
0000
0000
0000
,
0001
0000
0000
0001
,
0000
0000
0100
0000
,
0000
0000
0010
0000
,
1000
0000
0000
1000
,
0001
0000
0000
0001
,
0000
0001
0000
0001
,
0000
1000
0000
1000
,
0000
0010
0000
1000
,
0000
0000
0100
0000
,
0010
0000
0001
0000
,
0100
0000
0010
0000
,
1000
0000
0001
0000
,
0010
0000
0001
0000
,
1001
0000
0000
0000
;
