#TITLE:Harsh Like My Dog While Having Sex;
#SUBTITLE:;
#ARTIST:KRX;
#TITLETRANSLIT:;
#SUBTITLETRANSLIT:;
#ARTISTTRANSLIT:;
#CREDIT:;
#BANNER:dog bn.png;
#BACKGROUND:dog bg.png;
#LYRICSPATH:;
#CDTITLE:;
#MUSIC:Harsh Like My Dog While Having Sex.ogg;
#OFFSET:0.030;
#SAMPLESTART:1.020;
#SAMPLELENGTH:12.000;
#SELECTABLE:YES;
#DISPLAYBPM:237.000;
#BPMS:0.000=237.000,39.000=948.000,40.000=237.000,47.000=355.500,48.000=237.000,52.000=118.500,54.000=237.000,62.000=474.000,66.000=948.000,70.000=237.000,74.000=474.000,77.500=948.000,78.000=237.000,86.000=948.000,86.500=237.000,87.000=948.000,88.000=237.000,88.500=948.000,90.500=237.000,91.000=948.000,91.500=237.000,93.000=948.000,93.500=237.000,94.000=948.000,94.500=711.000,94.875=79.000,95.000=948.000,95.500=711.000,95.875=79.000,96.000=948.000,96.500=711.000,96.875=79.000,97.000=948.000,97.500=711.000,97.875=79.000,98.000=355.500,99.000=948.000,99.500=355.500,100.500=948.000,101.000=355.500,102.000=237.000,109.000=948.000,109.500=237.000,114.000=118.500,115.000=237.000,116.000=948.000,118.000=474.000,119.000=237.000,120.500=948.000,121.000=237.000,137.000=948.000,141.000=237.000,149.000=948.000,152.000=711.000,152.750=79.000,153.000=237.000,156.000=474.000,158.000=237.000,160.000=948.000,160.500=237.000,161.000=948.000,164.000=237.000,172.000=711.000,172.750=79.000,173.000=711.000,173.750=79.000,174.000=711.000,174.750=79.000,175.000=711.000,175.750=79.000,176.000=237.000,176.500=474.000,177.000=237.000,177.500=474.000,178.000=237.000,178.500=474.000,179.000=237.000,179.500=474.000,180.000=948.000,180.500=237.000,181.500=948.000,182.000=237.000,188.000=711.000,188.375=79.000,188.500=948.000,189.000=237.000,191.000=474.000,191.500=237.000,363.500=948.000,364.000=237.000,376.500=177.750,377.000=355.500,377.500=237.000;
#STOPS:39.000=0.095
,39.500=0.095
,47.500=0.085
,62.000=0.064
,62.500=0.063
,63.000=0.063
,63.500=0.063
,64.000=0.064
,64.500=0.063
,65.000=0.063
,65.500=0.064
,66.000=0.189
,67.000=0.190
,68.000=0.095
,68.500=0.095
,69.000=0.095
,69.500=0.095
,74.000=0.064
,74.500=0.064
,75.000=0.063
,75.500=0.064
,76.000=0.063
,76.500=0.063
,77.000=0.063
,77.500=0.095
,86.000=0.095
,87.000=0.095
,87.500=0.095
,88.500=0.096
,89.000=0.095
,89.500=0.095
,90.000=0.095
,91.000=0.095
,93.000=0.095
,94.000=0.095
,95.000=0.096
,96.000=0.095
,97.000=0.095
,98.500=0.084
,99.000=0.095
,100.000=0.084
,100.500=0.095
,101.500=0.085
,109.000=0.096
,116.000=0.095
,116.500=0.095
,117.000=0.095
,117.500=0.095
,118.000=0.063
,118.500=0.064
,120.500=0.095
,137.000=0.094
,137.500=0.095
,138.000=0.095
,138.500=0.095
,139.000=0.190
,140.000=0.095
,140.500=0.095
,149.000=0.190
,150.000=0.190
,151.000=0.189
,153.000=0.253
,156.000=0.063
,156.500=0.063
,157.000=0.063
,157.500=0.064
,160.000=0.095
,161.000=0.095
,161.500=0.095
,162.000=0.095
,162.500=0.095
,163.000=0.095
,163.500=0.094
,176.500=0.063
,177.500=0.063
,178.500=0.064
,179.500=0.064
,180.000=0.095
,181.500=0.095
,188.500=0.095
,191.000=0.063
,363.500=0.095
;
#BGCHANGES:;
// cache tags:
#FIRSTBEAT:0.250;
#LASTBEAT:384.750;
#SONGFILENAME:Songs/SSSC Pack 2/Harsh Like My Dog While Having Sex - [Zimlord]/Harsh Like My Dog While Having Sex.sm;
#HASMUSIC:1;
#HASBANNER:1;
#MUSICLENGTH:100.274;
// end cache tags

//---------------dance-single - zimlord----------------
#NOTES:
     dance-single:
     zimlord:
     Challenge:
     15:
     1.000,1.000,0.359,0.120,1.000,929.000,36.000,12.000,36.000,0.000:

0000
1000
0001
1000
0001
1000
0001
1000
0001
1000
0001
1000
0002
0000
2003
0000
,
3100
0000
0011
0000
0001
0000
1000
0100
0010
0001
1000
0000
0001
0000
0001
0000
,
0100
0000
0001
0000
0001
0000
0001
0000
1000
0100
0010
0100
1000
0000
1000
0000
,
1000
0000
0001
1000
0001
0000
0100
0001
0100
0000
0001
1000
0001
0000
1001
0000
,
1000
0000
0000
0000
0000
0000
1100
0000
0000
0000
0000
0000
0100
0000
0000
0000
0000
0000
0010
0000
0000
0000
0001
0000
0000
0000
1000
0000
0000
0000
0001
0000
0000
0000
0000
0000
1000
0000
0000
0010
0000
0000
1000
0000
0000
0010
0000
0000
,
0100
0000
0001
1000
0100
0010
0001
1000
0100
0010
0001
1000
0001
1000
0010
1000
,
0001
0000
1000
0001
0000
0001
0010
0000
,
1100
0000
1000
0000
0001
0010
0001
0000
1000
0000
0001
0010
0001
0000
1000
0000
,
0001
0001
1000
1000
0010
0010
0010
0000
,
0100
0100
0001
0001
1000
1000
00M4
0000
,
1003
0100
1000
0100
0010
0000
0001
0000
0100
0001
1000
0001
0100
0000
0001
0000
,
1000
1000
0100
0100
0010
0010
020M
0000
,
1300
0000
0000
0001
0010
0000
1100
0000
0000
1100
0000
0000
1001
0000
1000
0000
,
00M4
0M00
M000
0M00
10M3
0100
0011
0001
,
0100
0000
0010
0000
1010
0000
1000
0000
0001
0000
0000
1000
0001
0000
0001
0000
,
0001
1000
0000
1001
0000
0000
0001
0000
1000
0000
1000
0000
0100
0000
0100
0000
,
1000
1000
0001
0001
40M0
0000
340M
0000
,
M340
0034
M403
0304
1003
0010
1010
1000
,
0100
0011
0001
1000
0001
0001
0010
0010
,
0100
0000
0100
0000
1000
0000
1001
0000
0001
0100
0001
0100
0001
1000
0001
1000
,
0010
0100
0010
0100
0001
0100
0001
0100
0001
0000
1000
0000
0100
0000
1000
0000
,
0010
0100
0001
0100
0001
1000
0001
0001
,
0010
0001
0001
1000
0010
0100
0010
0000
,
0000
1000
1001
0000
0M04
0000
0M00
0000
,
0M00
0M00
40M3
00M0
,
00M0
0000
00M0
0000
30M1
0100
0010
0100
,
0001
1000
0010
1000
0001
0001
1000
0100
,
0100
0100
1000
0010
0010
0010
0100
0001
,
0001
0001
1000
0001
MM20
0000
0031
1000
,
00M4
0000
0000
0000
4M03
0000
0000
0000
3001
0000
0001
0000
1000
0100
1000
0100
,
0010
0001
1000
0000
0001
0000
0100
0000
0001
0000
0010
0000
0001
0000
0001
0000
,
1000
0001
0001
0010
0100
1000
0010
0010
,
1000
0010
0010
0100
0001
0010
0100
0100
,
1000
0100
0100
1000
0001
1000
0001
0010
,
0010
0001
1000
0100
1000
0001
2M00
0000
,
3001
0000
0100
0000
0001
0000
1000
0000
0100
0000
1000
0001
1000
0000
0001
0000
,
0100
0001
0000
1000
0001
0000
1000
0000
0001
0000
0010
0000
0010
0000
0010
0000
,
0001
1000
00M2
0000
2M03
0000
320M
0000
,
M320
0030
1MM1
0000
1000
1000
0001
0001
,
0100
0000
0010
0000
0100
0000
0001
0000
1000
0000
0001
0100
0010
1000
0010
1000
,
0001
1000
0001
0010
0100
1000
0100
0010
,
0011
0000
0000
0001
1000
0000
0101
0000
0001
1000
0001
0000
1000
0100
1000
0000
,
0001
0010
0100
1000
1000
0001
0100
0001
,
1001
1100
0011
0101
,
1010
1000
0001
1000
0100
1000
0010
1000
,
0001
0000
1000
0100
1000
0100
0010
0000
0001
0000
0001
0000
1000
0000
0001
0000
,
0100
0001
0100
0001
1000
0000
0001
1000
0001
0000
1000
0100
0010
0000
0100
0000
,
1100
1000
0001
0001
0001
1000
0010
0010
,
1001
0000
1000
0000
0100
0000
0011
0000
0001
0000
1000
0000
0001
0010
0100
0010
,
0001
0000
1000
0000
0001
0000
0010
0000
0010
0000
1100
0000
1000
0100
0010
0001
,
1000
0000
0001
0000
0100
0000
0101
0000
0001
0000
0001
0000
0010
0001
1000
0001
,
0010
0000
0100
0000
0100
0000
1000
0001
1000
0000
0100
0010
0001
1000
0001
1000
,
0010
0000
0010
0000
1000
0000
0100
0010
0100
1000
0001
0000
1000
0100
0010
0001
,
1000
0000
1000
0000
0001
0000
0001
0000
0100
0010
0100
0000
0001
1000
0001
1000
,
0100
0100
1000
1000
0001
1000
0010
0010
,
1000
0001
1000
0000
1000
0000
0001
0010
0100
0010
0001
0000
0001
1000
0001
1000
,
0010
0100
0010
0100
0001
0100
0001
0100
0010
1000
0010
1000
0001
1000
0001
1000
,
0001
0000
1000
0000
0001
0010
0001
0000
1000
0000
0100
1000
0100
0000
1000
0000
,
0001
1000
0001
1000
0100
1000
0100
1000
0001
0010
0001
0010
0100
0010
0100
0010
,
0001
1000
0001
0000
0100
0001
0100
0000
0001
1000
0001
0000
1000
0100
0010
0001
,
1000
0010
1000
0010
0100
0010
0100
0010
1000
0001
1000
0001
0100
0001
0100
0001
,
1000
0000
0001
0000
0001
0000
0000
1001
0000
1000
0100
0000
0100
0000
0010
0000
,
0001
0100
0001
0100
0001
1000
0001
1000
0010
0100
0010
0100
0001
1000
0001
1000
,
0010
0000
1000
0000
1000
0000
0100
1000
0100
0000
0010
0000
0010
0001
0010
0001
,
1000
0100
1000
0100
0010
0001
0010
0001
1000
0100
1000
0100
1000
0001
1000
0001
,
1000
0000
0100
0000
1000
0000
0001
0000
0001
0000
0100
0000
0001
0100
0010
0100
,
0001
1000
0001
1000
0010
1000
0010
1000
0001
0100
0001
0100
0010
1000
0010
1000
,
0001
0000
1000
0000
1000
0000
0010
0100
0010
0000
1000
0000
1000
0001
0010
0001
,
1000
0010
1000
0010
0100
0001
0100
0001
1000
0001
1000
0001
0010
0001
0010
0001
,
1000
0000
1000
0000
0001
0000
1000
0000
0001
0100
0001
0000
1000
0100
0010
0001
,
1000
0001
1000
0001
0100
0001
0100
0001
1000
0100
1000
0100
0010
0001
0010
0001
,
1000
0000
0001
0000
0001
0000
1000
0001
1000
0000
0001
0000
0001
0100
0001
0100
,
0010
0000
0000
1000
0000
0000
0001
0000
0000
1000
0000
0000
1010
0000
0000
0010
0000
0000
0100
0000
0001
0000
1000
0000
,
0001
0000
1000
0000
0100
1000
0100
0000
1000
0000
0001
1000
0001
0000
0100
0000
,
0001
0100
0001
0100
0010
1000
0010
1000
0001
0100
0001
0100
0001
1000
0001
1000
,
0001
0000
0010
0000
0100
1000
0100
0000
1000
0000
0001
0000
0100
0001
0100
0001
,
0000
1000
0000
0001
1000
0100
0010
0001
1000
0100
1000
0000
0001
1000
0100
1000
,
0001
0000
0100
0000
0001
0000
1000
0100
0000
0100
1000
0000
1000
0000
0001
0000
,
0100
0000
0100
0000
0001
0000
1000
0000
0001
1000
0001
0000
0001
0000
1000
0000
,
0100
0000
0010
0001
1000
0100
1000
0100
1000
0001
1000
0001
0100
0001
0100
0001
,
1000
0000
0100
0000
0010
0000
0100
0000
1000
0000
0001
0000
0100
0000
0001
1000
,
0001
0000
0100
0000
0010
0000
0100
0000
0001
0000
0010
0000
0100
0000
0010
0001
,
0010
0000
0100
0000
1000
0000
0100
0000
0010
0000
0001
0000
0100
0000
0001
1000
,
0001
0000
0010
0000
0001
0000
1000
0000
0100
0000
1000
0000
0001
1000
0100
0010
,
0001
0000
0100
0000
0001
0000
1000
0100
0010
0000
0001
0010
0100
0000
1000
0001
,
1000
0000
0001
0000
0100
0000
0001
0000
0010
0000
0100
0000
1000
0100
0010
0100
,
1000
0000
0001
0000
0100
0000
0001
0000
1000
0001
1000
0001
0010
0000
0100
1000
,
0001
1000
0001
1000
0001
1000
0001
1000
0001
1000
0001
1000
0002
0000
0203
0000
,
0310
0000
1000
0000
0100
0000
1000
0000
0010
0000
0100
0000
0001
0000
0010
0001
,
0010
0000
0000
0000
0011
0000
0000
0000
0001
1000
0001
1000
0010
0000
0000
0000
,
1000
0000
0100
0000
1000
0000
0001
0010
0100
0000
1000
0000
0001
0000
1000
0000
,
0001
0000
0100
0000
0001
0000
1000
0000
0100
0000
1000
0000
0100
0010
0001
0010
,
0100
0000
0000
0000
1100
0000
1000
0010
0100
0000
0010
0100
0001
0000
1000
0001
,
1000
0100
1000
0001
0001
0010
0001
0001
,
0100
M002
0000
1003
0001
0001
0010
0100
,
1000
0100
0010
0000
0010
0000
0001
1000
0001
1000
0001
0000
1000
0100
0010
0001
,
M000
0M00
00M0
000M
0000
0000
0000
0000
0000
0000
0000
0000
0000
0000
0000
0000
;
