#TITLE:felys;
#SUBTITLE:(long version);
#ARTIST:onoken;
#TITLETRANSLIT:;
#SUBTITLETRANSLIT:;
#ARTISTTRANSLIT:;
#CREDIT:;
#BANNER:felys-bn.png;
#BACKGROUND:felys-bg.png;
#LYRICSPATH:;
#CDTITLE:bmagetitle.PNG;
#MUSIC:felyslong.mp3;
#OFFSET:-10.727;
#SAMPLESTART:104.000;
#SAMPLELENGTH:18.000;
#SELECTABLE:YES;
#DISPLAYBPM:85.000:180.000;
#BPMS:0.000=90.000,32.000=180.000,91.500=20.000,92.000=180.000,156.000=45.000,172.000=90.000,184.000=80.000,184.250=70.000,184.500=60.000,184.750=50.000,185.000=45.000,186.000=50.000,186.250=60.000,186.500=70.000,186.750=90.000,187.000=105.000,187.250=120.000,187.500=140.000,187.750=160.000,188.000=180.000,316.000=90.000,348.000=180.000,412.000=85.000,426.500=95.000,426.750=110.000,427.000=125.000,427.250=140.000,427.500=165.000,427.750=165.000,428.000=180.000,428.250=210.000,428.500=245.000,428.750=275.000,429.000=309.999,429.250=339.999,429.500=359.999,430.000=34.000;
#STOPS:;
#BGCHANGES:;
// cache tags:
#FIRSTBEAT:0.000;
#LASTBEAT:432.000;
#SONGFILENAME:Songs/Community Keyboard Megapack - Volume 3/(annon) felys/felyslong.sm;
#HASMUSIC:1;
#HASBANNER:1;
#MUSICLENGTH:210.889;
// end cache tags

//---------------dance-single - ----------------
#NOTES:
     dance-single:
     :
     Hard:
     11:
     1.000,1.000,0.673,0.631,1.000,1321.000,142.000,133.000,0.000,2.000:  // measure 1
0010
0000
1000
0000
0001
0000
1000
0000
0001
0000
0100
0000
0010
0000
1000
0000
0001
0000
1000
0000
0001
0000
0100
0000
0001
0000
0100
0000
0010
1000
0100
0000
,  // measure 2
0010
0000
0001
0000
1000
0000
0001
0000
1000
0000
0100
0000
0010
0000
0001
0000
1000
0000
0001
0000
1000
0000
0100
0000
0010
0000
1001
0000
0010
0001
0100
0000
,  // measure 3
0010
0000
1000
0000
0001
0000
1000
0000
0001
0000
0100
0000
0010
0000
1000
0000
0001
0000
1000
0000
0001
0000
0100
0000
0001
0000
0100
0000
0010
1000
0100
0000
,  // measure 4
0010
0001
1000
0001
1000
0100
0010
0001
1000
0001
1100
0001
1010
0001
1001
0110
,  // measure 5
1001
0001
1010
0001
1001
0001
1010
0001
0000
0001
1100
0010
0000
0010
1001
0100
,  // measure 6
1001
0000
0100
0000
0011
0000
0100
0000
1001
0000
0100
0000
0011
0000
0100
0000
0000
0000
0100
0000
1010
0000
0001
0000
0000
0000
0001
0000
1100
0010
0001
0000
,  // measure 7
0101
0000
0001
1000
0000
0000
1000
0000
1100
0000
1000
0001
0000
0001
1000
0000
0011
0100
1000
0000
1010
0000
0100
0000
1001
0000
0100
0000
0010
1000
0100
0000
,  // measure 8
0011
0000
1100
0000
0001
0000
0100
0000
0010
0000
0101
0000
1000
0000
0001
0000
1000
0001
0000
0000
1000
0000
0011
0000
1000
0000
0101
0000
0010
0100
0010
0100
,  // measure 9
1001
0000
0100
0010
1000
0001
1000
0000
0001
1000
0010
0100
0010
0000
1000
0100
,  // measure 10
0010
0000
1100
0000
0011
0000
1000
0010
0100
0000
1001
0000
0010
0100
0001
1000
,  // measure 11
0001
0000
1000
0100
0010
0100
1000
0000
0001
1000
0010
0100
0010
0000
1000
0100
,  // measure 12
0010
0100
1000
0010
0100
0010
1000
0001
0010
0000
0100
1000
0010
0100
0001
0100
,  // measure 13
0010
1000
0001
1000
0010
0000
1000
0100
0010
0001
1000
0000
0010
0100
0010
0000
,  // measure 14
1000
0001
0100
0010
1000
0000
0010
0100
0001
0100
0010
0000
1000
0100
0010
0000
,  // measure 15
1000
0001
0100
0010
1000
0000
1000
0010
0100
0010
1000
0000
0001
0010
0100
0000
,  // measure 16
1000
0100
0010
0001
1000
0010
0100
0010
1000
0100
0010
0001
0100
0010
0100
0001
,  // measure 17
1200
1000
1300
0120
0100
0130
0012
0010
,  // measure 18
0013
0000
2001
0000
0001
0000
3001
0000
1020
0000
1000
0000
1030
0001
1000
0001
,  // measure 19
0201
0001
0301
0120
0100
0130
2010
0010
,  // measure 20
3010
0000
1002
0000
1000
0000
1003
0000
2100
0000
0100
0000
3100
0010
0100
0010
,  // measure 21
1200
1000
1300
2001
0001
3001
0102
0100
,  // measure 22
0103
0000
0210
0000
0010
0000
0310
0000
1020
0000
1000
0000
1030
0001
1000
0001
,  // measure 23
1200
0000
0000
0000
0000
0000
0000
0000
1000
0000
0000
0000
0000
0000
0000
0000
1300
0000
0000
0000
0000
0000
0000
0000
0101
0000
0000
0000
0000
0000
0000
0000
0001
0000
0000
0000
0000
0000
0000
0000
1010
0000
0000
0000
0000
0000
0000
0000
0101
0000
0000
0000
0000
0000
0000
0000
2002
0000
0000
0000
0000
0000
0000
3003
,  // measure 24
1001
0000
0100
0000
0011
0000
1001
0000
0000
0000
0001
1000
0001
0000
1000
0010
,  // measure 25
0100
0010
1000
0001
1000
0010
0100
0001
0010
0100
0010
0001
0100
0010
1000
0001
,  // measure 26
1000
0000
0110
0000
0001
0000
1010
0000
0000
0000
0100
0010
0100
0000
0001
0000
,  // measure 27
1000
0100
0010
0100
1000
0100
0010
0100
1000
0010
0100
0001
1000
0100
0010
0001
,  // measure 28
1000
0000
0100
0000
1001
0000
0110
0000
0000
0000
1000
0100
1000
0000
0001
0100
,  // measure 29
0010
0100
0001
0100
0010
1000
0100
1000
0010
0100
0001
0010
0100
0010
0001
1000
,  // measure 30
0001
0000
0110
0000
1000
0000
0011
0000
0000
0000
0100
1000
0100
0000
1000
0000
,  // measure 31
0001
0100
0010
0100
0001
0100
0010
0100
0001
0010
0100
1000
0001
0100
0010
1000
,  // measure 32
0001
0000
0100
0000
1001
0000
0110
0000
0000
0000
0100
0010
0100
0000
1000
0100
,  // measure 33
0010
0001
1000
0010
0100
0010
1000
0001
1000
0100
0010
0001
0010
0100
1000
0100
,  // measure 34
0010
0000
0101
0000
1000
0000
0110
0000
0000
0000
0001
1000
0001
1000
0001
0100
,  // measure 35
0010
0100
0001
1000
0100
1000
0010
0100
0001
0010
0100
1000
0001
0100
0010
1000
,  // measure 36
0001
0000
0110
0000
1010
0000
1001
0000
0100
0000
0010
1000
0010
1000
0001
0010
,  // measure 37
0100
0010
0001
1000
0010
0100
0001
1000
0100
1000
0010
0100
0001
1000
0100
1000
,  // measure 38
0010
0000
1001
0000
0100
0000
1010
0000
0100
0000
0001
0100
0001
0000
1000
0000
,  // measure 39
0100
0010
0001
0100
0010
1000
0001
1000
0010
0100
0001
0010
0100
1000
0001
0100
,  // measure 40
2002
0000
0000
0000
,  // measure 41
0000
0000
0000
0000
0000
0000
0000
0000
0000
0000
0000
0000
0000
0000
0000
3003
,  // measure 42
0001
0100
0010
0100
0000
0001
0010
0100
1000
0001
0100
0010
1000
0001
0010
0100
1000
0010
0100
0010
0000
1000
0100
0010
0001
1000
0010
0100
0001
1000
0100
0010
,  // measure 43
0001
0100
0010
0100
0000
0001
0010
0100
1000
0100
0010
0001
0010
0100
1000
0100
0010
0001
1000
0001
0000
0100
0010
1000
0001
0010
0100
0010
0001
0100
0010
1000
,  // measure 44
1001
0000
0001
0001
1010
0000
1000
0100
0010
0010
0100
0000
1001
0000
0100
0100
,  // measure 45
0001
0000
0001
0000
1010
0000
0100
1010
0000
0100
0100
0100
1010
0000
0100
0100
,  // measure 46
1001
0000
0100
0010
1001
0000
0100
0001
1000
0100
0010
0000
1001
0000
0100
0100
,  // measure 47
2002
0000
0000
0000
0000
0000
0000
3003
,  // measure 48
1000
0100
0010
0100
1000
0000
0001
0100
0010
1000
0001
0000
0010
0100
0010
0000
,  // measure 49
0001
0100
0010
0100
0001
0000
1000
0100
1000
0010
0100
0000
0001
1000
0001
0000
,  // measure 50
0100
0010
0100
0001
1000
0000
0100
0010
0100
1000
0001
0000
0100
0010
1000
0001
,  // measure 51
0001
0000
1000
0100
0010
0000
0001
0100
0010
1000
0001
0000
0100
0010
0100
0001
,  // measure 52
1000
0100
0010
0000
0001
0100
0010
1000
0001
0000
0010
0100
0010
0001
1000
0000
,  // measure 53
0010
0100
0010
0000
1000
0100
0010
0001
0100
0000
0010
1000
0001
0010
0100
0000
,  // measure 54
1000
0001
0100
0010
1000
0000
0001
0100
0010
1000
0001
0000
0010
0100
1000
0010
,  // measure 55
0100
0000
0010
1000
0001
0000
1000
0100
0010
0100
1000
0010
0100
0010
1000
0001
,  // measure 56
1200
1000
1300
2001
0001
3001
0201
0301
,  // measure 57
2010
0010
3010
0120
0100
0130
0201
0001
,  // measure 58
0301
1002
1000
1003
2100
3100
0210
0310
,  // measure 59
0012
0100
1003
0000
0001
0000
2001
0000
3001
0000
0102
0000
0103
0000
0110
0000
,  // measure 60
1020
0100
1030
2001
0010
3001
0120
1030
,  // measure 61
0021
0100
0031
0201
0010
0301
1200
0310
,  // measure 62
1002
0100
1003
2100
0010
3100
1002
0103
,  // measure 63
1000
0100
0010
0001
1000
0010
0100
0001
1000
0100
0010
0100
1000
0010
0100
0001
,  // measure 64
1000
0010
0100
0010
1000
0000
1000
0010
0100
0001
1000
0000
0100
0010
0100
0000
,  // measure 65
1000
0010
0100
0010
1000
0000
0001
0010
0001
0100
0010
0000
1000
0001
1000
0000
,  // measure 66
0010
0100
0010
1000
0001
0000
0010
0100
0010
0001
1000
0000
0010
0100
0001
1000
,  // measure 67
1000
0000
0001
0010
0100
0000
1000
0010
0100
0001
1000
0000
0010
0100
0010
1000
,  // measure 68
0001
0010
0100
0000
1000
0010
0100
0001
1000
0000
0100
0010
0100
1000
0001
0000
,  // measure 69
0100
0010
0100
0000
0001
0010
0100
1000
0010
0000
0100
0001
1000
0100
0010
0000
,  // measure 70
0001
1000
0010
0100
0001
0000
1000
0010
0100
0001
1000
0000
0100
0010
0001
0100
,  // measure 71
0010
0000
0100
0001
1000
0000
0001
0010
0100
0010
0001
0100
0010
0100
0001
1000
,  // measure 72
0021
0001
0031
1002
1000
1003
1020
1030
,  // measure 73
0102
0100
0103
0210
0010
0310
1020
1030
,  // measure 74
1010
2001
0001
3001
0012
0013
0120
0130
,  // measure 75
2100
0010
3001
0000
1000
0000
1002
0000
1003
0000
2010
0000
3010
0000
0110
0000
,  // measure 76
0201
0010
0301
1002
0100
1003
0210
0301
,  // measure 77
1200
0010
1300
1020
0100
1030
0021
0130
,  // measure 78
2001
0010
3001
0012
0100
0013
2001
3010
,  // measure 79
0001
0010
0100
1000
0001
0100
0010
1000
0001
0010
0100
0010
0001
0100
0010
1000
,  // measure 80
0002
2003
0000
0000
3020
0000
0230
0000
0000
0000
0000
0000
0302
0000
0000
0000
2003
0000
3020
0000
0230
0000
0302
0000
2003
0000
3200
0000
0320
0000
0230
0000
,  // measure 81
2300
3002
0000
0000
0023
0000
0230
0000
0000
0000
0000
0000
2300
0000
0000
0000
3002
0000
0203
0000
0320
0000
2030
0000
3002
0000
0023
0000
0230
0000
0320
0000
,  // measure 82
0032
2003
0000
0000
3020
0000
0230
0000
0000
0000
0000
0000
0320
0000
0000
0000
2030
0000
3200
0000
0320
0000
0230
0000
2300
0000
3002
0000
0203
0000
0320
0000
,  // measure 83
2030
3002
0000
0000
0023
0000
0230
0000
0000
0000
2300
0000
3200
0000
0320
0000
0032
0000
2003
0000
3020
0000
0230
0000
0302
0000
2003
0000
0000
0000
3002
0000
,  // measure 84
1103
0000
1000
1000
1001
0000
0010
0100
0001
1000
0100
0000
0011
0000
0100
0100
,  // measure 85
1001
0000
1001
0000
1010
0000
0100
1010
0000
0100
0100
0100
1001
0100
0010
1000
,  // measure 86
0001
1000
0000
0000
0000
0000
0100
0000
1000
0001
0000
0000
0000
0000
0100
0000
0010
0100
0000
0000
0110
0000
1000
0000
0101
0000
0000
0000
0000
0000
0001
0000
,  // measure 87
0101
0000
0101
0000
1000
0000
0010
0000
0100
0000
1001
0000
0100
0000
0001
0000
1000
0100
0000
0000
0010
0000
1001
0000
0100
0000
1010
0000
0010
0100
0010
0100
,  // measure 88
1001
0000
1000
0100
0010
0000
0001
0100
0010
1000
0001
0000
0010
0100
1000
0100
,  // measure 89
0010
0000
0001
0100
0010
1000
0001
0000
0010
0100
0010
0001
1000
0000
0010
0100
,  // measure 90
0010
0000
1000
0100
0010
0001
1000
0000
0010
0100
0001
1000
0100
0000
0010
0100
,  // measure 91
1000
0010
0100
0010
1000
0100
0010
0001
0100
0010
0100
0001
1000
0100
1000
0010
,  // measure 92
0100
0001
0010
0100
0010
0001
1000
0100
0010
0001
0100
0010
0100
0001
1000
0100
,  // measure 93
1000
0010
0100
0001
1000
0100
1000
0010
0100
0010
1000
0100
0010
0001
0010
0100
,  // measure 94
1000
0001
0100
0010
1000
0001
0010
0100
0010
0001
1000
0010
0100
0001
1000
0100
,  // measure 95
1000
0010
0100
0010
1000
0001
0010
0100
1000
0010
0100
0001
1000
0001
0100
0010
,  // measure 96
1000
0000
0100
0010
0100
1000
0001
0000
0100
0010
0100
0001
1000
0000
0100
0010
,  // measure 97
0001
0000
1000
0010
0100
0001
1000
0000
0100
0010
0001
1000
0001
0000
1000
0010
,  // measure 98
0100
0000
0010
1000
0001
0010
0100
0000
0010
0001
1000
0100
1000
0001
0100
0010
,  // measure 99
1000
0001
0010
0100
0010
0001
0100
0010
1000
0001
0100
0010
0100
0001
1000
0100
,  // measure 100
0010
0001
0100
0010
1000
0001
0010
0100
0010
0001
1000
0100
0010
0001
0100
0010
,  // measure 101
0100
0001
1000
0100
1000
0010
0100
0001
0010
0100
1000
0001
0100
0010
1000
0001
,  // measure 102
0010
0100
1000
0001
0100
0010
1000
0001
1000
0100
0010
0100
1000
0010
0100
0010
,  // measure 103
1000
0001
0010
0100
1000
0001
0100
0010
1000
0100
0010
0100
1000
0010
0100
0001
,  // measure 104
2000
0000
0000
0000
0000
0000
0000
0000
0000
0000
0000
0000
0000
0000
0000
0000
0000
0000
0000
0000
0000
0000
0000
0000
0000
0000
0000
0000
0000
0000
0000
3000
2000
0000
0000
0000
0000
0000
0000
0000
0000
0000
0000
0000
0000
0000
0000
0000
3002
0000
0000
0000
0000
0000
0000
0000
0000
0000
0000
0000
0000
0000
0000
0000
,  // measure 105
0203
0000
0000
0000
0000
0000
0000
0000
0000
0000
0000
0000
0000
0000
0000
0000
0302
0000
0000
0000
0000
0000
0000
0000
0000
0000
0000
0000
0000
0000
0000
0000
2003
0000
0000
0000
0000
0000
0000
0000
0000
0000
0000
0000
0000
0000
0000
0000
3020
0000
0000
0000
0000
0000
0000
0000
0000
0000
0000
0000
0000
0000
0000
0030
,  // measure 106
0020
0000
0000
0000
0000
0000
0000
0000
0000
0000
0000
0000
0000
0000
0000
0000
2030
0000
0000
0000
0000
0000
0000
0000
0000
0000
0000
0000
0000
0000
0000
0000
3002
0000
0000
0000
0000
0000
0000
0000
0000
0000
0000
0000
0203
0000
0000
0000
0000
0000
0000
0000
0000
0000
0000
0000
0302
0000
0000
0000
0000
0000
0000
0003
,  // measure 107
0002
2000
0000
0000
,  // measure 108
0000
0000
3223
0000
,  // measure 109
0330
0000
0000
0000
;
