#TITLE:Speed Fu-jin;
#SUBTITLE:;
#ARTIST:pianoid;
#TITLETRANSLIT:;
#SUBTITLETRANSLIT:;
#ARTISTTRANSLIT:;
#CREDIT:;
#BANNER:Bn-Fujin.png;
#BACKGROUND:Bg-Fujin.png;
#LYRICSPATH:;
#CDTITLE:;
#MUSIC:pianoid - Speed Fu-jin 2012.ogg;
#OFFSET:0.021;
#SAMPLESTART:94.558;
#SAMPLELENGTH:12.000;
#SELECTABLE:YES;
#BPMS:0.000=227.000;
#STOPS:;
#BGCHANGES:;
// cache tags:
#FIRSTBEAT:5.000;
#LASTBEAT:563.000;
#SONGFILENAME:Songs/SPEEEDCOOOORE 3/Speed Fu-jin - [Rynker]/speedfujin2012.sm;
#HASMUSIC:1;
#HASBANNER:1;
#MUSICLENGTH:150.357;
// end cache tags

//---------------dance-single - Rynker----------------
#NOTES:
     dance-single:
     Rynker:
     Challenge:
     16:
     1.000,1.000,0.206,0.259,1.000,1185.000,31.000,39.000,4.000,0.000:


0000
0000
0000
0000
,
0000
0000
1001
0000
0000
0001
0010
0000
,
0100
1000
1000
0010
,
0010
0000
0100
0000
0000
0001
0010
0000
,
0100
1000
1000
0001
,
1000
0000
0000
0000
1001
0000
0000
0000
0001
0000
0010
0000
0100
1000
0100
0000
,
1000
0000
0001
0100
0001
0100
0001
0000
0100
0000
0010
1000
0010
1000
0010
0000
,
1000
0000
0001
0010
0100
0000
1000
0000
0001
0000
1000
0010
1000
0010
1000
0000
,
0001
0000
0100
0001
1000
0000
0001
0000
0010
0000
0100
1000
0100
1000
0100
0000
,
0010
0001
0100
0010
1000
0000
0000
0000
0000
0000
0002
0000
2003
0000
3001
0000
,
0200
0310
0200
0300
0200
0301
0020
0130
,
0020
0130
2000
3000
0000
0002
0103
0010
,
0200
0301
0020
0030
0020
0031
2000
3100
,
0020
0031
2001
3000
0000
0002
0003
1000
,
0020
0130
0100
0000
0002
0103
0002
0013
,
0200
1300
0002
0003
0000
0002
0103
0000
,
0020
0030
0200
0300
0020
0030
2000
3000
,
0200
0300
1001
0000
0000
0000
0000
0000
,
0000
0MM0
0000
0000
,
0000
0000
0000
0000
0001
0100
0010
0100
0001
1000
0001
0010
0100
1000
0001
1000
,
0010
0100
0001
0100
0001
1000
0100
1000
0100
0010
0001
0010
0100
1000
0001
0100
,
0010
0100
0001
1000
0100
0010
0001
0010
0100
1000
0001
1000
0001
0100
0010
0100
,
0001
1000
0100
0010
0001
1000
0010
0100
0001
1000
0100
0010
0100
1000
0001
0010
,
0001
1000
0010
0100
0010
1000
0001
0100
0001
1000
0001
0100
0010
1000
0001
0010
,
0100
0010
0001
1000
0010
0100
0001
1000
0100
1000
0001
0010
0001
1000
0100
1000
,
0001
0100
0010
1000
0001
0010
0100
1000
0100
0010
0001
1000
0001
0100
0010
0100
,
0001
1000
0010
1000
0001
0010
0100
1000
0010
1000
0001
0010
0001
0100
0010
0100
,
0001
0000
0100
0000
0000
0010
1000
0000
,
1100
0000
1000
0001
0000
1000
0010
0000
,
1001
0000
0001
0000
0000
1000
0100
0000
,
1100
0000
0000
0000
1000
0000
0100
0000
0000
0000
0100
0010
0001
0000
0000
0000
,
0001
0000
0101
0000
0000
0100
0010
0000
,
1000
0000
0000
0000
0000
0000
0000
0000
1000
0000
0000
0001
0100
0000
0000
0000
,
0010
0000
1000
0000
0000
0100
0010
0000
,
0100
0000
0000
0000
1000
0000
0001
0000
0000
0000
0001
0000
0100
0010
1000
0100
,
0010
0000
0001
0000
0000
0001
0100
0000
,
0001
0000
1000
0100
0000
0100
1000
0000
,
0001
0000
0010
0000
0000
0001
1000
0000
,
0001
0000
0000
0000
0100
0000
0010
0000
0000
0000
0010
0100
0001
0000
0000
0000
,
0001
0000
1000
0000
0000
0100
1000
0000
,
0001
0000
0000
0000
0000
0000
0000
0000
1000
0000
0000
0001
0010
0000
0000
0000
,
0100
0000
1000
0100
0010
0001
1000
0001
,
0100
0010
0100
0001
1000
0100
1000
0000
,
0000
1001
0000
0000
,
0000
0000
0000
0000
0001
0000
1000
0000
0001
1000
0000
0001
1000
0100
0010
0001
,
1000
0100
0010
0001
1000
0001
0100
0001
1000
0010
1000
0001
0010
0001
1000
0100
,
1000
0001
0010
0100
1000
0100
0010
0001
1000
0001
1000
0010
0100
0010
1000
0001
,
0100
0010
0100
0001
1000
0001
1000
0100
0010
0100
1000
0001
0010
0001
1000
0100
,
1000
0001
1000
0001
0010
0100
1000
0001
1000
0010
0100
0010
1000
0001
0100
0010
,
1000
0001
0100
0001
1000
0010
1000
0001
0010
0100
1000
0100
0010
0001
1000
0100
,
0010
0001
1000
0010
1000
0001
0100
0010
0100
0001
1000
0010
0100
0001
1000
0001
,
0010
0100
1000
0100
0010
0001
1000
0001
1000
0100
0010
0100
1000
0001
1000
0010
,
0100
0001
1000
0010
0100
0010
1000
0001
1000
0010
0100
0010
1000
0001
1000
0001
,
1000
0000
1001
0000
0000
0001
0000
0001
,
0000
1000
0100
0000
0000
1000
0000
1000
,
0001
1000
0001
1000
0001
0000
0000
0000
1000
0000
0001
0000
0000
0000
1000
0000
,
0000
0000
0010
0000
0100
0000
0000
0000
0000
0000
0001
0000
0010
0100
1000
0001
,
1000
0100
0010
0001
0010
0100
1000
0001
0100
0010
0100
0001
1000
0010
0100
0001
,
1000
0100
1000
0001
0010
0001
1000
0100
0010
0001
1000
0001
0100
0010
0100
0001
,
1000
0001
1000
0100
0010
0001
0010
0100
1000
0001
0010
0001
1000
0100
1000
0001
,
1000
0001
0100
0010
0100
0001
1000
0010
0100
0001
1000
0010
0100
0001
0010
0100
,
0010
0001
1000
0001
0100
0010
0100
0001
1000
0100
0010
0001
1000
0001
0100
0010
,
0100
0001
1000
0100
0010
0001
0010
0100
1000
0001
0100
0010
0100
0001
1000
0100
,
0010
0001
1000
0001
0100
0010
0100
0001
1000
0100
0010
0001
0010
0100
1000
0001
,
0100
0001
1000
0100
0010
0001
0010
0100
1000
0001
0010
0001
1000
0100
1000
0001
,
1000
0001
0010
0001
0000
0000
0000
0000
0000
0000
0000
0000
0000
0000
0000
0000
,
0000
0000
0000
0000
,
0000
0000
0000
0000
,
0000
0000
0000
0000
,
0000
0000
0000
0000
,
0000
0000
0000
0000
,
0000
0000
0000
0000
,
0000
0000
2000
0000
3001
0010
0101
0010
,
0001
0100
0012
0000
1003
0001
1100
0001
,
1000
0001
2010
0000
3001
1000
0011
1000
,
0001
0010
0102
0000
1003
0001
1100
0001
,
1000
0001
2010
0000
3001
1000
0011
1000
,
0001
0010
0102
0000
1003
0001
1010
0001
,
1000
0010
2100
0000
3001
1000
0101
1000
,
0001
1000
0012
0000
1003
0001
1010
0001
,
1000
0010
2100
0000
3000
0000
0000
0000
,
0000
0000
1001
0000
0000
0001
0100
0000
,
0010
0000
1000
0001
0000
0001
1000
0000
,
0100
0000
0110
0000
0000
0010
0001
0000
,
1000
0000
0000
0000
0001
0000
0100
0000
0000
0000
0100
0001
1000
0000
0000
0000
,
1000
0000
1001
0000
0000
0001
0010
0000
,
0001
0000
0000
0000
0000
0000
0000
0000
1000
0000
0000
0100
0010
0000
0000
0000
,
0001
0000
1000
0000
0000
0001
1000
0000
,
0010
0000
0000
0000
0100
0000
0010
0000
0000
0000
0100
0000
0001
0010
0100
1000
,
0010
0000
1000
0000
0000
0001
0010
0000
,
0100
0000
1000
0100
0000
0010
0001
0000
,
1000
0000
1001
0000
0000
0001
0100
0000
,
0010
0000
0000
0000
0100
0000
0001
0000
0000
0000
0001
1000
0100
0000
0000
0000
,
0100
0000
0010
0000
0000
0001
1000
0000
,
0010
0000
0000
0000
0000
0000
0000
0000
1000
0000
0000
0001
0100
0000
0000
0000
,
0001
0000
1000
0100
0010
0001
1000
0001
,
0100
0010
1000
0001
0010
0100
1000
0000
,
0000
0000
0000
0000
1000
0001
0100
0001
1000
0010
1000
0001
0010
0001
1000
0100
,
1000
0001
0010
0100
1000
0100
0010
0001
1000
0001
1000
0010
0100
0010
1000
0001
,
0100
0010
0100
0001
1000
0001
1000
0100
0010
0100
1000
0001
0010
0001
1000
0100
,
1000
0001
1000
0001
0010
0100
1000
0001
1000
0010
0100
0010
1000
0001
0100
0010
,
1000
0001
0100
0001
1000
0010
1000
0001
0010
0100
1000
0100
0010
0001
1000
0100
,
0010
0001
1000
0010
1000
0001
0100
0010
0100
0001
1000
0010
0100
0001
1000
0001
,
0010
0100
1000
0100
0010
0001
1000
0001
1000
0100
0010
0100
1000
0001
1000
0010
,
0100
0001
1000
0010
0100
0010
1000
0001
1000
0010
0100
0010
1000
0001
0010
0100
,
1000
0001
1000
0010
0100
0000
0000
0000
0000
0000
0001
0000
1000
0000
0000
0000
,
0100
0000
0010
0001
0000
1000
0001
0000
,
0100
0000
0010
0000
0000
1000
0001
0000
,
0010
0000
0001
0010
0000
0100
1000
0000
,
0001
0000
0100
0000
0000
0010
1000
0000
,
0001
0000
0000
0000
0000
0000
0000
0000
1000
0000
0000
0010
0100
0000
0000
0000
,
0001
0000
0010
0000
0000
0100
1000
0000
,
0100
0000
0010
0001
0000
1000
0001
0000
,
0100
0000
0010
0000
0000
1000
0001
0000
,
0100
0000
0001
0010
0000
0100
1000
0000
,
0001
0000
0100
0000
0000
0010
1000
0000
,
0001
0000
1000
0010
0000
0100
0001
0000
,
0010
0000
0001
0000
0000
0100
0010
0000
,
1000
0000
0000
0000
0000
0000
0000
0000
0001
0000
0000
0010
0100
0000
0000
0000
,
1000
0000
0001
0000
0000
0100
0010
0000
,
1000
0000
0000
0000
0001
0000
0100
0000
0000
0000
0001
0000
1000
0000
0000
1000
,
0010
1001
0000
0000
,
0000
0000
0000
0000
,
0000
0000
0000
0000
,
0000
0000
0000
0000
0001
0100
0001
0100
0001
1000
0100
0010
0001
0010
0100
1000
,
0001
0100
0001
0100
0010
1000
0001
1000
0001
0010
0100
1000
0100
0010
0001
1000
,
0001
0100
0010
0100
0001
1000
0010
0100
0010
1000
0001
0010
0100
1000
0100
0010
,
0001
1000
0001
0100
0010
1000
0010
1000
0001
0100
0001
1000
0100
0010
0001
1000
,
0100
0010
0100
1000
0001
0100
0010
0100
0001
1000
0001
0100
0010
0100
0001
1000
,
0100
0010
0001
1000
0100
0010
0001
1000
0001
1000
0100
0010
0001
1000
0001
0100
,
0010
1000
0010
0100
0001
1000
0100
0010
0100
1000
0001
1000
0010
0100
0001
0100
,
0001
1000
0100
1000
0001
0010
0100
1000
0001
0010
0100
1000
0002
0000
0000
0000
,
0000
0003
0000
0000
1000
0001
0010
0100
1000
0001
0100
0010
0100
0001
1000
0100
,
0010
0001
1000
0001
0100
0010
0100
0001
1000
0100
0010
0100
1000
0001
0010
0001
,
1000
0010
1000
0001
0100
0001
1000
0010
1000
0001
0010
0100
0010
0001
1000
0001
,
0100
0010
0100
0001
1000
0100
1000
0001
0010
0001
1000
0010
1000
0001
0100
0001
,
1000
0100
1000
0001
0010
0100
1000
0100
0010
0001
1000
0001
0100
0001
1000
0010
,
0100
0001
0100
0010
1000
0010
0100
0001
1000
0100
0010
0100
1000
0001
0010
0100
,
1000
0001
0100
0010
0100
0001
1000
0010
0100
0001
1000
0001
1000
0100
0010
0001
,
1000
0100
0010
0100
1000
0001
0100
0010
0100
0001
1000
0100
0020
0000
0000
0000
,
0031
1000
0002
0000
0000
0000
0MM3
0000
;

//---------------dance-single - Rynker----------------
#NOTES:
     dance-single:
     Rynker:
     Hard:
     14:
     1.000,1.000,0.239,0.505,0.808,1000.000,36.000,76.000,5.000,0.000:

0000
0000
0000
0000
,
0000
0000
1001
0000
0000
0001
0010
0000
,
0100
1000
1000
0010
,
0010
0000
0100
0000
0000
0001
0010
0000
,
0100
1000
1000
0001
,
1000
0000
0000
0000
1001
0000
0000
0000
0001
0000
0010
0000
0100
1000
0100
0000
,
1000
0000
0001
0100
0001
0100
0001
0000
0100
0000
0010
1000
0010
1000
0010
0000
,
1000
0000
0001
0010
0100
0000
1000
0000
0001
0000
1000
0010
1000
0010
1000
0000
,
0001
0000
0100
0001
1000
0000
0001
0000
0010
0000
0100
1000
0100
1000
0100
0000
,
0010
0001
0100
0010
1000
0000
0000
0000
0000
0000
0000
0000
2000
0000
3001
0000
,
0200
0310
0200
0300
0200
0301
0020
0130
,
0020
0130
2000
3000
0000
0002
0103
0010
,
0200
0301
0020
0030
0020
0031
2000
3100
,
0020
0031
2001
3000
0000
0002
0003
1000
,
0020
0130
0100
0000
0002
0103
0002
0013
,
0200
1300
0002
0003
0000
0002
0103
0000
,
0020
0030
0200
0300
0020
0030
2000
3000
,
0200
0300
1001
0000
0000
0000
0000
0000
,
0000
MMM0
0000
0000
,
0000
0000
0000
0000
0001
1000
0001
1000
0100
0010
0001
1000
0002
0000
0000
0000
,
0203
0000
0000
0000
0310
1000
0001
1000
0100
0010
0001
1000
0001
1000
0010
0100
,
0001
1000
0100
0010
0002
0000
1000
0000
1003
0010
0100
0001
1000
0100
0010
0001
,
1000
0000
0001
0000
0100
0010
0100
0001
1000
0100
0010
0001
0020
0000
0130
0000
,
2000
0000
3001
0000
0200
0000
0301
0000
0010
0001
1000
0001
0020
0000
0130
0000
,
2000
0000
3001
0100
0020
0000
1030
0000
0001
1000
0100
0010
0001
0000
0010
0000
,
0100
0000
1000
0000
0001
1000
0001
0100
0010
0100
0001
1000
0200
0000
0310
0000
,
0001
0000
1000
0001
1000
0001
0100
0010
0100
0001
1000
0100
0010
0001
0010
0100
,
2000
0000
3010
0000
0000
1000
0001
0000
,
1100
0000
1000
0001
0000
1000
0010
0000
,
1001
0000
0001
0000
0000
1000
0100
0000
,
1100
0000
0000
0000
1000
0000
0100
0000
0000
0000
0100
0010
0001
0000
0000
0000
,
0001
0000
0101
0000
0000
0100
0010
0000
,
1000
0000
0000
0000
0000
0000
0000
0000
1000
0000
0000
0001
0100
0000
0000
0000
,
0010
0000
1000
0000
0000
0100
0010
0000
,
0100
0000
0000
0000
1000
0000
0001
0000
0000
0000
0001
0000
0100
0001
1000
0001
,
0100
0000
0010
0000
0000
1000
0100
0000
,
0010
0000
0001
1000
0000
0100
0010
0000
,
0001
0000
0010
0000
0000
0001
1000
0000
,
0001
0000
0000
0000
0100
0000
0010
0000
0000
0000
0010
0100
0001
0000
0000
0000
,
0001
0000
1000
0000
0000
0100
1000
0000
,
0001
0000
0000
0000
0000
0000
0000
0000
1000
0000
0000
0001
0010
0000
0000
0000
,
0100
0000
1000
0100
0010
0001
1000
0001
,
0100
0010
0100
0001
1000
0100
1000
0000
,
0000
1001
0000
0000
,
0000
0000
0000
0000
0001
0000
1000
0000
0001
1000
0000
0001
1000
0100
0010
0001
,
1000
0100
0010
0001
1000
0001
1000
0001
0010
0100
1000
0001
2000
0000
0000
0000
,
3020
0000
0000
0000
0130
0001
1000
0001
0010
0100
1000
0001
1000
0001
0100
0010
,
1000
0001
0010
0100
2000
0000
0001
0000
3001
0100
0010
1000
0001
0010
0100
1000
,
0001
0000
1000
0000
0010
0100
0010
1000
0001
0010
0100
1000
0200
0000
0310
0000
,
0002
0000
1003
0000
0020
0000
1030
0000
0100
1000
0001
1000
0200
0000
0310
0000
,
0002
0000
1003
0010
0200
0000
0301
0000
1000
0001
0010
0100
1000
0000
0100
0000
,
0010
0000
0001
0000
1000
0001
1000
0010
0100
0010
1000
0001
0020
0000
0130
0000
,
1000
0000
0001
1000
0001
1000
0010
0100
0010
1000
0001
0010
0100
1000
0100
0010
,
0002
0000
1003
0000
0000
0001
0000
0001
,
0000
1000
0100
0000
0000
1000
0000
1000
,
0001
1000
0001
1000
0001
0000
0000
0000
1000
0000
0001
0000
0000
0000
0001
0000
,
0000
0000
0100
0000
0010
0000
0000
0000
0000
0000
1000
0000
0001
1000
0001
1000
,
0100
0010
0001
0010
0100
1000
0001
0100
0010
1000
0001
0000
1000
0010
0100
0000
,
0001
0000
0010
0000
0100
0000
1000
0000
0400
0010
0304
0010
0103
0000
1000
0000
,
0100
0000
0010
0000
0001
0010
0100
1000
0001
1000
0001
0000
0100
0010
1000
0000
,
0100
0000
0010
0000
0001
0000
1000
0000
0004
0100
0043
0100
0031
0000
0100
0000
,
0001
0000
0010
0000
0100
1000
0100
0010
0001
0100
0010
0100
0001
1000
0100
0010
,
0001
1000
0100
0010
0001
0010
0100
1000
0001
0100
0001
1000
0010
0100
0010
1000
,
0001
1000
0100
0010
0001
0010
0100
1000
0001
1000
0001
0010
0100
1000
0001
1000
,
0010
0100
0010
1000
0001
0100
0010
1000
0001
0100
0010
1000
0001
0100
0010
0100
,
0001
1000
0001
1000
0000
0000
0000
0000
0000
0000
0000
0000
0000
0000
0000
0000
,
0000
0000
0000
0000
,
0000
0000
0000
0000
,
0000
0000
0000
0000
,
0000
0000
0000
0000
,
0000
0000
0000
0000
,
0000
0000
0000
0000
,
0000
0000
2000
0000
3001
0010
0101
0010
,
0001
0100
0012
0000
1003
0001
1100
0001
,
1000
0001
2010
0000
3001
1000
0011
1000
,
0001
0010
0102
0000
1003
0001
1100
0001
,
1000
0001
2010
0000
3001
1000
0011
1000
,
0001
0010
0102
0000
1003
0001
1010
0001
,
1000
0010
2100
0000
3001
1000
0101
1000
,
0001
1000
0012
0000
1003
0001
1010
0001
,
1000
0010
2100
0000
3000
0000
0000
0000
,
0000
0000
1001
0000
0000
0001
0100
0000
,
0010
0000
1000
0001
0000
0001
1000
0000
,
0100
0000
0110
0000
0000
0010
0001
0000
,
1000
0000
0000
0000
0001
0000
0100
0000
0000
0000
0100
0001
1000
0000
0000
0000
,
1000
0000
1001
0000
0000
0001
0010
0000
,
0001
0000
0000
0000
0000
0000
0000
0000
1000
0000
0000
0100
0010
0000
0000
0000
,
0001
0000
1000
0000
0000
0001
1000
0000
,
0010
0000
0000
0000
0100
0000
0010
0000
0000
0000
0100
0000
0001
1000
0100
1000
,
0001
0000
1100
0000
0000
1000
0001
0000
,
1000
0000
0001
0010
0000
0010
0100
0000
,
1000
0000
1001
0000
0000
0001
0100
0000
,
0010
0000
0000
0000
0100
0000
0001
0000
0000
0000
0001
1000
0100
0000
0000
0000
,
0100
0000
0010
0000
0000
0001
1000
0000
,
0010
0000
0000
0000
0000
0000
0000
0000
1000
0000
0000
0001
0100
0000
0000
0000
,
0001
0000
1000
0100
0010
0001
1000
0001
,
0100
0010
1000
0001
0010
0001
1000
0000
,
0000
0000
0001
0100
0010
1000
0010
0100
,
0001
0000
1000
0100
0010
0000
0001
0000
0100
0000
0010
0000
1000
0000
0100
0000
,
0010
0100
1000
0010
0100
0001
1000
0100
,
0010
0000
0001
1000
0001
0100
0010
0100
0001
0010
0100
1000
0010
0000
0100
0000
,
0001
0100
0010
1000
0100
0010
0001
0010
,
0100
0000
1000
0001
0100
0000
0010
0000
1000
0000
0100
0000
0010
0000
0001
0000
,
0100
0010
1000
0001
0010
0100
1000
0100
,
0010
0000
0001
0010
0100
1000
0001
0100
0010
1000
0100
0010
0002
0000
0000
0000
,
1003
0000
1001
0000
0000
0001
1000
0000
,
0100
0000
0010
0001
0000
1000
0001
0000
,
0100
0000
0010
0000
0000
1000
0001
0000
,
0010
0000
0001
0010
0000
0100
1000
0000
,
0001
0000
0100
0000
0000
0010
1000
0000
,
0001
0000
0000
0000
0000
0000
0000
0000
1000
0000
0000
0010
0100
0000
0000
0000
,
0001
0000
0010
0000
0000
0100
1000
0000
,
0100
0000
0010
0001
0000
1000
0001
0000
,
0100
0000
0010
0000
0000
1000
0001
0000
,
0100
0000
0001
0010
0000
0100
1000
0000
,
0001
0000
0100
0000
0000
0010
1000
0000
,
0001
0000
1000
0010
0000
0100
0001
0000
,
0010
0000
0001
0000
0000
0100
0010
0000
,
1000
0000
0000
0000
0000
0000
0000
0000
0001
0000
0000
0010
0100
0000
0000
0000
,
1000
0000
0001
0000
0000
0100
0010
0000
,
1000
0000
0000
0000
0001
0000
0100
0000
0000
0000
0001
0000
1000
0000
0000
1000
,
0010
1001
0000
0000
,
0000
0000
0000
0000
,
0000
0000
0000
0000
,
0000
0000
0000
0000
0001
1000
0001
1000
0100
0010
0001
1000
0002
0000
0000
0000
,
0203
0000
0000
0000
0310
1000
0001
1000
0100
0010
0001
1000
0001
1000
0010
0100
,
0001
1000
0100
0010
0002
0000
1000
0000
1003
0010
0100
0001
1000
0100
0010
0001
,
1000
0000
0001
0000
0100
0010
0100
0001
1000
0100
0010
0001
0020
0000
0130
0000
,
2000
0000
3001
0000
0200
0000
0301
0000
0010
0001
1000
0001
0020
0000
0130
0000
,
2000
0000
3001
0100
0020
0000
1030
0000
0001
1000
0100
0010
0001
0000
0010
0000
,
0100
0000
1000
0000
0001
1000
0001
0100
0010
0100
0001
1000
0200
0000
0310
0000
,
0001
0000
1000
0001
1000
0001
0100
0010
0100
0001
1000
0100
2000
0000
0000
0000
,
0000
0000
3000
0000
0001
1000
0001
1000
0100
0010
0001
1000
0002
0000
0000
0000
,
0203
0000
0000
0000
0310
1000
0001
1000
0100
0010
0001
1000
0001
1000
0010
0100
,
0001
1000
0100
0010
0002
0000
1000
0000
1003
0010
0100
0001
1000
0100
0010
0001
,
1000
0000
0001
0000
0100
0010
0100
0001
1000
0100
0010
0001
0020
0000
0130
0000
,
2000
0000
3001
0000
0100
0001
1000
0010
0100
0001
0010
0100
1000
0000
0100
0000
,
0010
0000
0001
0010
0100
1000
0001
1000
0010
0100
0001
1000
0100
0000
0010
0000
,
0001
0000
1000
0000
0001
0100
0010
0100
0001
1000
0010
1000
0100
0010
0001
1000
,
0100
0010
0001
1000
0001
0100
0010
1000
0100
0010
0001
1000
0004
0000
0000
0000
,
1003
0100
2002
0000
0000
0000
3MM3
0000
;
