#TITLE:<><><><>..Twisted..<><><><>;
#SUBTITLE:Johan Gielen & Svenson Trance Energy;
#ARTIST:SPREAD159 YEAH2 XDXDXD;
#TITLETRANSLIT:;
#SUBTITLETRANSLIT:;
#ARTISTTRANSLIT:;
#CREDIT:;
#BANNER:Johan Gielen & Svenson - Twisted,.bmp;
#BACKGROUND:Johan Gielen & Svenson - Twisted.24.bmp;
#LYRICSPATH:;
#CDTITLE:cdtitle.png;
#MUSIC:Johan Gielen & Svenson - Twisted mp3.mp3;
#OFFSET:-1.600;
#SAMPLESTART:29.620;
#SAMPLELENGTH:12.000;
#SELECTABLE:YES;
#BPMS:0.000=144.650;
#STOPS:;
#BGCHANGES:;
// cache tags:
#FIRSTBEAT:0.000;
#LASTBEAT:491.000;
#SONGFILENAME:Songs/Definitive Keyboard Megapack/Twisted - Johan Gielen & Svenson(Disregard159)/Johan Gielen & Svenson - Twisted.sm.sm;
#HASMUSIC:1;
#HASBANNER:1;
#MUSICLENGTH:205.278;
// end cache tags

//---------------dance-single - ----------------
#NOTES:
     dance-single:
     :
     Beginner:
     15:
     1.000,1.000,1.000,1.000,1.000,2033.000,671.000,1143.000,0.000,254.000:

2222
0000
0033
0022
,
0033
0000
0000
0000
0000
0000
0000
0000
0000
0000
0000
0000
3300
0000
0000
2200
,
0000
3300
0000
0000
0000
0000
0000
0000
0022
0033
0000
0000
0000
0000
0000
2200
,
3300
0000
0022
0033
0000
2200
3300
0000
0022
0033
2200
3322
2233
3322
2233
3322
,
2233
0000
0000
3322
0000
0000
2233
0000
0000
3322
0000
0000
2233
0000
0000
3322
0000
0000
2233
0000
0000
3322
0000
0000
2233
0000
0000
3322
0000
0000
2233
0000
0000
3322
0000
0000
2233
0000
0000
3322
0000
0000
2233
0000
3322
0000
2233
0000
,
3322
2233
3322
2233
3322
2233
3322
2233
3322
2233
3322
2233
3322
2233
3322
2233
3322
2233
3322
2233
3322
2233
3322
2233
,
3322
2233
3322
2233
3322
2233
3322
2233
3322
2233
3322
0033
1111
1000
0100
0010
0001
0100
0010
1000
0100
1000
0100
0010
,
0100
1000
0010
0100
0001
0010
1000
0100
0010
0100
1000
0010
0100
0010
1002
0013
0100
1000
0100
0010
0100
0001
0010
1000
,
0100
1000
0010
0001
0010
0100
1000
0100
1000
0010
0100
0010
0100
0001
2010
3001
0010
0100
0010
0100
1000
0100
1000
0010
,
0100
0010
0100
0001
0010
0001
0010
0100
1000
0100
1000
0100
0010
1000
0220
0331
1000
0100
0010
1000
0100
1000
0100
0010
,
0100
0010
0100
0001
0010
0001
0010
0100
0010
0100
1000
0100
1000
0001
0220
1330
0001
0100
0010
0100
1000
0010
0100
0010
,
0001
0010
1000
0100
1000
0010
0100
0010
0001
0100
0010
1000
0100
0001
0220
1330
0100
0010
0100
1000
0010
0100
0001
0010
,
1000
0100
0010
0001
0010
0100
1000
0100
0010
0001
0100
1000
0010
0001
0220
2330
3200
0320
0230
0302
0023
2030
3200
0320
,
0230
0302
2003
3200
0320
0230
2300
3020
0230
0302
0023
2030
3200
0320
2030
3200
2300
3020
0032
0023
0230
0320
2030
3200
,
0320
0230
0302
0023
0230
2300
3200
2300
3020
0032
2003
3002
0223
2330
3100
0010
0100
0010
1000
0100
0010
0100
1000
0100
,
0010
0001
0010
1000
0100
0010
0100
1000
0001
0010
0100
1000
0001
1000
0220
0331
1000
0100
0010
0100
1000
0001
0100
0010
,
1000
0100
0001
0010
0100
1000
0100
0010
1000
0100
1000
0100
0010
0100
0010
0100
0001
0010
0001
0010
1000
0100
1000
0001
,
0220
1330
0001
0100
0010
0100
0001
1000
0001
1000
0010
1000
0010
0100
0010
0001
0010
0100
0001
0100
0010
1000
0010
1000
,
0202
0313
1000
0100
0010
1000
0010
0100
0010
0100
1000
0001
1000
0001
0100
0010
0100
0010
0001
1000
0100
0010
1000
0001
,
0220
1330
0100
1000
0100
1000
0100
0010
0100
0010
0100
0001
0010
0001
0010
0100
0010
1000
0100
1000
0010
0100
0001
1000
,
0220
0331
1000
0010
0100
0010
0100
1000
0001
1000
0010
0100
1000
0100
1000
0100
0010
0001
0010
0001
0100
0010
1000
0001
,
0220
2330
3200
0320
0230
2300
3020
0230
0302
0023
2030
3200
0320
0230
2300
3020
0230
0302
0023
0230
2300
3002
2003
3002
,
0223
2330
3002
0203
0320
2030
3200
0302
0203
2300
3200
2300
3020
0032
0203
2300
3020
0032
0203
2300
3020
0230
0302
0003
,
0111
1000
0100
0010
0001
0010
0100
1000
0100
0010
0001
0010
0100
1000
0100
0010
,
0001
0010
0100
1000
0100
0010
0001
0010
0100
1000
0100
0010
0001
0010
0100
1000
,
0100
0010
0001
0010
0100
1000
0100
0010
0001
0010
0100
1000
0100
0010
0001
0010
,
0100
1000
0100
0010
0001
0010
0100
1000
0100
0010
0001
0010
0100
1000
0100
0010
,
0001
0010
0100
1000
0100
0010
0001
0010
0100
1000
0100
0010
0001
0010
0100
1000
,
0100
0010
0001
0010
0100
1000
0100
0010
0001
0010
0100
1000
0100
0010
0001
0010
,
0100
1000
0100
0010
0001
0010
0100
1000
0100
0010
0001
0010
0100
1000
0100
0010
,
0001
0000
0000
0010
0000
0000
0100
0000
0000
1000
0000
0000
0100
0000
0000
0010
0000
0000
0001
0000
0000
0010
0100
0000
1000
0000
0100
0000
0010
0000
0001
0000
0010
0000
0100
0000
1000
0000
0100
0000
0010
0000
0001
0000
0010
0000
0100
0000
,
1011
0100
1010
0100
0011
0100
1010
0101
0010
1100
0010
0101
0010
1101
0010
0101
,
1010
0101
0010
1100
0010
0101
1010
0101
0010
1101
0010
0101
1010
0101
1010
0101
,
1010
0100
0011
0100
1011
0100
1011
0100
0010
1101
0010
0101
0010
1100
0010
1101
,
0010
0100
1011
0100
1011
0100
1011
0100
1010
0101
1000
0111
1000
0101
1010
0000
,
0111
1000
0110
0001
1110
0001
1100
0010
1100
0011
0100
1000
0111
1000
0011
0100
,
1011
0100
1001
0010
1101
0010
1100
0001
1100
0011
1100
0010
1101
0010
1001
0100
,
2022
0000
0000
0000
0000
0000
3030
0000
0003
0000
0000
0000
0200
0000
0000
0000
0000
0000
0300
0000
0000
0000
0000
0000
2010
0000
0000
0000
0000
0000
3000
0000
0000
0000
0000
0000
0200
0000
0000
0000
0000
0000
0300
0000
0000
0000
0000
0000
2022
0000
0000
0000
0000
0000
3033
0000
0000
0000
0000
0000
0200
0000
0000
0000
0000
0000
0300
0000
0000
0000
0000
0000
0022
0000
0000
0000
0000
0000
0033
0000
0000
0000
0000
0000
2000
0000
0000
0000
0000
0000
3000
0000
0000
0000
0000
0000
0220
0000
0000
0000
0000
0000
0330
0000
0000
0000
0000
0000
2002
0000
0000
0000
0000
0000
3003
0000
0000
0000
0000
0000
0020
0000
0000
0000
0000
0000
0030
0000
0000
0000
0000
0000
0200
0000
0000
0000
0000
0000
0300
0000
0000
0000
0000
0000
2022
0000
0000
0000
0000
0000
3033
0000
0000
0000
0000
0000
0200
0000
0000
0000
0000
0000
0300
0000
0000
0000
0000
0000
1020
0000
0000
0000
0000
0000
0030
0000
0000
0000
0000
0000
0002
0000
0000
0000
0000
0000
0003
0000
0000
0000
0000
0000
,
2210
3300
0002
0003
2200
3300
0020
0030
2201
3300
0020
0030
2002
3003
0200
0300
2020
3030
0201
0300
2020
3030
0002
0003
2220
3330
0002
0003
2200
3300
0020
0030
,
2202
3303
0010
0000
1100
0000
0001
0000
1110
0000
0001
0000
1100
0000
0010
0000
1100
0000
0011
0000
1100
0000
0010
0000
1101
0000
0010
0000
0101
0000
1000
0000
,
0111
1000
0101
0010
1101
0010
1100
0001
1010
0101
1010
0100
1011
0100
0011
0100
,
1011
0100
1010
0100
1011
0100
0011
1000
0110
1001
0010
0100
1011
0100
1010
0001
,
1110
0001
1100
0010
1101
0010
1001
0100
1010
0101
1010
0100
1011
0100
0011
0100
,
1011
0100
1010
0001
1110
0001
1100
0010
1100
0011
0100
1000
0111
1000
0011
0100
,
1011
0100
1001
0010
1101
0010
1100
0001
1100
0011
1100
0010
1101
0010
1001
0100
,
2022
3033
0200
0300
2020
3030
0200
0300
2022
3033
0200
0300
0022
0033
2000
3000
0220
0330
2002
3003
0020
0030
0200
0300
2022
3033
0200
0300
2020
3030
0002
0003
,
2220
3330
0002
0003
2200
3300
0020
0030
2202
3303
0020
0030
2002
3003
0200
0300
2020
3030
0202
0303
2020
3030
0002
0003
2220
3330
0002
0003
2200
3300
0020
0030
,
2202
3303
0010
0000
1100
0000
0001
0000
1110
0000
0001
0000
1100
0000
0010
0000
1100
0000
0011
0000
1100
0000
0010
0000
1101
0000
0010
0000
0101
0000
1000
0000
,
0111
1000
0101
0010
1101
0010
1100
0001
1010
0101
1010
0100
1011
0100
0011
0100
,
1011
0100
1010
0100
1011
0100
0011
1000
0110
1001
0010
0100
1011
0100
1010
0001
,
1110
0001
1100
0010
1101
0010
1001
0100
1010
0101
0010
1100
0011
1000
0101
1010
,
0101
1000
0110
0001
1110
0001
1100
0010
1100
0011
0100
1000
0111
1000
0011
0100
,
1011
0100
1001
0010
1101
0010
1100
0001
1100
0011
1100
0010
1101
0010
1001
0100
,
2022
3033
0200
0300
2020
3030
0200
0300
2022
3033
0200
0300
0022
0033
2000
3000
0220
0330
2002
3003
0020
0030
0200
0300
2022
3033
0200
0300
2020
3030
0002
0003
,
2220
3330
0002
0003
2200
3300
0020
0030
2202
3303
0020
0030
2002
3003
0200
0300
2020
3030
0202
0303
2020
3030
0002
0003
2220
3330
0002
0003
2200
3300
0020
0030
,
1102
0013
1100
0001
1110
0001
1100
0010
1100
0011
1100
0010
1101
0010
0101
1000
,
0111
1000
0101
0010
1101
0010
1100
0001
1010
0101
1010
0100
1011
0100
0011
0100
,
1011
0100
1010
0100
1011
0100
0011
1000
0110
1001
0010
0100
1011
0100
1010
0001
,
1110
0001
1100
0010
1101
0010
1001
0100
1010
0101
1010
0100
1011
0100
0011
0100
,
1011
0100
1010
0001
1110
0001
1100
0010
1100
0011
0100
1000
0111
1000
0011
0100
,
1011
0100
1001
0010
1101
0010
1100
0001
1100
0011
1100
0010
1101
0010
1001
0100
,
1011
0100
1010
0100
1011
0100
0011
1000
0110
1001
0010
0100
1011
0100
1010
0001
,
1110
0001
1100
0010
1101
0010
1001
0100
1010
0101
1010
0001
1110
0001
1100
0010
,
1101
0010
1100
0001
1110
0001
1100
0010
1100
0011
1100
0010
1101
0010
0101
1000
,
0111
1000
0101
0010
1101
0010
1100
0001
1010
0101
1010
0100
1011
0100
0011
0100
,
1011
0100
1010
0100
1011
0100
0011
1000
0110
1001
0010
0100
1011
0100
1010
0001
,
0110
1000
0101
0010
1001
0100
1010
0101
0010
1101
0010
1100
0011
0100
1011
0100
,
1011
0100
0011
1000
0111
1000
0011
0100
1010
0101
1010
0001
1100
0010
0101
0010
,
1101
0000
1110
0001
0110
1000
0011
0100
1000
0001
0110
1000
0011
0100
1010
0001
,
1110
0001
1010
0100
1010
0001
1110
0001
1100
0010
1100
0011
1100
0010
0101
1010
,
0200
0320
0032
0023
0230
2300
3200
0320
0032
0023
0230
2300
3200
0320
0032
0023
0230
2300
3200
0320
0032
2003
3200
0320
,
1130
0011
1100
0011
1100
0011
1000
0100
1010
0001
1010
0001
0110
1000
0110
0001
,
1100
0010
0001
1100
0010
1001
0100
0011
1100
0010
0101
1000
0001
0100
0011
1000
,
0111
1000
0001
1000
0110
1000
0001
0100
1011
0100
0001
1000
0011
0100
1000
0001
,
1110
0001
0110
1000
0111
1000
0011
0100
1011
0100
0010
1100
0011
1000
0101
1000
,
0222
0333
2000
3000
0202
0303
2000
3000
0222
0333
2000
3000
0022
0033
0200
0300
2020
3030
0202
0303
0020
0030
0002
0003
2200
3300
0022
0033
2000
3000
0222
0333
,
2000
3000
0022
0033
2200
3300
0002
0003
0220
0330
2000
3000
0022
0033
0200
0300
2000
3000
0002
0003
0220
0330
2000
3000
0022
0033
0200
0300
2000
3000
0002
0003
,
2220
3330
0002
0003
2020
3030
0200
0300
0020
0030
0002
0003
2200
3300
0022
0033
2000
3000
0020
0030
0200
0300
0022
0033
2200
3300
0020
0030
0202
0303
0020
0030
,
2202
3303
0020
0030
2200
3300
0002
0003
0220
0330
2000
3000
0022
0033
2200
3300
0022
0033
0200
0300
2000
3000
0022
0033
2200
3300
0020
0030
2200
3300
0002
0003
,
2220
3330
0001
0000
1000
0000
0100
0000
1010
0000
0001
0000
1100
0000
0010
0000
0101
0000
0010
0000
1100
0000
0001
0000
0110
0000
1000
0000
0110
0000
0001
0000
,
1100
0010
0001
0100
1010
0001
0110
0001
1100
0010
0101
1010
0001
0100
0011
1000
,
0111
1000
0011
1000
0110
1000
0011
0100
1011
0100
0001
1100
0011
0100
1000
0001
,
1110
0001
0110
1000
0111
1000
0011
0100
1011
0100
1010
0100
1011
0100
0011
1000
,
0222
0333
2000
3000
0022
0033
0200
0300
2022
3033
0200
0300
0022
0033
0200
0300
2020
3030
0202
0303
0020
0030
0002
0003
2200
3302
0023
2030
3200
0300
0000
0000
,
0211
0300
0000
0000
2220
3330
0002
0003
0220
0330
2000
3000
0022
0033
0200
0300
2000
3000
0002
0003
0220
0330
2000
3000
0022
0033
0200
0300
2000
3000
0002
0003
,
2220
3330
0002
0003
2020
3030
0202
0303
2020
3030
0002
0003
2200
3300
0002
0003
2200
3300
0020
0030
0200
0300
0002
0003
2200
3300
0020
0030
0202
0303
0020
0030
,
2002
3003
0220
0330
2000
3000
0002
0003
0220
0330
2000
3000
0002
0003
0220
0330
2002
3003
0200
0300
2020
3030
0002
0003
2200
3300
0020
0030
2200
3300
0002
0003
,
2220
3330
0001
0000
1000
0000
0100
0000
1010
0000
0001
0000
1100
0000
0010
0000
0101
0000
0010
0000
1100
0000
0001
0000
0110
0000
1000
0000
0010
0000
0001
0000
,
1100
0010
0001
0100
1011
0100
0010
0001
1110
0001
0110
1000
0101
0010
1001
0100
,
1011
0100
0011
1000
0110
1000
0011
0100
1011
0100
0001
1110
0001
0110
1000
0101
,
1010
0100
1010
0001
1100
0011
0100
0001
1010
0101
0010
0001
1100
0011
0100
0001
,
2220
3330
0002
0003
2020
3030
0200
0300
2022
3033
0200
0300
0022
0033
2000
3000
0220
0330
2002
3003
0220
0330
2000
3000
0222
0333
2000
3000
0022
0033
0200
0300
,
2022
3033
0200
0300
2002
3003
0020
0030
2202
3303
0020
0030
2200
3300
0002
0003
2200
3300
0022
0033
0200
0300
2000
3000
0222
0333
2000
3000
0022
0033
0200
0300
,
2022
3033
0200
0300
2020
3030
0200
0300
2022
3033
0200
0300
0022
0033
2000
3000
0220
0330
2002
3003
0020
0030
0200
0300
2022
3033
0200
0300
2020
3030
0002
0003
,
2220
3330
0002
0003
2200
3300
0020
0030
2202
3303
0020
0030
2002
3003
0200
0300
2020
3030
0202
0303
0020
0030
2000
3000
0222
0333
2000
3000
0022
0033
0200
0300
,
1012
0003
0100
0000
1010
0000
0100
0000
1011
0000
0100
0000
1001
0000
0100
0000
0011
0000
1100
0000
0010
0000
0100
0000
1011
0000
0100
0000
0011
0000
0100
0000
,
1011
0100
1010
0001
1110
0001
1010
0100
1001
0110
1000
0001
1110
0001
1010
0100
,
1011
0100
1010
0100
1011
0100
0011
1000
0110
1001
0010
0100
1011
0100
1010
0001
,
1110
0001
1100
0010
1101
0010
1001
0100
1010
0100
1010
0101
1010
0101
1010
0101
,
2020
3030
0002
0003
2200
3300
0002
0003
2220
3330
0002
0003
2200
3300
0020
0030
2200
3300
0022
0033
0200
0300
2000
3000
0222
0333
2000
3000
0022
0033
0200
0300
,
2022
3033
0200
0300
2002
3003
0020
0030
2202
3303
0020
0030
2200
3300
0002
0003
2200
3300
0022
0033
0200
0300
2000
3000
0222
0333
2000
3000
0022
0033
0200
0300
,
2022
3033
0200
0300
2020
3030
0200
0300
2022
3033
0200
0300
0022
0033
2000
3000
0220
0330
2002
3003
0020
0030
0200
0300
2022
3033
0200
0300
2020
3030
0002
0003
,
2220
3330
0002
0003
2200
3300
0020
0030
2202
3303
0020
0030
2002
3003
0200
0300
2020
3030
0202
0303
0020
0030
2000
3000
0222
0333
2000
3000
0200
0300
1111
0000
,
0000
0000
0000
1111
0000
0000
2000
0000
3200
0000
0320
0000
0230
0000
0302
0000
0023
0000
2030
0000
3200
0000
0320
0000
0230
0000
2300
0000
3020
0000
0032
0000
0023
0000
0230
0000
2300
0000
3200
0000
2300
0000
3200
0000
0320
0000
0230
0000
,
0320
0230
2300
3200
0320
0032
0023
0230
2300
3200
0320
0230
0302
0023
0230
2300
3020
0230
0302
0023
2030
3200
0320
0032
,
0023
0230
2300
3200
0320
0032
2003
3200
0320
0032
0023
0230
2300
3002
0023
0230
2300
3200
0320
0230
2300
3002
0203
0320
,
2030
3200
2300
3020
0230
0302
0203
0320
2030
3200
0302
0023
0230
2300
3002
0023
0230
2300
3200
2300
3020
0230
0302
0023
,
0230
2300
3020
0230
0302
0023
2030
3002
0203
0320
2030
3200
0320
0230
2300
3002
0023
0230
0302
2003
3020
0230
0302
0023
,
2030
3200
0320
2030
3200
0302
0023
0032
0203
2300
3200
2300
3020
0230
0302
0023
0230
2300
3200
2300
3020
0032
0023
0230
,
0320
2030
3200
0320
0230
2300
3002
0023
0230
0302
2003
3200
0320
0230
2300
3020
0230
0302
0023
2030
3200
2300
3020
0230
,
0302
0023
0032
0023
0230
2300
3200
0320
0032
0023
0230
2300
3200
0320
0032
0023
0230
2300
3020
0230
0302
0023
2030
3200
,
2300
3020
0230
0302
0023
2030
3200
0320
0230
0302
0023
2030
3200
0320
0230
0302
,
0023
2030
3200
0320
2030
3002
0023
0230
2300
3200
0320
0032
2003
3200
0320
2032
,
3203
2300
3020
0230
0302
0023
2030
3200
0320
0230
2300
3020
0230
0302
0023
0230
,
2300
3020
0230
0302
0023
2030
3200
0320
0032
0203
0320
0230
,
0302
0023
2030
3200
0320
0230
2300
3020
0230
0320
2030
3200
,
0302
0000
0023
0000
0230
0000
2300
0000
0000
3020
0000
0000
0230
0000
0000
0302
0000
0000
0023
0000
0000
0230
0000
0000
,
2300
0000
3020
0030
0000
0000
0000
0020
0000
0000
0030
0200
0000
0002
0000
0300
,
0000
2000
0003
0000
0000
3000
0020
0000
0000
0030
0000
0200
0000
0320
0030
0000
,
2222
0000
0000
0000
,
0000
0000
0000
0000
,
0000
0000
0000
0000
,
0000
0000
0000
3333
;
