#TITLE:AM-3P;
#SUBTITLE:(AM EAST mix);
#ARTIST:KTz;
#TITLETRANSLIT:;
#SUBTITLETRANSLIT:;
#ARTISTTRANSLIT:;
#CREDIT:;
#BANNER:ddjjs.banner.jpg;
#BACKGROUND:dddj.bg.jpg;
#LYRICSPATH:;
#CDTITLE:CDTITLE.jpg;
#MUSIC:AM-3P (AM EAST mix).mp3;
#OFFSET:-1.757;
#SAMPLESTART:58.600;
#SAMPLELENGTH:12.000;
#SELECTABLE:YES;
#DISPLAYBPM:140.000;
#BPMS:0.000=140.000;
#STOPS:;
#BGCHANGES:;
// cache tags:
#FIRSTBEAT:8.000;
#LASTBEAT:214.500;
#SONGFILENAME:Songs/Definitive Keyboard Megapack/AM-3P (AM EAST mix)(Leone510)/AM-3P (AM EAST mix).sm;
#HASMUSIC:1;
#HASBANNER:1;
#MUSICLENGTH:98.070;
// end cache tags

//---------------dance-single - ----------------
#NOTES:
     dance-single:
     :
     Hard:
     10:
     0.813,0.875,1.000,0.173,0.474,392.000,149.000,17.000,0.000,7.000:
0000
0000
0000
0000
,
0000
0000
0000
0000
,
1010
0000
1100
0001
1010
0000
1001
0000
,
0002
0000
0010
0000
0100
0000
0100
0000
1013
0000
0100
0001
1010
0001
0100
0000
,
1000
0100
1010
0001
1000
0100
1010
0001
,
1000
0010
1100
0001
0010
0100
1010
0100
,
0001
0010
1100
0010
0001
0010
1100
0010
,
1000
0000
0010
0000
1001
0000
0100
0010
1000
0010
0100
0001
1010
0001
0010
0100
,
2000
0000
0000
0100
0000
0000
0001
0000
0000
0000
0000
0000
3200
0000
0000
0000
,
0302
0000
0000
0010
0000
0000
0100
0000
0000
0000
0000
0000
0203
0000
0000
0000
,
2310
0000
0000
0000
0000
0000
0001
0000
0000
0000
0000
0000
0100
0000
0000
0000
0000
0000
3001
0000
0000
0000
0000
0000
0000
0010
0000
0000
0000
0100
0000
0000
,
0000
0010
1000
0110
,
1002
1000
1103
0000
2001
0001
3101
0000
,
1100
0010
0110
0001
1001
0100
1010
0000
,
0102
1000
0113
0000
1002
1000
0113
0000
,
1010
0000
0001
0000
1100
0000
0010
0100
0000
0100
0010
0000
1001
0000
0100
0000
,
0011
0100
1001
0100
1010
0001
0110
0100
,
1001
0100
1010
0001
0110
1000
0101
0001
,
1010
0100
1001
0000
1100
0010
1001
0000
,
1001
0100
1010
0010
0110
0100
0101
1000
,
0011
0000
0000
1001
0000
0000
0101
0000
0000
1000
0100
0000
0011
0000
0110
0000
,
1001
0000
0000
1010
0000
0000
1001
0000
0000
0010
0100
0000
1100
0000
0101
0000
,
1001
0000
0000
0110
0000
0000
0011
0000
0000
0100
0001
0000
1100
0000
0110
0000
,
1000
0100
0000
0010
0100
0000
0100
0010
0000
0100
0011
0000
0000
0000
0000
0000
,
0011
0000
0000
1001
0000
0000
0101
0000
0000
1000
0100
0000
0011
0000
0110
0000
,
1001
0000
0000
1010
0000
0000
1001
0000
0000
0010
0100
0000
1100
0000
0101
0000
,
1001
0000
0000
0110
0000
0000
0011
0000
0000
0100
0001
0000
1100
0000
0110
0000
,
1000
0100
0000
0010
0100
0000
0100
0010
0000
0100
0011
1000
0100
0010
1000
0001
,
1010
0000
0001
0000
1010
0000
0100
0000
0101
0000
0010
0000
0110
0000
1000
0010
,
0001
0000
1000
0000
0011
0000
1000
0000
0110
0000
0100
0000
1010
0000
0010
0001
,
0100
0000
1000
0000
0110
0000
0001
0000
1010
0000
0001
0000
1100
0000
0001
0010
,
0100
0000
0001
0000
1010
0000
0100
0000
0011
0000
1000
0000
0110
0000
0001
0100
,
1010
0000
0001
0000
1010
0000
0100
0000
0101
0000
0010
0000
0110
0000
1000
0010
,
0001
0000
1000
0000
0011
0000
1000
0000
0110
0000
0100
0000
1010
0000
0010
0001
,
0100
0000
1000
0000
0110
0000
0001
0000
1010
0000
0001
0000
1100
0000
0001
0010
,
0100
0000
0001
0000
1010
0000
0100
0000
0011
0000
1000
0000
0110
0000
0001
0010
,
0002
0000
0010
0203
,
2300
0000
0000
3002
0000
0000
0100
0000
,
2013
0000
0000
0000
0000
0000
0100
0000
0000
0000
0000
0000
3010
0000
0000
0000
0000
0000
0001
0000
0000
0000
0000
0000
0000
0001
0000
0000
0000
0100
0000
0000
,
0000
1000
0100
0101
,
0011
0000
0000
1001
0000
0000
0101
0000
0000
1000
0100
0000
0011
0000
0110
0000
,
1001
0000
0000
1010
0000
0000
1001
0000
0000
0010
0100
0000
1100
0000
0101
0000
,
1001
0000
0000
0110
0000
0000
0011
0000
0000
0100
0001
0000
1100
0000
0110
0000
,
1000
0100
0000
0010
0100
0000
0100
0010
0000
0100
0011
0000
0000
0000
0000
0000
,
0011
0000
0000
1001
0000
0000
0101
0000
0000
1000
0100
0000
0011
0000
0110
0000
,
1001
0000
0000
1010
0000
0000
1001
0000
0000
0010
0100
0000
1100
0000
0101
0000
,
1001
0000
0000
0110
0000
0000
0011
0000
0000
0100
0001
0000
1100
0000
0110
0000
,
1000
0100
0000
0010
0100
0000
0100
0010
0000
0100
0011
0000
0000
0000
0000
0000
,
0010
1000
0000
0010
0100
0000
1010
0001
0100
1000
0101
0000
0000
0000
0000
0000
,
0010
0001
0000
0100
0001
0000
1000
0001
0100
0010
1000
0001
0100
0010
1000
0001
,
0100
0010
1000
0001
0100
0010
1000
0001
0100
0010
1000
0001
0100
0010
1000
0000
,
0101
0000
0110
0000
1001
0000
0110
0000
1000
0001
1000
0010
1000
0010
0100
0000
,
0011
0000
1000
0000
0011
0000
0101
0010
1000
0100
2002
0000
0000
0000
0000
0000
,
0000
0000
0000
0000
0000
3003
0000
0000
;

//---------------dance-double - ----------------
#NOTES:
     dance-double:
     :
     Challenge:
     7:
     0.434,0.429,0.051,0.041,0.301,289.000,5.000,4.000,0.000,0.000:
00000000
00000000
00000000
00000000
,
00000000
00000000
00000000
00000000
,
00001000
01000000
00100000
00010000
,
00000010
00000100
00010000
00000010
,
00000001
00000100
00000010
00000000
00010000
00001000
00100000
00000000
,
00100000
10000000
01000000
00010000
00001000
00010000
01000000
00000000
,
10000000
00100000
00010000
00000000
00010000
00001000
00000100
00000000
,
00000010
00010000
00001000
00000100
00001000
00010000
01000000
00000000
,
10000000
00000000
00000000
01000000
00000000
00000000
00010000
00000000
00000000
00000000
00000000
00000000
00000100
00000000
00000000
00000000
,
00000010
00000000
00000000
00000100
00000000
00000000
00001000
00000000
00000000
00000000
00000000
00000000
00010000
00000000
00000000
00000000
,
00100000
00000000
00000000
00010000
00000000
00000000
00001000
00000000
00010000
00000000
00000000
00000010
00000000
00000000
00000100
00000000
,
00000001
00000000
00000000
00000110
,
00001000
00001000
00001000
00000000
00010000
00010000
00010000
00000000
,
00100000
10000000
01000000
00010000
00100000
00010000
00001000
00000000
,
00010000
00000010
00000100
00000000
00001000
00100000
01000000
00000000
,
00010000
00022000
00000000
00000000
00033000
00000000
00010010
00000000
,
00000100
00000001
00000010
00000000
00001000
00010000
01000000
00000000
,
00010000
01000000
00100000
00010000
00001000
00000010
00000001
00000000
,
00000001
00000100
00001000
00000000
00010000
00100000
00010000
00000000
,
00100000
10000000
00100000
01000000
00001000
00010000
00000100
00000000
,
00000010
00000000
00000000
00000001
00000000
00000000
00000100
00000000
00000000
00001000
00000000
00000000
00010000
00000000
01000000
00000000
,
00010000
00000000
00000000
00001000
00000000
00000000
00000100
00000000
00000000
00000001
00000000
00000000
00000010
00000000
00001000
00000000
,
00010000
00000000
00000000
00100000
00000000
00000000
00010000
00000000
00000000
00001000
00000000
00000000
00000010
00000000
00000001
00000000
,
00000010
00000100
00000000
00000000
00000000
00000000
00000000
00000000
00001000
00000100
00000000
00000000
00000000
00000000
00000000
00000000
00010000
00001000
00000000
00000000
00000000
00000000
00000000
00000000
00010000
00001000
00000000
00000000
00000000
00000000
00000000
00000000
,
00011000
00000000
00000000
01000000
00000000
00000000
00100000
00000000
00000000
00010000
01000000
00000000
00100000
00000000
10000000
00000000
,
01000000
00000000
00000000
00010000
00000000
00000000
00001000
00000000
00000000
00001000
00000100
00000000
00000001
00000000
00000010
00000000
,
00000100
00000000
00000000
00010000
00000000
00000000
00001000
00000000
00000000
00010000
01000000
00000000
00100000
00000000
10000000
00000000
,
01000000
10000000
00000000
00000000
00000000
00000000
00000000
00000000
00010000
01000000
00000000
00000000
00000000
00000000
00000000
00000000
00010000
01000000
00000000
00000000
00000000
00000000
00000000
00000000
00001000
00010000
00000000
00000000
00000000
00000000
00000000
00000000
,
00100000
00000000
00000000
00010000
00000000
00000000
01000000
00000000
00000000
00000000
00001000
00000000
00010000
00000000
00000000
00000000
,
00010000
00000000
00000000
00001000
00000000
00000000
00000100
00000000
00000000
00000000
00000001
00000000
00001000
00000000
00000000
00000000
,
00000100
00000000
00000000
00000010
00000000
00000000
00001000
00000000
00000000
00000000
00000100
00000000
00010000
00000000
00000000
00000000
,
00100000
00000000
00000000
00010000
00000000
00000000
00001000
00000000
00000000
00000000
00010000
00000000
00100000
00000000
00000000
00000000
,
00001000
00000000
00000000
00010000
00000000
00000000
00000010
00000000
00000000
00000000
00000001
00000000
00000100
00000000
00000000
00000000
,
00001000
00000000
00000000
00000100
00000000
00000000
00001000
00000000
00000000
00000000
00010000
00000000
00100000
00000000
00000000
00000000
,
10000000
00000000
00000000
00010000
00000000
00000000
01000000
00000000
00000000
00000000
01000000
00000000
00010000
00000000
00000000
00000000
,
00001000
00000000
00000000
00000100
00000000
00000000
00000010
00000000
00000000
00000000
00001000
00000000
00000010
00000000
00000000
00000000
,
00000002
00000003
00000100
00001000
,
00020000
00030000
00001000
00000100
,
00000001
00000000
00000000
00000100
00000000
00000000
00001000
00000000
00010000
00000000
00000000
00010000
00000000
00000000
00000100
00000000
,
00000010
00000000
00000000
00001000
00000000
00000000
00010000
00000000
00000000
00000000
00000000
00000000
00000000
00000000
00000000
00000000
,
00000100
00000000
00000000
00000001
00000000
00000000
00000010
00000000
00000000
00001000
00000000
00000000
00010000
00000000
01000000
00000000
,
10000000
00000000
00000000
00100000
00000000
00000000
00010000
00000000
00000000
00001000
00000000
00000000
00000100
00000000
00000001
00000000
,
00000010
00000000
00000000
00000100
00000000
00000000
00000100
00000000
00000000
00001000
00000000
00000000
00010000
00000000
00100000
00000000
,
00010000
01000000
00000000
00000000
00000000
00000000
00000000
00000000
10000000
00010000
00000000
00000000
00000000
00000000
00000000
00000000
00100000
00010000
00000000
00000000
00000000
00000000
00000000
00000000
00010000
00001000
00000000
00000000
00000000
00000000
00000000
00000000
,
00011000
00000000
00000000
00000100
00000000
00000000
00000001
00000000
00000000
00000010
00000100
00000000
00010000
00000000
00001000
00000000
,
01000000
00000000
00000000
00100000
00000000
00000000
00010000
00000000
00000000
00100000
10000000
00000000
01000000
00000000
00010000
00000000
,
00001000
00000000
00000000
00000100
00000000
00000000
00010000
00000000
00000000
00001000
00010000
00000000
01000000
00000000
10000000
00000000
,
01000000
10000000
00000000
00000000
00000000
00000000
00000000
00000000
00010000
00100000
00000000
00000000
00000000
00000000
00000000
00000000
00001000
00010000
00000000
00000000
00000000
00000000
00000000
00000000
00000100
00001000
00000000
00000000
00000000
00000000
00000000
00000000
,
00000010
00000000
00000000
00000000
00000001
00000000
00000000
00000000
00000100
00001000
00000100
00000000
00000000
00000000
00000000
00000000
,
00100000
00000000
00000000
00000000
00010000
00000000
00000000
00000000
01000000
10000000
01000000
00000000
00000000
00000000
00000000
00000000
,
00100000
00001000
00010000
00000100
,
00000100
00000000
00000010
00000000
00000001
00000000
00000100
00000000
00001000
00010000
00001000
00000000
00000000
00000000
00000000
00000000
,
00000100
00000000
00000000
00000000
00010000
00000000
00000000
00000000
00100000
01000000
00100000
00000000
00000000
00000000
00000000
00000000
;

//---------------dance-single - Copied from----------------
#NOTES:
     dance-single:
     Copied from:
     Challenge:
     12:
     1.000,1.000,1.000,0.377,1.000,555.000,208.000,37.000,0.000,43.000:
0000
0000
0000
0000
,
0000
0000
0000
0000
,
1010
0001
0100
0001
1100
0010
0001
0100
1010
0001
0100
0010
1001
0010
0100
1000
,
0101
0010
1000
0010
1100
0001
0100
1000
0101
0010
0100
0001
1010
0001
0100
0010
,
1001
0100
1011
0100
1010
0100
1011
0001
,
1100
0010
1110
0001
1010
0100
1110
0100
,
0011
0010
1101
0010
0101
0010
1101
0010
,
1001
0000
0010
0000
1110
0001
0100
0010
1001
0010
0100
0001
1010
0001
0010
0100
,
2000
0000
0000
0100
0000
0000
0001
0000
0000
0000
0000
0000
3200
0000
0000
0000
,
0302
0000
0000
0010
0000
0000
0100
0000
0000
0000
0000
0000
0203
0000
0000
0000
,
2310
0000
0000
0001
0000
0000
0100
0000
0000
3001
0000
0000
0010
0000
0100
0000
,
0000
0010
1000
0110
,
1002
0000
1000
0000
1113
0000
0010
0001
2100
0010
0001
0010
3101
0000
0010
0001
,
1200
0000
0001
0000
0010
0000
1000
0300
0110
0000
0000
0000
0001
0000
0100
0000
2001
0000
0010
0000
0100
0000
0001
3000
1010
0000
0000
0000
0010
0000
0000
0000
,
0102
0000
1000
0000
1113
0000
0100
0010
1002
0010
1000
0100
1013
0000
0100
0001
,
1020
0100
0001
0100
1031
0000
0010
0100
0000
0100
0010
0000
1001
0000
0101
0000
,
0011
1000
0100
0010
1001
0010
0100
0001
1010
0100
0001
1000
0110
0001
0100
0010
,
1001
0010
0100
0001
1010
0000
0001
0000
0110
0000
1000
0000
1101
0000
0001
0000
,
1010
0001
0100
0010
1001
0010
0001
0010
1100
0001
0010
0100
1001
0010
0100
0010
,
1001
0000
0000
0010
0000
0000
0100
0000
0000
0001
0000
0000
1010
0000
0000
0100
0000
0000
0010
0000
0000
1000
0000
0000
0110
0000
0000
0001
0000
0000
0100
0000
0000
0010
0000
0000
0101
0000
0010
0000
0100
0000
1000
0000
0010
0000
0100
0000
,
1021
0000
0030
1001
0000
0000
1101
0000
0000
1001
0110
0000
0011
0000
1110
0000
,
1001
0010
0100
1000
0011
0100
1000
0010
0101
0010
0100
0010
1100
0000
0101
0000
,
1012
0000
0003
0110
0000
0000
1011
0000
0000
1100
0011
0000
1100
0000
0110
0000
,
1002
0100
0000
0020
1133
0000
0101
0010
1000
0100
0011
0000
0000
0000
0000
0000
,
1021
0000
0030
1001
0000
0000
1101
0000
0000
1001
0110
0000
0011
0000
1110
0000
,
1001
0010
0100
1000
0011
0100
1000
0010
0101
0010
0100
0010
1100
0000
0101
0000
,
1012
0000
0003
0110
0000
0000
1011
0000
0000
1100
0011
0000
1100
0000
0110
0000
,
1002
0100
0000
0020
1133
0000
1001
0010
1001
0100
0011
1000
0101
0010
1100
0001
,
1010
0100
0001
0100
1010
0001
0100
1000
0101
1000
0010
0001
0110
0001
1000
0010
,
0001
0010
1000
0100
0011
0100
1000
0001
0110
1000
0100
0001
1010
0001
0010
1000
,
0101
0010
1000
0001
0110
1000
0001
0100
1010
0100
0001
0010
1100
0010
0001
1000
,
0101
0010
0001
0100
1010
0001
0100
1000
0011
0100
1000
0001
0110
1000
0001
0100
,
1010
0100
0001
0100
1010
0001
0100
1000
0101
1000
0010
0001
0110
0001
1000
0010
,
0001
0010
1000
0100
0011
0100
1000
0001
0110
1000
0100
0001
1010
0001
0010
1000
,
0101
0010
1000
0001
0110
1000
0001
0100
1010
0100
0001
0010
1100
0010
0001
1000
,
0101
0010
0001
0100
1010
0001
0100
1000
0011
0100
1000
0001
0110
1000
0001
0100
,
0002
0000
0010
0203
,
2300
0000
0000
3002
0000
0000
0100
0000
,
2013
0000
0000
0000
0000
0000
0100
0000
0000
0000
0000
0000
3010
0000
0000
0000
0000
0000
0001
0000
0000
0000
0000
0000
0000
0001
0000
0000
0000
0100
0000
0000
,
0000
1000
0100
0101
,
1021
0000
0030
1001
0000
0000
1101
0000
0000
1001
0110
0000
0011
0000
1110
0000
,
1001
0010
0100
1000
0011
0100
1000
0010
0101
0010
0100
0010
1100
0000
0101
0000
,
1012
0000
0003
0110
0000
0000
1011
0000
0000
1100
0011
0000
1100
0000
0110
0000
,
1002
0100
0000
0020
1133
0000
0101
0010
1000
0100
0011
0000
0000
0000
0000
0000
,
1021
0000
0030
1001
0000
0000
1101
0000
0000
1001
0110
0000
0011
0000
1110
0000
,
1001
0010
0100
1000
0011
0100
1000
0010
0101
0010
0100
0010
1100
0000
0101
0000
,
1012
0000
0003
0110
0000
0000
1011
0000
0000
1100
0011
0000
1100
0000
0110
0000
,
1002
0100
0000
0020
1133
0000
0101
0010
1000
0100
0011
0000
0000
0000
0000
0000
,
0011
0000
0000
2000
0000
0000
0000
0000
0000
3010
0000
0000
0101
0000
0000
0000
0000
0000
1010
0000
0000
0001
0000
0000
0100
0000
0000
1000
0000
0000
0101
0000
0000
0010
0000
0000
0001
0000
0010
0000
0100
0000
1000
0000
0000
0000
0000
0000
,
1010
0001
0000
0110
0002
0000
1003
0001
1100
0010
1000
0001
1100
0010
1000
0001
,
1100
0010
1000
0001
1100
0010
1000
0001
1100
0010
1000
0001
1100
0010
1000
0000
,
1101
0000
0000
0000
0000
0000
0111
0000
0000
0000
0000
0000
1011
0000
0000
0000
0000
0000
0111
0000
0000
0000
0000
0000
1010
0000
0000
0001
0000
0000
1000
0000
0000
0010
0000
0000
1001
0000
0000
0010
0000
0000
0100
0000
1000
0000
0100
0000
,
0011
0000
1000
0000
0011
0000
0101
0010
1001
0100
2002
0000
0000
0000
0000
0000
,
0000
0000
0000
0000
0000
3003
0000
0000
;
