#TITLE:Speedcore Psytama;
#SUBTITLE:;
#ARTIST:Kobaryo;
#TITLETRANSLIT:;
#SUBTITLETRANSLIT:;
#ARTISTTRANSLIT:;
#CREDIT:;
#BANNER:psytama bn.png;
#BACKGROUND:psytama bg.png;
#LYRICSPATH:;
#CDTITLE:;
#MUSIC:Speedcore Psytama.ogg;
#OFFSET:0.009;
#SAMPLESTART:30.322;
#SAMPLELENGTH:12.000;
#SELECTABLE:YES;
#BPMS:0.000=230.000;
#STOPS:;
#BGCHANGES:;
// cache tags:
#FIRSTBEAT:0.000;
#LASTBEAT:608.000;
#SONGFILENAME:Songs/SPEEEDCOOOORE 4/Speedcore Psytama - [Aoreo]/Speedcore Psytama.sm;
#HASMUSIC:1;
#HASBANNER:1;
#MUSICLENGTH:159.608;
// end cache tags

//---------------dance-single - J. Nero----------------
#NOTES:
     dance-single:
     J. Nero:
     Challenge:
     16:
     1.000,1.000,0.088,0.251,1.000,1418.000,14.000,40.000,15.000,0.000:
1000
0100
1000
0001
0010
0100
0010
0001
1000
0010
1000
0001
0010
0100
1000
0010
,
1000
0000
0001
0000
0100
0000
0010
0000
0100
0000
0001
0000
1000
0000
0001
0000
0010
0000
0100
0000
1000
0000
0001
0000
0100
0000
0000
0000
0004
0003
0000
0000
,
1000
0010
0100
0010
1000
0001
0010
0100
1000
0001
0010
0001
0100
0010
1000
0100
,
0010
0000
0001
0000
4000
3000
0000
0000
0001
0000
0000
0000
0100
0000
0010
0000
0400
0300
0000
0000
0001
0000
1000
0000
0010
0000
1000
0000
0001
0000
0000
0000
,
1000
0100
0010
0001
1000
0001
0100
0010
0100
0001
1000
0100
0010
0100
1000
0001
,
0100
0001
1000
0010
1000
0001
0100
0010
1000
0010
0100
0001
1000
0001
0010
0100
,
2000
3000
0000
0000
0000
0000
0000
0000
0000
0000
0000
0000
0000
0000
0000
0000
,
0000
0000
0000
0004
,
1003
0100
1000
0001
0100
0001
1000
0100
0010
0001
1000
0010
1000
0001
0100
0001
,
0010
0100
1000
0001
0100
0010
0100
0001
1000
0010
1000
0001
0010
0100
1000
0010
,
0100
0001
0010
0001
1000
0010
0100
0010
1000
0001
0010
0100
1000
0001
0100
0001
,
0010
0100
1000
0001
0100
0010
0100
0001
1000
0001
0010
0100
1000
0010
0100
0001
,
0010
0100
1000
0010
0100
0010
1000
0001
0100
0001
1000
0010
0100
0010
1000
0001
,
0010
0100
0010
0001
1000
0100
1000
0001
0010
0100
1000
0001
0100
0001
0010
0100
,
1000
0001
0100
0010
0100
0001
1000
0010
0100
0010
1000
0001
0010
0100
1000
0001
,
1000
0000
0001
0100
0001
0000
1000
0000
0100
0010
0001
0000
2000
0000
0000
0000
,
3001
0100
0001
1000
0010
0100
0010
1000
0001
0010
0100
0010
0001
1000
0100
1000
,
0010
0100
0001
0100
0001
1000
0010
0100
0010
1000
0001
0010
0100
1000
0010
0100
,
0001
0010
0100
1000
0001
1000
0010
0100
0001
1000
0010
0100
0010
1000
0001
0010
,
0100
0010
0001
1000
0100
1000
0001
0100
0010
0100
0001
1000
0100
0010
0001
0100
,
0010
1000
0100
1000
0010
0100
0010
1000
0001
0010
0100
1000
0001
0010
0001
0100
,
0010
1000
0001
1000
0001
0100
0010
0100
0001
1000
0100
0010
0100
1000
0010
0100
,
0001
1000
0010
0100
0010
1000
0001
0100
0001
1000
0010
0100
0010
1000
0001
0100
,
0040
0030
0000
0000
1000
0000
0100
0000
0040
0030
0000
0000
0001
0000
0100
0000
0040
0030
0000
0000
1000
0000
0001
0000
0200
0000
0000
0000
0000
0000
0000
0000
,
0301
1000
0001
0010
0100
1000
0004
0003
1000
0000
0001
0100
0001
1000
0040
0030
,
1000
0001
0100
0001
1000
0100
0040
0030
0000
0000
0001
0100
0001
0000
1000
0010
,
0100
0000
0010
0000
1000
0000
0001
0000
0010
0000
0100
0000
4000
0000
3000
0000
0001
0000
0000
0000
1000
0000
0010
0000
1000
0000
0001
0000
0040
0030
0000
0000
,
0001
0100
0001
1000
0100
0010
0004
0003
1000
0000
0010
0000
1000
0001
0100
0000
,
0001
0100
0001
0010
0100
0010
0004
0003
1000
0000
0010
1000
0001
0100
0001
0000
,
1000
0100
0010
0001
1000
0010
0400
0300
0000
0000
0001
0100
0001
0000
1000
0100
,
0010
0000
0100
0000
1000
0000
0001
0000
0200
0300
0000
0000
0002
0000
0003
0000
0020
0000
0000
0000
0230
0000
0300
0000
1000
0000
0001
0000
1000
0000
0000
0000
,
0001
0100
0001
1000
0100
0010
0100
1000
0010
0000
0000
0000
0100
0001
0100
0000
,
0001
0010
0100
0000
1000
0010
0100
0000
0001
0010
0100
0000
1000
0000
0010
0000
,
0100
0001
0010
0000
0100
1000
0010
0000
0100
0001
0010
0000
0100
0000
1000
0000
,
0001
0100
0010
0000
1000
0100
0010
0000
0001
0100
0010
0000
1000
0000
0001
0000
,
0010
0100
1000
0000
0010
0100
0001
0000
0100
0001
0010
0100
1000
0001
1000
0010
,
0100
0001
0010
0000
0100
1000
0010
0000
0100
0001
0010
0000
0100
0000
1000
0000
,
0001
0100
0010
0000
1000
0100
0010
0000
0001
0100
0010
0000
1000
0000
0001
0000
,
0200
0000
0000
0300
0000
0000
0000
0000
0000
0000
0000
0000
0000
0000
0000
0000
,
0000
0000
0000
0000
,
0002
0000
0003
0010
0000
0000
0100
0000
,
0000
0000
0000
0000
,
1000
0000
0000
0010
0000
0000
0100
0000
,
0000
0000
0000
0000
,
0001
0000
0000
0010
0000
0000
0100
0000
,
0000
0000
0000
0000
,
1000
0000
0000
0001
0000
0000
0010
0000
,
0000
0000
0000
0000
,
0001
0000
0000
1000
0000
0000
0010
0000
,
0000
0000
0000
0000
,
1000
0000
0000
0010
0000
0000
0100
0000
,
0000
0000
0000
0000
,
0001
0010
0000
0001
0100
0000
0010
1000
,
0000
0000
0000
0000
,
0100
1000
0000
0001
1000
0000
0010
0100
,
M000
0000
0000
0000
0000
0000
0000
0000
0000
M000
0000
0000
0000
0000
0000
0000
0000
0000
M000
0000
0000
0000
0000
0000
M000
0000
0000
0000
M000
0000
0000
0000
M000
0000
0000
0000
M000
0000
0000
M000
0000
0000
M000
0000
0000
M000
0000
0000
,
M001
0100
0001
0010
0100
1000
0001
0100
,
0010
0100
0001
1000
0100
0010
0001
1000
,
0010
0100
0010
1000
0001
0100
0001
0010
,
0001
1000
0100
0010
0100
1000
0010
1000
,
0001
0100
0001
1000
0010
0100
0010
1000
,
0001
0010
0100
0010
0001
1000
0010
0100
,
0010
1000
0001
0100
0001
1000
0100
0010
,
0001
1000
0010
0100
0001
0010
0100
0010
,
0001
0100
0010
1000
0001
1000
0100
1000
,
0010
0100
0001
0010
0100
0010
0001
1000
,
0010
0100
0010
1000
0100
1000
0010
0100
,
0001
0010
0001
1000
0010
0100
0010
1000
,
0100
0010
0001
1000
0010
0100
0010
1000
,
0001
0100
0001
1000
0100
0010
0001
1000
,
0001
0000
0000
0000
,
0000
0000
0000
0000
0000
0000
0000
0000
0000
0000
0000
0000
0000
0000
0000
0000
0000
0000
0000
0000
0000
0000
0000
0000
0000
0000
0000
0000
0000
0000
0000
0000
0000
0000
0000
0000
0000
0000
0000
0000
0000
0000
0000
0000
0000
0000
0000
0000
4000
3000
0000
0000
0000
0000
0000
0000
0000
0000
0000
0000
0000
0000
0000
0000
,
1001
0000
0001
0100
0001
0010
0100
1000
,
0001
0100
0010
0100
0001
1000
1000
0010
,
M100
0001
0010
0100
0010
0001
1000
0010
,
0100
0010
1000
0001
0100
0001
0001
0010
,
010M
1000
0010
0100
0001
1000
0100
0010
,
0100
1000
0001
1000
0010
0100
0100
0001
,
M010
0100
1000
0001
0100
0010
0100
0001
,
1000
0100
0010
0100
1000
0001
0001
1000
,
2002
3003
0000
0000
0000
0000
0000
0000
0022
0033
0000
0000
0000
0000
0000
0000
,
0220
0330
0000
0000
0000
0000
0000
0000
2200
3300
0000
0000
2002
3003
0000
0000
,
0202
0303
0000
0000
0000
0000
0000
0000
0220
0330
0000
0000
0000
0000
0000
0000
,
2020
3030
0000
0000
0000
0000
0000
0000
2002
3003
0000
0000
0000
0000
0000
0000
,
0004
0003
0000
0000
0040
0030
0000
0000
0400
0300
0000
0000
4000
3000
0000
0000
,
0040
0030
0400
0300
0004
0003
4000
3000
,
0000
0000
0000
0000
,
0000
0000
0000
0004
,
1003
0100
1000
0010
0100
0001
0010
0100
,
1000
0010
0100
0001
0010
0001
1000
0100
,
0010
0001
0100
0001
1000
0100
0010
0100
,
1000
0000
0010
0000
0100
0000
0001
0000
1000
0000
0001
0000
0010
0100
1000
0010
,
1000
0010
0100
0001
1000
0001
0010
0100
,
1000
0010
0100
0010
1000
0100
1000
0001
,
0100
0001
1000
0100
0010
0001
0100
0010
,
1000
0000
0001
0010
0100
1000
0010
1000
0001
0000
1000
0000
0100
0010
0100
0010
,
0001
0100
0001
1000
0010
1000
0001
0100
0010
0100
0001
1000
0100
0010
0100
1000
,
0001
0010
0001
1000
0010
0100
0010
1000
0001
0100
0001
1000
0100
1000
0001
0010
,
0100
0010
0001
1000
0010
1000
0001
0100
0001
1000
0100
0010
0001
1000
0001
0100
,
0010
1000
0001
1000
0100
0010
0100
1000
0001
0100
0001
1000
0010
0100
0001
0010
,
0100
1000
0001
0100
0001
1000
0010
0100
0010
1000
0001
0100
0001
1000
0100
0010
,
0100
1000
0001
0010
0001
1000
0010
0100
0010
1000
0001
0010
0001
1000
0100
0010
,
0001
1000
0100
1000
0010
0100
0001
1000
0100
0010
0100
1000
0010
0100
0001
0010
,
0001
1000
0040
0030
1000
0001
1000
0010
0200
0000
0300
0000
0200
0000
0300
0000
,
2002
3003
0000
0000
0000
0000
0000
0000
0001
0000
0000
0000
0000
0000
0000
0000
1000
0000
0000
0000
0100
0000
0000
0000
0010
0000
0000
0000
0001
0000
0000
0000
,
1000
0000
0000
0001
0100
0001
0010
0100
,
1000
0001
1000
0000
0001
0100
0001
0000
0010
0000
0100
0000
1000
0000
0001
0000
,
1000
0000
0000
0001
0100
0001
0010
0000
,
0000
0000
0000
0100
1000
0001
0000
0000
,
1000
0000
0001
0100
0001
1000
0100
0010
,
0001
1000
0001
0000
1000
0010
1000
0000
0001
0000
0100
0000
0010
0000
0100
0000
,
0001
0000
0000
1000
0100
1000
0001
0100
,
0010
1000
0001
0010
0100
0010
0001
0100
0010
1000
0010
0100
0001
0010
0100
1000
,
0001
0100
0001
1000
0010
0100
0010
1000
0001
0100
0001
1000
0100
1000
0010
0100
,
0001
0010
0001
1000
0100
1000
0001
0100
0010
1000
0001
0010
0001
0100
0010
1000
,
0100
0010
0004
0003
1000
0100
1000
0001
0400
0300
0001
1000
0100
0010
0001
0000
,
1000
0100
1000
0001
0100
0010
0100
0001
1000
0100
0010
0100
1000
0010
0100
0001
,
0010
0001
0100
0010
1000
0100
0010
0001
0100
0001
0010
0100
1000
0010
0100
0001
,
2000
3000
0000
0000
0000
0000
0000
0000
0000
0000
0000
0000
0000
0000
0000
0000
0000
0000
0000
0000
0000
0000
0000
0000
0000
0000
0000
0000
0000
0000
0000
0000
,
0000
0000
0000
0002
,
1003
0100
1000
0001
0100
0001
1000
0100
0010
0001
1000
0010
1000
0001
0100
0001
,
0010
0100
1000
0001
0100
0010
0100
0001
1000
0010
1000
0001
0010
0100
1000
0010
,
0100
0001
0010
0001
1000
0010
0100
0010
1000
0001
0010
0100
1000
0001
0100
0001
,
0010
0100
1000
0001
0100
0010
0100
0001
1000
0001
0010
0100
1000
0010
0100
0001
,
0010
0100
1000
0010
0100
0010
1000
0001
0100
0001
1000
0010
0100
0010
1000
0001
,
0010
0100
0010
0001
1000
0100
1000
0001
0010
0100
1000
0001
0100
0001
0010
0100
,
1000
0001
0100
0010
0100
0001
1000
0010
0100
0010
1000
0001
0010
0100
1000
0001
,
1000
0000
0001
0100
0001
0000
1000
0000
0100
0010
0001
0000
2000
0000
0000
0000
,
3001
0100
0001
1000
0010
0100
0010
1000
0001
0010
0100
0010
0001
1000
0100
1000
,
0010
0100
0001
0100
0001
1000
0010
0100
0010
1000
0001
0010
0100
1000
0010
0100
,
0001
0010
0100
1000
0001
1000
0010
0100
0001
1000
0010
0100
0010
1000
0001
0010
,
0100
0010
0001
1000
0100
1000
0001
0100
0010
0100
0001
1000
0100
0010
0001
0100
,
0010
1000
0100
1000
0010
0100
0010
1000
0001
0010
0100
1000
0001
0010
0001
0100
,
0010
1000
0001
1000
0001
0100
0010
0100
0001
1000
0100
0010
0100
1000
0010
0100
,
0001
1000
0010
0100
0010
1000
0001
0100
0001
1000
0010
0100
0010
1000
0001
0100
,
0040
0030
0000
0000
1000
0000
0100
0000
0040
0030
0000
0000
0001
0000
0100
0000
0040
0030
0000
0000
1000
0000
0001
0000
0200
0000
0000
0000
0000
0000
0000
0000
,
0301
1000
0001
0100
0010
1000
0004
0003
1000
0000
0001
0010
0001
1000
0400
0300
,
1000
0001
0010
0001
1000
0010
0400
0300
0000
0000
0001
0010
0001
0000
1000
0100
,
0010
0100
1000
0001
0100
0010
4000
3000
0001
0000
1000
0100
1000
0001
0400
0300
,
0001
0010
0001
1000
0010
0100
0004
0003
1000
0000
0100
0000
1000
0001
1000
0000
,
0001
0010
0001
0100
0010
0100
0004
0003
1000
0000
0100
1000
0001
0010
0001
0000
,
1000
0010
0100
0001
1000
0100
0040
0030
0000
0000
0001
0010
0001
0000
1000
0010
,
0100
0000
0010
0000
1000
0000
0001
0000
0200
0300
0000
0000
0002
0000
0003
0000
0020
0000
0000
0000
0230
0000
0300
0000
1000
0000
0001
0000
1000
0000
0000
0000
,
0001
0100
0001
1000
0100
0010
0100
1000
0010
0000
0100
0000
0001
1000
0001
0000
,
1000
0000
0400
0300
1000
0000
0040
0030
0100
0000
0004
0003
0010
0100
4000
3000
,
0001
0000
0400
0300
0001
0000
0040
0030
0001
0000
0400
0300
0010
1000
0004
0003
,
1000
0000
0400
0300
0010
0000
0400
0300
1000
0000
0040
0030
0100
0001
4000
3000
,
0001
0000
0040
0130
1000
0001
1000
0000
0040
0030
1000
0001
0010
0100
1000
0001
,
1000
0010
0100
0010
1000
0100
0010
0001
,
1000
0000
0001
0000
0100
0000
0010
0000
1000
0001
0100
0001
1000
0100
0010
0001
,
0200
0300
0000
0000
0000
0000
0000
0000
0000
0000
0000
0000
0000
0000
0000
0000
0000
0000
0000
0000
0000
0000
0000
0000
0000
0000
0000
0000
0000
0000
0000
0000
,
0000
0000
0000
0000
,
M000
0000
0000
0000
;

//---------------dance-single - J. Nero----------------
#NOTES:
     dance-single:
     J. Nero:
     Hard:
     15:
     1.000,1.000,0.100,0.251,1.000,1179.000,16.000,40.000,15.000,0.000:
1000
0100
1000
0001
0010
0100
0010
0001
1000
0010
1000
0001
0010
0100
1000
0010
,
1000
0000
0001
0000
0100
0000
0010
0000
0100
0000
0001
0000
1000
0000
0001
0000
0010
0000
0100
0000
1000
0000
0001
0000
0100
0000
0000
0000
0004
0003
0000
0000
,
1000
0010
0100
0010
1000
0001
0010
0100
1000
0001
0010
0001
0100
0010
1000
0100
,
0010
0000
0001
0000
4000
3000
0000
0000
0001
0000
0000
0000
0100
0000
0010
0000
0400
0300
0000
0000
0001
0000
1000
0000
0010
0000
1000
0000
0001
0000
0000
0000
,
1000
0100
0010
0001
1000
0001
0100
0010
0100
0001
1000
0100
0010
0100
1000
0001
,
0100
0001
1000
0010
1000
0001
0100
0010
1000
0010
0100
0001
1000
0001
0010
0100
,
2000
3000
0000
0000
0000
0000
0000
0000
0000
0000
0000
0000
0000
0000
0000
0000
,
0000
0000
0000
4000
,
3001
0000
0010
0000
0001
0000
0100
0000
0010
0000
1000
0000
0001
0000
1000
0100
,
0010
0000
0001
0000
1000
0000
0010
0000
0100
0000
0001
0000
1000
0010
1000
0100
,
0010
0000
0100
0000
0010
0000
0001
0000
1000
0000
0010
0000
1000
0000
0001
0100
,
0010
0000
0100
0000
0001
0000
0010
0000
0100
0000
0010
0000
0001
0010
0001
0100
,
0010
1000
0001
0100
0001
0000
1000
0000
0100
0000
0010
0000
0001
0000
1000
0010
,
1000
0000
0001
0000
0010
0000
0100
0000
0010
0000
0001
0000
0100
0010
0100
0001
,
1000
0000
0010
0000
1000
0000
0001
0000
0010
0000
0100
0000
0010
0000
0001
0100
,
0001
0000
1000
0010
1000
0000
0001
0000
0010
0100
1000
0000
0002
0000
0000
0000
,
1003
0000
0010
0000
1000
0000
0001
0000
0010
0000
0100
0000
0010
0000
0001
1000
,
0010
0000
0100
0000
0010
0000
1000
0000
0001
0000
0100
0000
0001
0010
0001
0100
,
0010
0000
1000
0000
0100
0000
0010
0000
0100
0000
1000
0000
0001
0000
1000
0100
,
0010
0000
0001
0000
1000
0000
0010
0000
0100
0000
0010
0000
1000
0001
0010
0100
,
0010
0001
1000
0010
1000
0000
0001
0000
0100
0000
0010
0000
0100
0000
0001
1000
,
0010
0000
1000
0000
0100
0000
0010
0000
0100
0000
1000
0000
0010
0100
0001
0010
,
0100
1000
0001
0100
0001
1000
0100
1000
0001
0100
0001
1000
0100
1000
0001
0100
,
0004
0000
0003
0000
1000
0000
0100
0000
0040
0030
0000
0000
0001
0000
0100
0000
0040
0030
0000
0000
1000
0000
0001
0000
0200
0000
0000
0000
0000
0000
0000
0000
,
0301
1000
0001
0010
0100
1000
0004
0003
1000
0000
0001
0100
0001
1000
0040
0030
,
1000
0001
0100
0001
1000
0100
0040
0030
0000
0000
0001
0100
0001
0000
1000
0010
,
0100
0000
0010
0000
1000
0000
0001
0000
0010
0000
0100
0000
4000
0000
3000
0000
0001
0000
0000
0000
1000
0000
0010
0000
1000
0000
0001
0000
0040
0030
0000
0000
,
0001
0100
0001
1000
0100
0010
0004
0003
1000
0000
0010
0000
1000
0001
0100
0000
,
0001
0100
0001
0010
0100
0010
0004
0003
1000
0000
0010
1000
0001
0100
0001
0000
,
1000
0100
0010
0001
1000
0010
0400
0300
0000
0000
0001
0100
0001
0000
1000
0100
,
0010
0000
0100
0000
1000
0000
0001
0000
0200
0300
0000
0000
0002
0000
0003
0000
0020
0000
0000
0000
0230
0000
0300
0000
1000
0000
0001
0000
1000
0000
0000
0000
,
0001
0100
0001
1000
0100
0010
0100
1000
0010
0000
0000
0000
0100
0001
0100
0000
,
0001
0010
0100
0000
1000
0010
0100
0000
0001
0010
0100
0000
1000
0000
0010
0000
,
0100
0001
0010
0000
0100
1000
0010
0000
0100
0001
0010
0000
0100
0000
1000
0000
,
0001
0100
0010
0000
1000
0100
0010
0000
0001
0100
0010
0000
1000
0000
0001
0000
,
0010
0100
1000
0000
0010
0100
0001
0000
0100
0001
0010
0100
1000
0001
1000
0010
,
0100
0001
0010
0000
0100
1000
0010
0000
0100
0001
0010
0000
0100
0000
1000
0000
,
0001
0100
0010
0000
1000
0100
0010
0000
0001
0100
0010
0000
1000
0000
0001
0000
,
0200
0000
0000
0300
0000
0000
0000
0000
0000
0000
0000
0000
0000
0000
0000
0000
,
0000
0000
0000
0000
,
0002
0000
0003
0010
0000
0000
0100
0000
,
0000
0000
0000
0000
,
1000
0000
0000
0010
0000
0000
0100
0000
,
0000
0000
0000
0000
,
0001
0000
0000
0010
0000
0000
0100
0000
,
0000
0000
0000
0000
,
1000
0000
0000
0001
0000
0000
0010
0000
,
0000
0000
0000
0000
,
0001
0000
0000
1000
0000
0000
0010
0000
,
0000
0000
0000
0000
,
1000
0000
0000
0010
0000
0000
0100
0000
,
0000
0000
0000
0000
,
0001
0010
0000
0001
0100
0000
0010
1000
,
0000
0000
0000
0000
,
0100
1000
0000
0001
1000
0000
0010
0100
,
M000
0000
0000
0000
0000
0000
0000
0000
0000
M000
0000
0000
0000
0000
0000
0000
0000
0000
M000
0000
0000
0000
0000
0000
M000
0000
0000
0000
M000
0000
0000
0000
M000
0000
0000
0000
M000
0000
0000
M000
0000
0000
M000
0000
0000
M000
0000
0000
,
M001
0100
0001
0010
0100
1000
0001
0100
,
0010
0100
0001
1000
0100
0010
0001
1000
,
0010
0100
0010
1000
0001
0100
0001
0010
,
0001
1000
0100
0010
0100
1000
0010
1000
,
0001
0100
0001
1000
0010
0100
0010
1000
,
0001
0010
0100
0010
0001
1000
0010
0100
,
0010
1000
0001
0100
0001
1000
0100
0010
,
0001
1000
0010
0100
0001
0010
0100
0010
,
0001
0100
0010
1000
0001
1000
0100
1000
,
0010
0100
0001
0010
0100
0010
0001
1000
,
0010
0100
0010
1000
0100
1000
0010
0100
,
0001
0010
0001
1000
0010
0100
0010
1000
,
0001
0010
0100
1000
0010
0100
0010
1000
,
0001
0100
0001
1000
0100
0010
0001
1000
,
0001
0000
0000
0000
,
0000
0000
0000
0000
0000
0000
0000
0000
0000
0000
0000
0000
0000
0000
0000
0000
0000
0000
0000
0000
0000
0000
0000
0000
0000
0000
0000
0000
0000
0000
0000
0000
0000
0000
0000
0000
0000
0000
0000
0000
0000
0000
0000
0000
0000
0000
0000
0000
4000
3000
0000
0000
0000
0000
0000
0000
0000
0000
0000
0000
0000
0000
0000
0000
,
1001
0000
0001
0100
0001
0010
0100
1000
,
0001
0100
0010
0100
0001
1000
1000
0010
,
M100
0001
0010
0100
0010
0001
1000
0010
,
0100
0010
1000
0001
0100
0001
0001
0010
,
010M
1000
0010
0100
0001
1000
0100
0010
,
0100
1000
0001
1000
0010
0100
0100
0001
,
M010
0100
1000
0001
0100
0010
0100
0001
,
1000
0100
0010
0100
1000
0001
0001
1000
,
2002
3003
0000
0000
0000
0000
0000
0000
0022
0033
0000
0000
0000
0000
0000
0000
,
0220
0330
0000
0000
0000
0000
0000
0000
2200
3300
0000
0000
2002
3003
0000
0000
,
0202
0303
0000
0000
0000
0000
0000
0000
0220
0330
0000
0000
0000
0000
0000
0000
,
2020
3030
0000
0000
0000
0000
0000
0000
2002
3003
0000
0000
0000
0000
0000
0000
,
0004
0003
0000
0000
0040
0030
0000
0000
0400
0300
0000
0000
4000
3000
0000
0000
,
0040
0030
0400
0300
0004
0003
4000
3000
,
0000
0000
0000
0000
,
0000
0000
0000
0004
,
1003
0100
0010
0100
1000
0001
0100
0010
,
0100
0001
1000
0100
0010
0001
0100
0001
,
1000
0100
0010
0100
1000
0001
0100
0010
,
0100
0000
0001
0000
1000
0000
0100
0000
0010
0000
0001
0000
1000
0001
0100
0001
,
0010
0100
1000
0001
0100
0010
0100
0001
,
1000
0100
0010
0100
1000
0001
0010
0001
,
1000
0010
0100
0010
1000
0100
0010
0001
,
1000
0000
0001
0100
0010
0100
0001
1000
0010
0000
1000
0000
0100
0010
0100
0010
,
0001
0100
0010
1000
0100
0010
0100
1000
,
0010
0100
0001
0010
0001
1000
0100
0010
,
0100
1000
0010
0100
0010
1000
0001
0010
,
0100
0000
1000
0000
0001
0000
0010
0000
0001
0000
0100
0000
0010
1000
0100
0010
,
0001
1000
0100
0010
0100
1000
0001
0100
,
0010
0100
0001
1000
0100
0010
0100
1000
,
0001
0100
0001
1000
0100
0010
0001
0100
,
0001
0000
1000
0100
0010
0100
1000
0001
0200
0000
0300
0000
0200
0000
0300
0000
,
2002
3003
0000
0000
0000
0000
0000
0000
0001
0000
0000
0000
0000
0000
0000
0000
1000
0000
0000
0000
0100
0000
0000
0000
0010
0000
0000
0000
0001
0000
0000
0000
,
1000
0000
0000
0001
0100
0001
0010
0100
,
1000
0001
1000
0000
0001
0100
0001
0000
0010
0000
0100
0000
1000
0000
0001
0000
,
1000
0000
0000
0001
0100
0001
0010
0000
,
0000
0000
0000
0100
1000
0001
0000
0000
,
1000
0000
0001
0100
0001
1000
0100
0010
,
0001
1000
0001
0000
1000
0010
1000
0000
0001
0000
0100
0000
0010
0000
0100
0000
,
0001
0000
0000
1000
0100
1000
0001
0100
,
0010
1000
0001
0010
0100
0010
0001
0100
0010
1000
0010
0100
0001
0010
0100
1000
,
0001
0100
0001
1000
0010
0100
0010
1000
0001
0100
0001
1000
0100
1000
0010
0100
,
0001
0010
0001
1000
0100
1000
0001
0100
0010
1000
0001
0010
0001
0100
0010
1000
,
0100
0010
0004
0003
1000
0100
1000
0001
0400
0300
0001
1000
0100
0010
0001
0000
,
1000
0100
1000
0001
0100
0010
0100
0001
4000
0000
0000
0000
0000
0000
0000
0000
,
3002
0000
0000
0000
,
2003
3000
0000
0000
0000
0000
0000
0000
0000
0000
0000
0000
0000
0000
0000
0000
0000
0000
0000
0000
0000
0000
0000
0000
0000
0000
0000
0000
0000
0000
0000
0000
,
0000
0000
0000
0004
,
1003
0000
0100
0000
0010
0000
0100
0000
1000
0000
0001
0000
0100
0000
0010
1000
,
0100
0000
1000
0000
0001
0000
0010
0000
0100
0000
0010
0000
0001
0100
0001
0010
,
0100
0000
1000
0000
0001
0000
0100
0000
0001
0000
1000
0000
0100
0000
0010
0100
,
1000
0000
0010
0000
0100
0000
0001
0000
1000
0000
0001
0000
0100
0001
0010
0100
,
0010
0001
1000
0010
1000
0000
0001
0000
0100
0000
0001
0000
0010
0000
0100
1000
,
0010
0000
0100
0000
0001
0000
1000
0000
0100
0000
1000
0000
0010
0100
0001
0010
,
0100
0000
1000
0000
0001
0000
0100
0000
0010
0000
0100
0000
0001
0000
1000
0100
,
1000
0000
0001
0100
0001
0000
1000
0000
0100
0010
0001
0000
2000
0000
0000
0000
,
3001
0000
0100
0000
0001
0000
1000
0000
0100
0000
0010
0000
0100
0000
1000
0010
,
0100
0000
0001
0000
1000
0000
0001
0000
0010
0000
0100
0000
1000
0010
1000
0100
,
0010
0000
0001
0000
0100
0000
0010
0000
0100
0000
0001
0000
1000
0000
0100
1000
,
0010
0000
0100
0000
0001
0000
1000
0000
0001
0000
0010
0000
0100
1000
0010
0100
,
0001
1000
0001
0010
0100
0000
1000
0000
0010
0000
1000
0000
0001
0000
0100
0001
,
0010
0000
0100
0000
1000
0000
0001
0000
0100
0000
0010
0000
0100
0001
0010
0100
,
1000
0001
0100
0001
1000
0100
1000
0001
0100
0001
1000
0100
1000
0001
0100
0001
,
4000
0000
3000
0000
0001
0000
0010
0000
0400
0300
0000
0000
1000
0000
0010
0000
0400
0300
0000
0000
0001
0000
1000
0000
0020
0000
0000
0000
0000
0000
0000
0000
,
1030
0001
1000
0010
0100
0001
4000
3000
0001
0000
1000
0100
1000
0001
0040
0030
,
0001
1000
0100
1000
0001
0100
0040
0030
0000
0000
1000
0100
1000
0000
0001
0010
,
0100
0010
0001
1000
0010
0100
0004
0003
1000
0000
0001
0010
0001
1000
0040
0030
,
1000
0100
1000
0001
0100
0010
4000
3000
0010
0000
0100
0000
0001
1000
0001
0000
,
1000
0100
1000
0010
0100
0010
4000
3000
0001
0000
0010
0001
1000
0100
1000
0000
,
0001
0100
0010
1000
0001
0010
0400
0300
0000
0000
1000
0100
1000
0000
0001
0100
,
0010
0000
0100
0000
0001
0000
1000
0000
0020
0030
0000
0000
2000
0000
3000
0000
0200
0000
0000
0000
0320
0000
0030
0000
0001
0000
1000
0000
0001
0000
0000
0000
,
1000
0010
1000
0001
0010
0100
0010
0001
0100
0000
0010
0000
1000
0001
1000
0000
,
0001
0000
0040
0030
0001
0000
0400
0300
0010
0000
4000
3000
0100
0010
0004
0003
,
1000
0000
0040
0030
1000
0000
0400
0300
1000
0000
0040
0030
0100
0001
4000
3000
,
0001
0000
0040
0030
0100
0000
0040
0030
0001
0000
0400
0300
0010
1000
0004
0003
,
1000
0000
0400
0310
0001
1000
0001
0000
0400
0300
0001
1000
0100
0010
0001
1000
,
0001
0100
0010
0100
0001
0010
0100
1000
,
0001
0000
1000
0000
0010
0000
0100
0000
0001
1000
0010
1000
0001
0010
0100
1000
,
0020
0030
0000
0000
0000
0000
0000
0000
0000
0000
0000
0000
0000
0000
0000
0000
0000
0000
0000
0000
0000
0000
0000
0000
0000
0000
0000
0000
0000
0000
0000
0000
,
0000
0000
0000
0000
,
000M
0000
0000
0000
;
