#TITLE:Dysnomia;
#SUBTITLE:;
#ARTIST:YZYX;
#TITLETRANSLIT:;
#SUBTITLETRANSLIT:;
#ARTISTTRANSLIT:;
#CREDIT:;
#BANNER:../fthescorept1bn.png;
#BACKGROUND:../fthescorept1bg.png;
#LYRICSPATH:;
#CDTITLE:;
#MUSIC:Dysnomia.ogg;
#OFFSET:-0.037;
#SAMPLESTART:14.800;
#SAMPLELENGTH:14.700;
#SELECTABLE:YES;
#BPMS:0.000=260.000;
#STOPS:;
#BGCHANGES:;
// cache tags:
#FIRSTBEAT:0.000;
#LASTBEAT:320.000;
#SONGFILENAME:Songs/Fuck The Score Part I/Dysnomia [Dossar]/Dysnomia.sm;
#HASMUSIC:1;
#HASBANNER:1;
#MUSICLENGTH:81.711;
// end cache tags

//---------------dance-single - ----------------
#NOTES:
     dance-single:
     :
     Challenge:
     17:
     1.000,1.000,0.000,0.147,1.000,822.000,0.000,12.000,0.000,0.000:
1000
0010
0100
0001
,
0010
0100
0010
0001
,
1000
0010
0100
0001
,
0010
0100
0010
0001
,
1000
0010
0100
0001
,
0010
0100
0010
0001
,
1000
0010
0100
0001
,
0010
0100
0010
0001
,
0100
0010
1000
0001
,
0010
0100
0010
0001
,
0100
0010
1000
0001
,
0010
0100
0010
0001
,
0100
0010
1000
0001
,
0010
0100
0010
0001
,
0100
0010
1000
0001
,
0100
0000
0000
0000
0020
0000
0030
0000
0200
0000
0302
0000
1003
0010
0100
0001
,
1000
0000
0010
0000
0100
0000
0001
0000
1000
0010
1000
0001
0100
0000
0010
0000
,
1000
0000
0001
0100
0010
1000
0001
1000
0010
0100
0001
1000
0002
0000
0003
0000
,
1000
0100
0010
0001
1000
0100
0010
0100
,
1000
0000
0001
0000
0010
0100
0010
0001
1000
0100
1000
0000
0001
0010
0100
1000
,
0001
0000
0100
0000
0010
0000
1000
0000
0001
0100
0001
0000
1000
0010
1000
0000
,
0001
1000
0001
0000
0010
0000
0100
0000
0020
0000
0032
0000
1003
0000
0002
0000
,
0103
0010
1000
0001
0010
0100
0010
0001
,
1000
0000
0010
0000
0100
0001
0100
0000
0001
0000
0100
0000
0010
1000
0010
1000
,
0001
0000
0100
0000
0010
0000
1000
0000
0001
0010
0100
1000
0001
0010
0100
1000
,
0001
0000
0000
0000
1000
0100
0010
0001
1000
0000
0001
0010
0100
1000
0001
0000
,
1000
0100
0010
0100
1000
0001
0100
0010
,
1000
0000
0001
0100
0001
1000
0010
0100
0001
1000
0002
0000
0103
0000
0010
0000
,
1000
0000
0010
0000
0100
0000
0001
1000
0010
0100
0010
1000
0001
0000
1000
0000
,
0010
0000
0100
0000
0001
0000
1000
0000
0001
0100
0001
1000
0100
0000
0010
0000
,
0001
0010
0100
1000
0100
0010
0001
1000
,
0100
0010
0100
0000
1000
0100
1000
0000
0001
0010
0100
1000
0001
1000
0100
1000
,
0001
0000
0010
0000
0100
0000
0010
0000
0001
0000
1000
0010
1000
0000
0001
0000
,
1000
0010
0100
0001
1000
0001
0100
0010
1000
0001
1000
0001
0200
0000
0300
0000
,
0001
0000
1000
0100
1000
0001
0100
0000
0010
1000
0001
0100
0001
0000
1000
0010
,
1000
0000
0001
0000
0010
0000
0100
0000
1000
0100
0010
0100
1000
0000
0001
0000
,
0100
0000
0000
0000
0010
1000
0001
0100
0010
0000
1000
0000
0001
0000
0010
0000
,
0100
0000
0000
0000
0000
0000
1000
0000
0000
0000
0000
0000
0001
0000
0000
1000
0000
0000
0100
0000
0000
1000
0000
0000
0001
0000
0000
0010
0000
0000
0100
0000
0000
1000
0000
0000
0001
0000
0000
0000
0010
0000
0000
0000
0001
0000
0000
0000
,
1000
0000
0010
0000
0100
0001
0100
0000
0010
1000
0001
1000
0010
0000
0100
0001
,
1000
0000
0010
1000
0001
0000
0100
0000
0010
1000
0001
0100
0010
1000
0010
1000
,
0001
0000
1000
0000
0000
0000
0100
0000
1000
0000
0001
0010
0001
1000
0100
0010
,
0001
0000
1000
0000
0100
0000
1000
0100
1000
0000
0001
0010
0100
0010
0001
0000
,
1000
0100
1000
0000
0001
0000
0100
0000
0010
1000
0010
0000
0100
0000
0001
1000
,
0010
0100
0001
1000
0001
0000
0100
0010
1000
0000
0001
0000
2000
0000
3000
0000
,
0001
0000
0010
0000
0100
0000
0010
0000
0001
0000
1000
0000
0010
0100
0001
1000
,
0001
0000
0000
0000
0000
0000
0100
0000
0000
0000
0000
0000
0010
0000
0000
0000
0000
0000
0100
0000
0000
0010
0000
0000
1000
0000
0000
0000
0000
0000
0010
0000
0000
0100
0000
0000
0001
0000
0000
0000
1000
0000
0000
0000
0001
0000
0000
0000
,
0010
0000
0001
0000
1000
0100
1000
0000
0001
0000
1000
0100
0010
0000
0001
0000
,
1000
0100
0010
0001
1000
0000
0100
0010
0100
0000
1000
0000
0001
0010
0100
1000
,
0001
0000
1000
0000
0010
0000
0100
0001
0100
0010
1000
0000
0001
0000
0100
0000
,
0010
1000
0001
0100
0001
1000
0010
1000
0001
0100
0010
1000
0001
0000
0100
0000
,
0010
1000
0010
0100
0001
0000
1000
0000
0010
0100
0010
0000
1000
0001
0100
0010
,
1000
0000
0001
0010
0001
0000
1000
0000
0100
0000
0010
0001
1000
0001
0010
0000
,
0100
1000
0100
0010
0001
0000
1000
0100
1000
0000
0001
0000
1000
0010
1000
0001
,
0100
0010
1000
0001
1000
0010
0100
0010
0100
0001
1000
0001
0200
0000
0300
0000
,
0001
0010
0001
0000
1000
0100
1000
0000
0001
0010
0100
0010
0001
0000
0010
0000
,
0001
1000
0100
1000
0001
0010
0100
1000
0001
0000
1000
0100
1000
0001
0010
0100
,
1000
0000
0001
0000
0100
0000
0010
1000
0001
0100
0001
0000
1000
0000
0010
0000
,
1000
0001
0100
0010
1000
0001
1000
0010
0100
0000
0001
1000
0001
0000
0100
0000
,
0010
1000
0001
0100
0010
0000
1000
0000
0001
0100
0010
0000
0100
0001
0100
0010
,
1000
0000
0001
0010
0001
0000
1000
0100
1000
0000
0001
0010
0100
0010
0001
0000
,
1000
0100
0010
0100
1000
0000
0001
0010
0001
0000
1000
0100
0010
0001
1000
0100
,
1000
0000
0001
0000
0100
0000
0010
0000
1000
0001
0100
0001
1000
0010
0100
0001
,
1000
0010
1000
0000
0001
0100
0010
1000
0001
0100
0001
1000
0100
0000
0010
0000
,
0100
1000
0100
0010
0001
1000
0100
1000
0001
0000
0010
0100
1000
0000
0001
1000
,
0010
0100
0001
1000
0001
1000
0010
0000
0100
0001
1000
0000
0010
1000
0001
0100
,
0001
0000
1000
0100
0010
0001
1000
0000
0100
0010
0100
1000
0001
0000
1000
0100
,
1000
0001
0010
0100
1000
0000
0001
0000
0100
0010
0100
0001
1000
0000
0010
0100
,
0001
1000
0001
0100
0010
1000
0001
0100
0001
0000
1000
0000
0001
0100
0010
1000
,
0001
1000
0010
0100
0001
0000
1000
0000
0100
0000
0010
0000
0001
0010
0001
0000
,
1000
0000
0001
0100
0010
1000
0001
0100
0001
1000
0010
0100
0001
1000
0010
1000
,
0001
0100
0010
1000
0001
0000
0100
0010
1000
0001
1000
0001
0100
0000
0010
1000
,
0001
0100
0001
0100
0010
0000
1000
0000
0001
0000
0010
0000
0100
1000
0100
0010
,
0001
0000
1000
0100
0010
0100
1000
0000
0001
0000
1000
0100
1000
0000
0001
0010
,
0001
0000
1000
0100
0010
0001
1000
0000
0100
1000
0001
1000
0100
0000
0010
0000
,
0001
0000
1000
0010
1000
0001
0100
0000
0010
1000
0001
1000
0010
0000
0100
0001
,
1000
0001
0100
0010
1000
0000
0001
0100
0010
1000
0001
0100
0001
1000
0010
0100
,
0001
1000
0010
1000
0001
0100
0001
0000
1000
0100
0010
0001
1000
0000
0001
0010
,
0001
0000
1000
0100
1000
0001
0010
0100
0010
0001
0010
0100
1000
0001
0010
0001
,
1000
0100
0010
0001
1000
0000
0100
0000
0010
0001
0010
0100
1000
0000
0001
0010
,
0001
0000
1000
0100
0010
0100
2000
0000
0000
0000
0000
0000
0000
0000
0000
0000
,
3001
0000
0000
0000
;
