#TITLE:Uber Rave;
#SUBTITLE:;
#ARTIST:Rage;
#TITLETRANSLIT:;
#SUBTITLETRANSLIT:;
#ARTISTTRANSLIT:;
#CREDIT:;
#BANNER:UberRave.png;
#BACKGROUND:UberRave-bg.png;
#LYRICSPATH:;
#CDTITLE:;
#MUSIC:rage_Ub3R-R4vE!.mp3;
#OFFSET:-0.011;
#SAMPLESTART:34.286;
#SAMPLELENGTH:12.000;
#SELECTABLE:YES;
#BPMS:0.000=175.000;
#STOPS:;
#BGCHANGES:;
// cache tags:
#FIRSTBEAT:10.500;
#LASTBEAT:386.167;
#SONGFILENAME:Songs/Essential Sim Collection/(Hyrogashi) uber rave/UberRave.sm;
#HASMUSIC:1;
#HASBANNER:1;
#MUSICLENGTH:133.075;
// end cache tags

//---------------dance-single - MANIAC----------------
#NOTES:
     dance-single:
     MANIAC:
     Hard:
     10:
     1.000,1.000,0.248,0.113,1.000,931.000,33.000,15.000,0.000,0.000:
0000
0000
0000
0000
,
0000
0000
0000
0000
,
0000
0000
0000
0000
0000
0000
0000
0000
0000
0000
0001
1000
0010
0100
0001
1000
,
0010
0100
0001
0010
0100
1000
0001
0100
0010
1000
0001
0010
0100
1000
0000
0000
,
0001
0010
0100
1000
0100
0001
0010
1000
,
0100
0001
0100
1000
0010
0100
0001
0010
,
0100
1000
0100
1000
0010
0100
1000
0001
,
0100
0000
0001
1000
0010
0100
0001
1000
0010
0100
0001
0010
0100
1000
0001
0010
,
0100
1000
0200
0000
0000
0000
0000
0000
0000
0000
0000
0000
0300
0000
1000
0000
,
0010
0002
0000
0003
2000
0000
0000
3000
,
0200
0000
0000
0000
0000
0300
1000
0000
,
0002
0000
0000
0000
0000
0003
0010
0000
,
2000
0000
0000
0000
0000
3000
0001
1000
,
0200
0000
0000
0000
2000
0000
0000
3000
,
0010
0000
0001
1000
0300
0010
1000
0001
0100
1000
0100
0001
0010
1000
0010
0001
,
1000
0010
0100
0001
0010
0100
1000
0100
0010
0001
1000
0010
0100
0001
0000
1000
,
0000
0010
0000
0100
0000
0001
0000
1000
0000
0010
0000
0100
0000
0001
0000
1000
,
0000
0001
0000
0010
0000
0001
0000
0010
0000
0001
0000
0100
0000
1000
0000
0010
,
0000
0100
0000
0001
0000
0010
0000
1000
0000
0100
0000
0001
0010
0001
0010
0001
,
0010
0100
0010
0100
0010
0100
0010
1000
0010
1000
0010
1000
0100
0001
1000
0000
,
0010
0100
1000
0001
0010
0100
1000
0001
,
0010
0100
1000
0100
0001
0010
1000
0100
,
0001
0100
1000
0100
0001
0010
0100
1000
,
0100
0000
1000
0100
0010
0001
1000
0100
0010
0001
1000
0010
1000
0010
0001
0010
,
0000
0000
1000
0100
0000
0000
0100
0010
0000
0000
0010
0001
0000
0000
0001
1000
,
0000
0000
1000
0100
0000
0000
0100
0010
0000
0000
0010
0001
0000
0000
0001
1000
,
0000
0000
0001
1000
0010
0100
0001
0000
0000
1000
0001
0100
0010
0001
1000
0000
,
0000
0001
0100
0001
0100
0001
0100
0001
0100
1000
0100
1000
0000
0000
0001
0100
,
0000
0000
1000
0100
0000
0000
0001
0100
0000
0000
1000
0100
0000
1000
0010
0000
,
0000
0001
0010
0000
0000
1000
0001
0000
0010
0100
0000
0000
0010
0100
0010
1000
,
0001
1000
0001
0010
1000
0100
0001
0010
1000
0100
0001
1000
0010
0100
1000
0001
,
0010
0000
0000
1000
0000
0000
0001
0000
0000
0010
0000
0000
0100
0000
0000
1000
0000
0000
0100
0000
0000
0001
0000
0000
0010
0000
0000
0000
0000
0000
0001
0000
0010
0000
0100
0000
1000
0000
0000
0000
0000
0000
0001
0000
0000
0000
0000
0000
,
0010
0001
0010
0001
0100
1000
0100
0001
,
1000
0100
0010
0001
1000
0100
0010
0001
,
0010
0100
1000
0001
0010
0100
1000
0001
,
0010
0001
0100
1000
0100
0001
0010
1000
,
0010
0001
1000
0100
0001
1000
0001
0010
,
0100
1000
0001
0010
0100
1000
0001
0010
,
0100
0001
1000
0010
0100
0001
1000
0100
,
0010
0001
1000
0100
0010
0001
1000
0100
,
0010
0001
1000
0010
0001
0100
1000
0100
,
1000
0001
1000
0010
1000
0001
1000
0100
,
0100
0010
0001
0010
0100
1000
0001
0100
,
1000
0100
0001
1000
0100
0010
1000
0001
,
0010
0100
1000
0100
0010
0001
0010
1000
,
0100
0001
0100
1000
0010
0001
0010
1000
,
0010
0001
0010
1000
0010
0001
1000
0000
,
0001
0100
0001
0000
0000
1000
0100
0010
0000
0000
1000
0100
1000
0100
0000
0000
,
0011
1010
1100
0101
,
1010
0101
0011
1100
,
1001
0110
0101
0011
,
1010
1100
1001
0110
,
0011
1010
0101
1100
,
0101
0011
1010
0101
,
0110
1100
1001
0011
,
1001
0101
0110
2002
,
3003
0100
0000
0001
0000
0000
1000
0000
0000
0010
0000
0000
0100
0000
0000
0001
0000
0000
0010
0000
0000
0100
0000
0000
,
1000
0010
0100
0001
0100
1000
0001
0010
,
0100
1000
0100
0010
0001
0010
0100
1000
,
0100
0010
0001
0010
0100
1000
0001
0010
,
0100
1000
0001
0010
0100
1000
0010
0001
,
0100
1000
0010
0001
0100
0001
0100
0100
,
2000
0000
0000
0000
,
0000
0000
0000
0000
0000
0000
0000
3000
,
0001
0010
0100
1000
0100
0010
0001
0010
0100
1000
0001
0010
0100
1000
0001
0010
,
0100
1000
0001
0010
0100
1000
0001
0010
0100
1000
0100
0001
0010
1000
0100
0001
,
0100
1000
0010
0001
0010
1000
0010
0001
0010
1000
0100
0001
0010
1000
0100
0001
,
0010
0100
1000
0001
0010
0100
1000
0100
0001
0010
1000
0100
0001
0010
1000
0001
,
0010
0100
1000
0001
0100
1000
0010
0001
0010
0100
1000
0100
0010
1000
0010
0001
,
0010
0100
0010
0001
0010
0100
1000
0010
0100
0001
1000
0010
0100
0001
1000
0010
,
0100
0001
0010
0100
1000
0001
0010
0001
0010
1000
0010
0001
0100
0001
0100
0010
,
0100
1000
0100
0001
0100
0010
0100
1000
0100
0010
0100
0001
0100
1000
0100
0001
,
0010
1000
0100
0001
0010
1000
0100
0010
0001
1000
0100
0010
0001
0010
0100
1000
,
0001
0010
0100
1000
0001
0010
0100
1000
0001
0010
0100
0001
1000
0001
1000
0001
,
1000
0001
1000
0010
0100
0010
0100
0010
0100
0010
0100
1000
0100
1000
0100
0001
,
0100
0001
0100
1000
0010
1000
0010
0001
0010
0001
0010
0001
0100
1000
0100
0001
,
0100
1000
0100
0001
0010
1000
0010
0001
1000
0001
0100
0010
0100
1000
0001
0010
,
0100
1000
0001
0010
0100
1000
0001
0010
0100
1000
0001
0010
0100
1000
0001
0010
,
0100
1000
0100
0001
0010
1000
0100
0001
0010
0001
0100
1000
0010
0001
0100
1000
,
0010
0001
0100
1000
0010
0001
0100
1000
0100
0010
0001
1000
0100
0010
0001
1000
,
0100
0001
0010
1000
0100
0001
0010
1000
0100
0001
0010
1000
0001
0010
0100
1000
,
0001
0010
0100
1000
0001
0010
0100
1000
0001
0010
0100
0001
1000
0010
0100
0001
,
1000
0010
0100
0001
1000
0010
0100
1000
0010
0001
0100
1000
0010
0001
0010
0100
,
0001
1000
0100
0010
1000
0100
0001
0010
0100
0001
1000
0100
1000
0001
1000
0010
,
1000
0001
0100
0001
1000
0001
0010
0001
0010
0100
0010
1000
0100
1000
0100
0010
,
0100
0001
0010
0100
1000
0001
0010
0100
1000
0001
0010
0100
1000
0001
0010
0100
,
1000
0001
0010
1000
0010
0001
1000
0100
0001
0100
1000
0010
0001
0010
1000
0100
,
0001
0100
1000
0001
0010
0100
1000
0001
0010
0100
1000
0001
0010
0100
1000
0001
,
0010
0100
2000
0002
0000
0000
3003
0010
0000
1000
0000
0100
0000
0000
0000
0010
,
0000
0001
0000
0100
0000
0000
0000
0010
0000
1000
0000
0100
0000
0000
0000
0010
,
0000
0001
0000
0100
0000
0000
0010
0000
1000
0000
0100
0000
0010
0000
0001
0000
,
0010
0100
1000
0100
0001
0010
0100
1000
,
0100
0010
0100
1000
0010
0001
0100
1000
,
0100
0001
0100
1000
0100
0001
0010
1000
,
0100
0010
1000
0100
1000
0100
0001
0100
,
1000
0000
0000
0000
0000
0000
0001
0000
0000
0000
0000
0000
0100
0000
0000
0001
0000
0000
0000
0000
0000
0100
0000
0000
0001
0000
0000
0000
0000
0000
0100
0000
0000
1000
0000
0000
0000
0000
0000
0100
0000
0000
1000
0000
0100
0000
2002
0000
,
0000
0000
0000
0000
0000
0000
0000
0000
0000
0000
0000
0000
0000
3003
0000
0000
0000
0000
0000
0000
0000
0000
0000
0000
;

//---------------dance-single - SMANIAC----------------
#NOTES:
     dance-single:
     SMANIAC:
     Challenge:
     10:
     1.000,1.000,0.248,0.113,1.000,931.000,33.000,15.000,0.000,0.000:
0000
0000
0000
0000
,
0000
0000
0000
0000
,
0000
0000
0000
0000
0000
0000
0000
0000
0000
0000
0001
1000
0010
0100
0001
1000
,
0010
0100
0001
0010
0100
1000
0001
0100
0010
1000
0001
0010
0100
1000
0000
0000
,
0001
0010
0100
1000
0100
0001
0010
1000
,
0100
0001
0100
1000
0010
0100
0001
0010
,
0100
1000
0100
1000
0010
0100
1000
0001
,
0100
0000
0001
1000
0010
0100
0001
1000
0010
0100
0001
0010
0100
1000
0001
0010
,
0100
1000
0200
0000
0000
0000
0000
0000
0000
0000
0000
0000
0300
0000
1000
0000
,
0010
0002
0000
0003
2000
0000
0000
3000
,
0200
0000
0000
0000
0000
0300
1000
0000
,
0002
0000
0000
0000
0000
0003
0010
0000
,
2000
0000
0000
0000
0000
3000
0001
1000
,
0200
0000
0000
0000
2000
0000
0000
3000
,
0010
0000
0001
1000
0300
0010
1000
0001
0100
1000
0100
0001
0010
1000
0010
0001
,
1000
0010
0100
0001
0010
0100
1000
0100
0010
0001
1000
0010
0100
0001
0000
1000
,
0000
0010
0000
0100
0000
0001
0000
1000
0000
0010
0000
0100
0000
0001
0000
1000
,
0000
0001
0000
0010
0000
0001
0000
0010
0000
0001
0000
0100
0000
1000
0000
0010
,
0000
0100
0000
0001
0000
0010
0000
1000
0000
0100
0000
0001
0010
0001
0010
0001
,
0010
0100
0010
0100
0010
0100
0010
1000
0010
1000
0010
1000
0100
0001
1000
0000
,
0010
0100
1000
0001
0010
0100
1000
0001
,
0010
0100
1000
0100
0001
0010
1000
0100
,
0001
0100
1000
0100
0001
0010
0100
1000
,
0100
0000
1000
0100
0010
0001
1000
0100
0010
0001
1000
0010
1000
0010
0001
0010
,
0000
0000
1000
0100
0000
0000
0100
0010
0000
0000
0010
0001
0000
0000
0001
1000
,
0000
0000
1000
0100
0000
0000
0100
0010
0000
0000
0010
0001
0000
0000
0001
1000
,
0000
0000
0001
1000
0010
0100
0001
0000
0000
1000
0001
0100
0010
0001
1000
0000
,
0000
0001
0100
0001
0100
0001
0100
0001
0100
1000
0100
1000
0000
0000
0001
0100
,
0000
0000
1000
0100
0000
0000
0001
0100
0000
0000
1000
0100
0000
1000
0010
0000
,
0000
0001
0010
0000
0000
1000
0001
0000
0010
0100
0000
0000
0010
0100
0010
1000
,
0001
1000
0001
0010
1000
0100
0001
0010
1000
0100
0001
1000
0010
0100
1000
0001
,
0010
0000
0000
1000
0000
0000
0001
0000
0000
0010
0000
0000
0100
0000
0000
1000
0000
0000
0100
0000
0000
0001
0000
0000
0010
0000
0000
0000
0000
0000
0001
0000
0010
0000
0100
0000
1000
0000
0000
0000
0000
0000
0001
0000
0000
0000
0000
0000
,
0010
0001
0010
0001
0100
1000
0100
0001
,
1000
0100
0010
0001
1000
0100
0010
0001
,
0010
0100
1000
0001
0010
0100
1000
0001
,
0010
0001
0100
1000
0100
0001
0010
1000
,
0010
0001
1000
0100
0001
1000
0001
0010
,
0100
1000
0001
0010
0100
1000
0001
0010
,
0100
0001
1000
0010
0100
0001
1000
0100
,
0010
0001
1000
0100
0010
0001
1000
0100
,
0010
0001
1000
0010
0001
0100
1000
0100
,
1000
0001
1000
0010
1000
0001
1000
0100
,
0100
0010
0001
0010
0100
1000
0001
0100
,
1000
0100
0001
1000
0100
0010
1000
0001
,
0010
0100
1000
0100
0010
0001
0010
1000
,
0100
0001
0100
1000
0010
0001
0010
1000
,
0010
0001
0010
1000
0010
0001
1000
0000
,
0001
0100
0001
0000
0000
1000
0100
0010
0000
0000
1000
0100
1000
0100
0000
0000
,
0011
1010
1100
0101
,
1010
0101
0011
1100
,
1001
0110
0101
0011
,
1010
1100
1001
0110
,
0011
1010
0101
1100
,
0101
0011
1010
0101
,
0110
1100
1001
0011
,
1001
0101
0110
2002
,
3003
0100
0000
0001
0000
0000
1000
0000
0000
0010
0000
0000
0100
0000
0000
0001
0000
0000
0010
0000
0000
0100
0000
0000
,
1000
0010
0100
0001
0100
1000
0001
0010
,
0100
1000
0100
0010
0001
0010
0100
1000
,
0100
0010
0001
0010
0100
1000
0001
0010
,
0100
1000
0001
0010
0100
1000
0010
0001
,
0100
1000
0010
0001
0100
0001
0100
0100
,
2000
0000
0000
0000
,
0000
0000
0000
0000
0000
0000
0000
3000
,
0001
0010
0100
1000
0100
0010
0001
0010
0100
1000
0001
0010
0100
1000
0001
0010
,
0100
1000
0001
0010
0100
1000
0001
0010
0100
1000
0100
0001
0010
1000
0100
0001
,
0100
1000
0010
0001
0010
1000
0010
0001
0010
1000
0100
0001
0010
1000
0100
0001
,
0010
0100
1000
0001
0010
0100
1000
0100
0001
0010
1000
0100
0001
0010
1000
0001
,
0010
0100
1000
0001
0100
1000
0010
0001
0010
0100
1000
0100
0010
1000
0010
0001
,
0010
0100
0010
0001
0010
0100
1000
0010
0100
0001
1000
0010
0100
0001
1000
0010
,
0100
0001
0010
0100
1000
0001
0010
0001
0010
1000
0010
0001
0100
0001
0100
0010
,
0100
1000
0100
0001
0100
0010
0100
1000
0100
0010
0100
0001
0100
1000
0100
0001
,
0010
1000
0100
0001
0010
1000
0100
0010
0001
1000
0100
0010
0001
0010
0100
1000
,
0001
0010
0100
1000
0001
0010
0100
1000
0001
0010
0100
0001
1000
0001
1000
0001
,
1000
0001
1000
0010
0100
0010
0100
0010
0100
0010
0100
1000
0100
1000
0100
0001
,
0100
0001
0100
1000
0010
1000
0010
0001
0010
0001
0010
0001
0100
1000
0100
0001
,
0100
1000
0100
0001
0010
1000
0010
0001
1000
0001
0100
0010
0100
1000
0001
0010
,
0100
1000
0001
0010
0100
1000
0001
0010
0100
1000
0001
0010
0100
1000
0001
0010
,
0100
1000
0100
0001
0010
1000
0100
0001
0010
0001
0100
1000
0010
0001
0100
1000
,
0010
0001
0100
1000
0010
0001
0100
1000
0100
0010
0001
1000
0100
0010
0001
1000
,
0100
0001
0010
1000
0100
0001
0010
1000
0100
0001
0010
1000
0001
0010
0100
1000
,
0001
0010
0100
1000
0001
0010
0100
1000
0001
0010
0100
0001
1000
0010
0100
0001
,
1000
0010
0100
0001
1000
0010
0100
1000
0010
0001
0100
1000
0010
0001
0010
0100
,
0001
1000
0100
0010
1000
0100
0001
0010
0100
0001
1000
0100
1000
0001
1000
0010
,
1000
0001
0100
0001
1000
0001
0010
0001
0010
0100
0010
1000
0100
1000
0100
0010
,
0100
0001
0010
0100
1000
0001
0010
0100
1000
0001
0010
0100
1000
0001
0010
0100
,
1000
0001
0010
1000
0010
0001
1000
0100
0001
0100
1000
0010
0001
0010
1000
0100
,
0001
0100
1000
0001
0010
0100
1000
0001
0010
0100
1000
0001
0010
0100
1000
0001
,
0010
0100
2000
0002
0000
0000
3003
0010
0000
1000
0000
0100
0000
0000
0000
0010
,
0000
0001
0000
0100
0000
0000
0000
0010
0000
1000
0000
0100
0000
0000
0000
0010
,
0000
0001
0000
0100
0000
0000
0010
0000
1000
0000
0100
0000
0010
0000
0001
0000
,
0010
0100
1000
0100
0001
0010
0100
1000
,
0100
0010
0100
1000
0010
0001
0100
1000
,
0100
0001
0100
1000
0100
0001
0010
1000
,
0100
0010
1000
0100
1000
0100
0001
0100
,
1000
0000
0000
0000
0000
0000
0001
0000
0000
0000
0000
0000
0100
0000
0000
0001
0000
0000
0000
0000
0000
0100
0000
0000
0001
0000
0000
0000
0000
0000
0100
0000
0000
1000
0000
0000
0000
0000
0000
0100
0000
0000
1000
0000
0100
0000
2002
0000
,
0000
0000
0000
0000
0000
0000
0000
0000
0000
0000
0000
0000
0000
3003
0000
0000
0000
0000
0000
0000
0000
0000
0000
0000
;

//---------------dance-single - BASIC----------------
#NOTES:
     dance-single:
     BASIC:
     Easy:
     10:
     1.000,1.000,0.248,0.113,1.000,931.000,33.000,15.000,0.000,0.000:
0000
0000
0000
0000
,
0000
0000
0000
0000
,
0000
0000
0000
0000
0000
0000
0000
0000
0000
0000
0001
1000
0010
0100
0001
1000
,
0010
0100
0001
0010
0100
1000
0001
0100
0010
1000
0001
0010
0100
1000
0000
0000
,
0001
0010
0100
1000
0100
0001
0010
1000
,
0100
0001
0100
1000
0010
0100
0001
0010
,
0100
1000
0100
1000
0010
0100
1000
0001
,
0100
0000
0001
1000
0010
0100
0001
1000
0010
0100
0001
0010
0100
1000
0001
0010
,
0100
1000
0200
0000
0000
0000
0000
0000
0000
0000
0000
0000
0300
0000
1000
0000
,
0010
0002
0000
0003
2000
0000
0000
3000
,
0200
0000
0000
0000
0000
0300
1000
0000
,
0002
0000
0000
0000
0000
0003
0010
0000
,
2000
0000
0000
0000
0000
3000
0001
1000
,
0200
0000
0000
0000
2000
0000
0000
3000
,
0010
0000
0001
1000
0300
0010
1000
0001
0100
1000
0100
0001
0010
1000
0010
0001
,
1000
0010
0100
0001
0010
0100
1000
0100
0010
0001
1000
0010
0100
0001
0000
1000
,
0000
0010
0000
0100
0000
0001
0000
1000
0000
0010
0000
0100
0000
0001
0000
1000
,
0000
0001
0000
0010
0000
0001
0000
0010
0000
0001
0000
0100
0000
1000
0000
0010
,
0000
0100
0000
0001
0000
0010
0000
1000
0000
0100
0000
0001
0010
0001
0010
0001
,
0010
0100
0010
0100
0010
0100
0010
1000
0010
1000
0010
1000
0100
0001
1000
0000
,
0010
0100
1000
0001
0010
0100
1000
0001
,
0010
0100
1000
0100
0001
0010
1000
0100
,
0001
0100
1000
0100
0001
0010
0100
1000
,
0100
0000
1000
0100
0010
0001
1000
0100
0010
0001
1000
0010
1000
0010
0001
0010
,
0000
0000
1000
0100
0000
0000
0100
0010
0000
0000
0010
0001
0000
0000
0001
1000
,
0000
0000
1000
0100
0000
0000
0100
0010
0000
0000
0010
0001
0000
0000
0001
1000
,
0000
0000
0001
1000
0010
0100
0001
0000
0000
1000
0001
0100
0010
0001
1000
0000
,
0000
0001
0100
0001
0100
0001
0100
0001
0100
1000
0100
1000
0000
0000
0001
0100
,
0000
0000
1000
0100
0000
0000
0001
0100
0000
0000
1000
0100
0000
1000
0010
0000
,
0000
0001
0010
0000
0000
1000
0001
0000
0010
0100
0000
0000
0010
0100
0010
1000
,
0001
1000
0001
0010
1000
0100
0001
0010
1000
0100
0001
1000
0010
0100
1000
0001
,
0010
0000
0000
1000
0000
0000
0001
0000
0000
0010
0000
0000
0100
0000
0000
1000
0000
0000
0100
0000
0000
0001
0000
0000
0010
0000
0000
0000
0000
0000
0001
0000
0010
0000
0100
0000
1000
0000
0000
0000
0000
0000
0001
0000
0000
0000
0000
0000
,
0010
0001
0010
0001
0100
1000
0100
0001
,
1000
0100
0010
0001
1000
0100
0010
0001
,
0010
0100
1000
0001
0010
0100
1000
0001
,
0010
0001
0100
1000
0100
0001
0010
1000
,
0010
0001
1000
0100
0001
1000
0001
0010
,
0100
1000
0001
0010
0100
1000
0001
0010
,
0100
0001
1000
0010
0100
0001
1000
0100
,
0010
0001
1000
0100
0010
0001
1000
0100
,
0010
0001
1000
0010
0001
0100
1000
0100
,
1000
0001
1000
0010
1000
0001
1000
0100
,
0100
0010
0001
0010
0100
1000
0001
0100
,
1000
0100
0001
1000
0100
0010
1000
0001
,
0010
0100
1000
0100
0010
0001
0010
1000
,
0100
0001
0100
1000
0010
0001
0010
1000
,
0010
0001
0010
1000
0010
0001
1000
0000
,
0001
0100
0001
0000
0000
1000
0100
0010
0000
0000
1000
0100
1000
0100
0000
0000
,
0011
1010
1100
0101
,
1010
0101
0011
1100
,
1001
0110
0101
0011
,
1010
1100
1001
0110
,
0011
1010
0101
1100
,
0101
0011
1010
0101
,
0110
1100
1001
0011
,
1001
0101
0110
2002
,
3003
0100
0000
0001
0000
0000
1000
0000
0000
0010
0000
0000
0100
0000
0000
0001
0000
0000
0010
0000
0000
0100
0000
0000
,
1000
0010
0100
0001
0100
1000
0001
0010
,
0100
1000
0100
0010
0001
0010
0100
1000
,
0100
0010
0001
0010
0100
1000
0001
0010
,
0100
1000
0001
0010
0100
1000
0010
0001
,
0100
1000
0010
0001
0100
0001
0100
0100
,
2000
0000
0000
0000
,
0000
0000
0000
0000
0000
0000
0000
3000
,
0001
0010
0100
1000
0100
0010
0001
0010
0100
1000
0001
0010
0100
1000
0001
0010
,
0100
1000
0001
0010
0100
1000
0001
0010
0100
1000
0100
0001
0010
1000
0100
0001
,
0100
1000
0010
0001
0010
1000
0010
0001
0010
1000
0100
0001
0010
1000
0100
0001
,
0010
0100
1000
0001
0010
0100
1000
0100
0001
0010
1000
0100
0001
0010
1000
0001
,
0010
0100
1000
0001
0100
1000
0010
0001
0010
0100
1000
0100
0010
1000
0010
0001
,
0010
0100
0010
0001
0010
0100
1000
0010
0100
0001
1000
0010
0100
0001
1000
0010
,
0100
0001
0010
0100
1000
0001
0010
0001
0010
1000
0010
0001
0100
0001
0100
0010
,
0100
1000
0100
0001
0100
0010
0100
1000
0100
0010
0100
0001
0100
1000
0100
0001
,
0010
1000
0100
0001
0010
1000
0100
0010
0001
1000
0100
0010
0001
0010
0100
1000
,
0001
0010
0100
1000
0001
0010
0100
1000
0001
0010
0100
0001
1000
0001
1000
0001
,
1000
0001
1000
0010
0100
0010
0100
0010
0100
0010
0100
1000
0100
1000
0100
0001
,
0100
0001
0100
1000
0010
1000
0010
0001
0010
0001
0010
0001
0100
1000
0100
0001
,
0100
1000
0100
0001
0010
1000
0010
0001
1000
0001
0100
0010
0100
1000
0001
0010
,
0100
1000
0001
0010
0100
1000
0001
0010
0100
1000
0001
0010
0100
1000
0001
0010
,
0100
1000
0100
0001
0010
1000
0100
0001
0010
0001
0100
1000
0010
0001
0100
1000
,
0010
0001
0100
1000
0010
0001
0100
1000
0100
0010
0001
1000
0100
0010
0001
1000
,
0100
0001
0010
1000
0100
0001
0010
1000
0100
0001
0010
1000
0001
0010
0100
1000
,
0001
0010
0100
1000
0001
0010
0100
1000
0001
0010
0100
0001
1000
0010
0100
0001
,
1000
0010
0100
0001
1000
0010
0100
1000
0010
0001
0100
1000
0010
0001
0010
0100
,
0001
1000
0100
0010
1000
0100
0001
0010
0100
0001
1000
0100
1000
0001
1000
0010
,
1000
0001
0100
0001
1000
0001
0010
0001
0010
0100
0010
1000
0100
1000
0100
0010
,
0100
0001
0010
0100
1000
0001
0010
0100
1000
0001
0010
0100
1000
0001
0010
0100
,
1000
0001
0010
1000
0010
0001
1000
0100
0001
0100
1000
0010
0001
0010
1000
0100
,
0001
0100
1000
0001
0010
0100
1000
0001
0010
0100
1000
0001
0010
0100
1000
0001
,
0010
0100
2000
0002
0000
0000
3003
0010
0000
1000
0000
0100
0000
0000
0000
0010
,
0000
0001
0000
0100
0000
0000
0000
0010
0000
1000
0000
0100
0000
0000
0000
0010
,
0000
0001
0000
0100
0000
0000
0010
0000
1000
0000
0100
0000
0010
0000
0001
0000
,
0010
0100
1000
0100
0001
0010
0100
1000
,
0100
0010
0100
1000
0010
0001
0100
1000
,
0100
0001
0100
1000
0100
0001
0010
1000
,
0100
0010
1000
0100
1000
0100
0001
0100
,
1000
0000
0000
0000
0000
0000
0001
0000
0000
0000
0000
0000
0100
0000
0000
0001
0000
0000
0000
0000
0000
0100
0000
0000
0001
0000
0000
0000
0000
0000
0100
0000
0000
1000
0000
0000
0000
0000
0000
0100
0000
0000
1000
0000
0100
0000
2002
0000
,
0000
0000
0000
0000
0000
0000
0000
0000
0000
0000
0000
0000
0000
3003
0000
0000
0000
0000
0000
0000
0000
0000
0000
0000
;

//---------------dance-single - ANOTHER----------------
#NOTES:
     dance-single:
     ANOTHER:
     Medium:
     10:
     1.000,1.000,0.248,0.113,1.000,931.000,33.000,15.000,0.000,0.000:
0000
0000
0000
0000
,
0000
0000
0000
0000
,
0000
0000
0000
0000
0000
0000
0000
0000
0000
0000
0001
1000
0010
0100
0001
1000
,
0010
0100
0001
0010
0100
1000
0001
0100
0010
1000
0001
0010
0100
1000
0000
0000
,
0001
0010
0100
1000
0100
0001
0010
1000
,
0100
0001
0100
1000
0010
0100
0001
0010
,
0100
1000
0100
1000
0010
0100
1000
0001
,
0100
0000
0001
1000
0010
0100
0001
1000
0010
0100
0001
0010
0100
1000
0001
0010
,
0100
1000
0200
0000
0000
0000
0000
0000
0000
0000
0000
0000
0300
0000
1000
0000
,
0010
0002
0000
0003
2000
0000
0000
3000
,
0200
0000
0000
0000
0000
0300
1000
0000
,
0002
0000
0000
0000
0000
0003
0010
0000
,
2000
0000
0000
0000
0000
3000
0001
1000
,
0200
0000
0000
0000
2000
0000
0000
3000
,
0010
0000
0001
1000
0300
0010
1000
0001
0100
1000
0100
0001
0010
1000
0010
0001
,
1000
0010
0100
0001
0010
0100
1000
0100
0010
0001
1000
0010
0100
0001
0000
1000
,
0000
0010
0000
0100
0000
0001
0000
1000
0000
0010
0000
0100
0000
0001
0000
1000
,
0000
0001
0000
0010
0000
0001
0000
0010
0000
0001
0000
0100
0000
1000
0000
0010
,
0000
0100
0000
0001
0000
0010
0000
1000
0000
0100
0000
0001
0010
0001
0010
0001
,
0010
0100
0010
0100
0010
0100
0010
1000
0010
1000
0010
1000
0100
0001
1000
0000
,
0010
0100
1000
0001
0010
0100
1000
0001
,
0010
0100
1000
0100
0001
0010
1000
0100
,
0001
0100
1000
0100
0001
0010
0100
1000
,
0100
0000
1000
0100
0010
0001
1000
0100
0010
0001
1000
0010
1000
0010
0001
0010
,
0000
0000
1000
0100
0000
0000
0100
0010
0000
0000
0010
0001
0000
0000
0001
1000
,
0000
0000
1000
0100
0000
0000
0100
0010
0000
0000
0010
0001
0000
0000
0001
1000
,
0000
0000
0001
1000
0010
0100
0001
0000
0000
1000
0001
0100
0010
0001
1000
0000
,
0000
0001
0100
0001
0100
0001
0100
0001
0100
1000
0100
1000
0000
0000
0001
0100
,
0000
0000
1000
0100
0000
0000
0001
0100
0000
0000
1000
0100
0000
1000
0010
0000
,
0000
0001
0010
0000
0000
1000
0001
0000
0010
0100
0000
0000
0010
0100
0010
1000
,
0001
1000
0001
0010
1000
0100
0001
0010
1000
0100
0001
1000
0010
0100
1000
0001
,
0010
0000
0000
1000
0000
0000
0001
0000
0000
0010
0000
0000
0100
0000
0000
1000
0000
0000
0100
0000
0000
0001
0000
0000
0010
0000
0000
0000
0000
0000
0001
0000
0010
0000
0100
0000
1000
0000
0000
0000
0000
0000
0001
0000
0000
0000
0000
0000
,
0010
0001
0010
0001
0100
1000
0100
0001
,
1000
0100
0010
0001
1000
0100
0010
0001
,
0010
0100
1000
0001
0010
0100
1000
0001
,
0010
0001
0100
1000
0100
0001
0010
1000
,
0010
0001
1000
0100
0001
1000
0001
0010
,
0100
1000
0001
0010
0100
1000
0001
0010
,
0100
0001
1000
0010
0100
0001
1000
0100
,
0010
0001
1000
0100
0010
0001
1000
0100
,
0010
0001
1000
0010
0001
0100
1000
0100
,
1000
0001
1000
0010
1000
0001
1000
0100
,
0100
0010
0001
0010
0100
1000
0001
0100
,
1000
0100
0001
1000
0100
0010
1000
0001
,
0010
0100
1000
0100
0010
0001
0010
1000
,
0100
0001
0100
1000
0010
0001
0010
1000
,
0010
0001
0010
1000
0010
0001
1000
0000
,
0001
0100
0001
0000
0000
1000
0100
0010
0000
0000
1000
0100
1000
0100
0000
0000
,
0011
1010
1100
0101
,
1010
0101
0011
1100
,
1001
0110
0101
0011
,
1010
1100
1001
0110
,
0011
1010
0101
1100
,
0101
0011
1010
0101
,
0110
1100
1001
0011
,
1001
0101
0110
2002
,
3003
0100
0000
0001
0000
0000
1000
0000
0000
0010
0000
0000
0100
0000
0000
0001
0000
0000
0010
0000
0000
0100
0000
0000
,
1000
0010
0100
0001
0100
1000
0001
0010
,
0100
1000
0100
0010
0001
0010
0100
1000
,
0100
0010
0001
0010
0100
1000
0001
0010
,
0100
1000
0001
0010
0100
1000
0010
0001
,
0100
1000
0010
0001
0100
0001
0100
0100
,
2000
0000
0000
0000
,
0000
0000
0000
0000
0000
0000
0000
3000
,
0001
0010
0100
1000
0100
0010
0001
0010
0100
1000
0001
0010
0100
1000
0001
0010
,
0100
1000
0001
0010
0100
1000
0001
0010
0100
1000
0100
0001
0010
1000
0100
0001
,
0100
1000
0010
0001
0010
1000
0010
0001
0010
1000
0100
0001
0010
1000
0100
0001
,
0010
0100
1000
0001
0010
0100
1000
0100
0001
0010
1000
0100
0001
0010
1000
0001
,
0010
0100
1000
0001
0100
1000
0010
0001
0010
0100
1000
0100
0010
1000
0010
0001
,
0010
0100
0010
0001
0010
0100
1000
0010
0100
0001
1000
0010
0100
0001
1000
0010
,
0100
0001
0010
0100
1000
0001
0010
0001
0010
1000
0010
0001
0100
0001
0100
0010
,
0100
1000
0100
0001
0100
0010
0100
1000
0100
0010
0100
0001
0100
1000
0100
0001
,
0010
1000
0100
0001
0010
1000
0100
0010
0001
1000
0100
0010
0001
0010
0100
1000
,
0001
0010
0100
1000
0001
0010
0100
1000
0001
0010
0100
0001
1000
0001
1000
0001
,
1000
0001
1000
0010
0100
0010
0100
0010
0100
0010
0100
1000
0100
1000
0100
0001
,
0100
0001
0100
1000
0010
1000
0010
0001
0010
0001
0010
0001
0100
1000
0100
0001
,
0100
1000
0100
0001
0010
1000
0010
0001
1000
0001
0100
0010
0100
1000
0001
0010
,
0100
1000
0001
0010
0100
1000
0001
0010
0100
1000
0001
0010
0100
1000
0001
0010
,
0100
1000
0100
0001
0010
1000
0100
0001
0010
0001
0100
1000
0010
0001
0100
1000
,
0010
0001
0100
1000
0010
0001
0100
1000
0100
0010
0001
1000
0100
0010
0001
1000
,
0100
0001
0010
1000
0100
0001
0010
1000
0100
0001
0010
1000
0001
0010
0100
1000
,
0001
0010
0100
1000
0001
0010
0100
1000
0001
0010
0100
0001
1000
0010
0100
0001
,
1000
0010
0100
0001
1000
0010
0100
1000
0010
0001
0100
1000
0010
0001
0010
0100
,
0001
1000
0100
0010
1000
0100
0001
0010
0100
0001
1000
0100
1000
0001
1000
0010
,
1000
0001
0100
0001
1000
0001
0010
0001
0010
0100
0010
1000
0100
1000
0100
0010
,
0100
0001
0010
0100
1000
0001
0010
0100
1000
0001
0010
0100
1000
0001
0010
0100
,
1000
0001
0010
1000
0010
0001
1000
0100
0001
0100
1000
0010
0001
0010
1000
0100
,
0001
0100
1000
0001
0010
0100
1000
0001
0010
0100
1000
0001
0010
0100
1000
0001
,
0010
0100
2000
0002
0000
0000
3003
0010
0000
1000
0000
0100
0000
0000
0000
0010
,
0000
0001
0000
0100
0000
0000
0000
0010
0000
1000
0000
0100
0000
0000
0000
0010
,
0000
0001
0000
0100
0000
0000
0010
0000
1000
0000
0100
0000
0010
0000
0001
0000
,
0010
0100
1000
0100
0001
0010
0100
1000
,
0100
0010
0100
1000
0010
0001
0100
1000
,
0100
0001
0100
1000
0100
0001
0010
1000
,
0100
0010
1000
0100
1000
0100
0001
0100
,
1000
0000
0000
0000
0000
0000
0001
0000
0000
0000
0000
0000
0100
0000
0000
0001
0000
0000
0000
0000
0000
0100
0000
0000
0001
0000
0000
0000
0000
0000
0100
0000
0000
1000
0000
0000
0000
0000
0000
0100
0000
0000
1000
0000
0100
0000
2002
0000
,
0000
0000
0000
0000
0000
0000
0000
0000
0000
0000
0000
0000
0000
3003
0000
0000
0000
0000
0000
0000
0000
0000
0000
0000
;

//---------------dance-solo - BASIC----------------
#NOTES:
     dance-solo:
     BASIC:
     Easy:
     10:
     1.000,1.000,0.248,0.113,1.000,931.000,33.000,15.000,0.000,0.000:
000000
000000
000000
000000
,
000000
000000
000000
000000
,
000000
000000
000000
000000
000000
000000
000000
000000
000000
000000
000100
100000
001000
010000
000100
100000
,
001000
010000
000100
001000
010000
100000
000100
010000
001000
100000
000100
001000
010000
100000
000000
000000
,
000100
001000
010000
100000
010000
000100
001000
100000
,
010000
000100
010000
100000
001000
010000
000100
001000
,
010000
100000
010000
100000
001000
010000
100000
000100
,
010000
000000
000100
100000
001000
010000
000100
100000
001000
010000
000100
001000
010000
100000
000100
001000
,
010000
100000
020000
000000
000000
000000
000000
000000
000000
000000
000000
000000
030000
000000
100000
000000
,
001000
000200
000000
000300
200000
000000
000000
300000
,
020000
000000
000000
000000
000000
030000
100000
000000
,
000200
000000
000000
000000
000000
000300
001000
000000
,
200000
000000
000000
000000
000000
300000
000100
100000
,
020000
000000
000000
000000
200000
000000
000000
300000
,
001000
000000
000100
100000
030000
001000
100000
000100
010000
100000
010000
000100
001000
100000
001000
000100
,
100000
001000
010000
000100
001000
010000
100000
010000
001000
000100
100000
001000
010000
000100
000000
100000
,
000000
001000
000000
010000
000000
000100
000000
100000
000000
001000
000000
010000
000000
000100
000000
100000
,
000000
000100
000000
001000
000000
000100
000000
001000
000000
000100
000000
010000
000000
100000
000000
001000
,
000000
010000
000000
000100
000000
001000
000000
100000
000000
010000
000000
000100
001000
000100
001000
000100
,
001000
010000
001000
010000
001000
010000
001000
100000
001000
100000
001000
100000
010000
000100
100000
000000
,
001000
010000
100000
000100
001000
010000
100000
000100
,
001000
010000
100000
010000
000100
001000
100000
010000
,
000100
010000
100000
010000
000100
001000
010000
100000
,
010000
000000
100000
010000
001000
000100
100000
010000
001000
000100
100000
001000
100000
001000
000100
001000
,
000000
000000
100000
010000
000000
000000
010000
001000
000000
000000
001000
000100
000000
000000
000100
100000
,
000000
000000
100000
010000
000000
000000
010000
001000
000000
000000
001000
000100
000000
000000
000100
100000
,
000000
000000
000100
100000
001000
010000
000100
000000
000000
100000
000100
010000
001000
000100
100000
000000
,
000000
000100
010000
000100
010000
000100
010000
000100
010000
100000
010000
100000
000000
000000
000100
010000
,
000000
000000
100000
010000
000000
000000
000100
010000
000000
000000
100000
010000
000000
100000
001000
000000
,
000000
000100
001000
000000
000000
100000
000100
000000
001000
010000
000000
000000
001000
010000
001000
100000
,
000100
100000
000100
001000
100000
010000
000100
001000
100000
010000
000100
100000
001000
010000
100000
000100
,
001000
000000
000000
100000
000000
000000
000100
000000
000000
001000
000000
000000
010000
000000
000000
100000
000000
000000
010000
000000
000000
000100
000000
000000
001000
000000
000000
000000
000000
000000
000100
000000
001000
000000
010000
000000
100000
000000
000000
000000
000000
000000
000100
000000
000000
000000
000000
000000
,
001000
000100
001000
000100
010000
100000
010000
000100
,
100000
010000
001000
000100
100000
010000
001000
000100
,
001000
010000
100000
000100
001000
010000
100000
000100
,
001000
000100
010000
100000
010000
000100
001000
100000
,
001000
000100
100000
010000
000100
100000
000100
001000
,
010000
100000
000100
001000
010000
100000
000100
001000
,
010000
000100
100000
001000
010000
000100
100000
010000
,
001000
000100
100000
010000
001000
000100
100000
010000
,
001000
000100
100000
001000
000100
010000
100000
010000
,
100000
000100
100000
001000
100000
000100
100000
010000
,
010000
001000
000100
001000
010000
100000
000100
010000
,
100000
010000
000100
100000
010000
001000
100000
000100
,
001000
010000
100000
010000
001000
000100
001000
100000
,
010000
000100
010000
100000
001000
000100
001000
100000
,
001000
000100
001000
100000
001000
000100
100000
000000
,
000100
010000
000100
000000
000000
100000
010000
001000
000000
000000
100000
010000
100000
010000
000000
000000
,
001100
101000
110000
010100
,
101000
010100
001100
110000
,
100100
011000
010100
001100
,
101000
110000
100100
011000
,
001100
101000
010100
110000
,
010100
001100
101000
010100
,
011000
110000
100100
001100
,
100100
010100
011000
200200
,
300300
010000
000000
000100
000000
000000
100000
000000
000000
001000
000000
000000
010000
000000
000000
000100
000000
000000
001000
000000
000000
010000
000000
000000
,
100000
001000
010000
000100
010000
100000
000100
001000
,
010000
100000
010000
001000
000100
001000
010000
100000
,
010000
001000
000100
001000
010000
100000
000100
001000
,
010000
100000
000100
001000
010000
100000
001000
000100
,
010000
100000
001000
000100
010000
000100
010000
010000
,
200000
000000
000000
000000
,
000000
000000
000000
000000
000000
000000
000000
300000
,
000100
001000
010000
100000
010000
001000
000100
001000
010000
100000
000100
001000
010000
100000
000100
001000
,
010000
100000
000100
001000
010000
100000
000100
001000
010000
100000
010000
000100
001000
100000
010000
000100
,
010000
100000
001000
000100
001000
100000
001000
000100
001000
100000
010000
000100
001000
100000
010000
000100
,
001000
010000
100000
000100
001000
010000
100000
010000
000100
001000
100000
010000
000100
001000
100000
000100
,
001000
010000
100000
000100
010000
100000
001000
000100
001000
010000
100000
010000
001000
100000
001000
000100
,
001000
010000
001000
000100
001000
010000
100000
001000
010000
000100
100000
001000
010000
000100
100000
001000
,
010000
000100
001000
010000
100000
000100
001000
000100
001000
100000
001000
000100
010000
000100
010000
001000
,
010000
100000
010000
000100
010000
001000
010000
100000
010000
001000
010000
000100
010000
100000
010000
000100
,
001000
100000
010000
000100
001000
100000
010000
001000
000100
100000
010000
001000
000100
001000
010000
100000
,
000100
001000
010000
100000
000100
001000
010000
100000
000100
001000
010000
000100
100000
000100
100000
000100
,
100000
000100
100000
001000
010000
001000
010000
001000
010000
001000
010000
100000
010000
100000
010000
000100
,
010000
000100
010000
100000
001000
100000
001000
000100
001000
000100
001000
000100
010000
100000
010000
000100
,
010000
100000
010000
000100
001000
100000
001000
000100
100000
000100
010000
001000
010000
100000
000100
001000
,
010000
100000
000100
001000
010000
100000
000100
001000
010000
100000
000100
001000
010000
100000
000100
001000
,
010000
100000
010000
000100
001000
100000
010000
000100
001000
000100
010000
100000
001000
000100
010000
100000
,
001000
000100
010000
100000
001000
000100
010000
100000
010000
001000
000100
100000
010000
001000
000100
100000
,
010000
000100
001000
100000
010000
000100
001000
100000
010000
000100
001000
100000
000100
001000
010000
100000
,
000100
001000
010000
100000
000100
001000
010000
100000
000100
001000
010000
000100
100000
001000
010000
000100
,
100000
001000
010000
000100
100000
001000
010000
100000
001000
000100
010000
100000
001000
000100
001000
010000
,
000100
100000
010000
001000
100000
010000
000100
001000
010000
000100
100000
010000
100000
000100
100000
001000
,
100000
000100
010000
000100
100000
000100
001000
000100
001000
010000
001000
100000
010000
100000
010000
001000
,
010000
000100
001000
010000
100000
000100
001000
010000
100000
000100
001000
010000
100000
000100
001000
010000
,
100000
000100
001000
100000
001000
000100
100000
010000
000100
010000
100000
001000
000100
001000
100000
010000
,
000100
010000
100000
000100
001000
010000
100000
000100
001000
010000
100000
000100
001000
010000
100000
000100
,
001000
010000
200000
000200
000000
000000
300300
001000
000000
100000
000000
010000
000000
000000
000000
001000
,
000000
000100
000000
010000
000000
000000
000000
001000
000000
100000
000000
010000
000000
000000
000000
001000
,
000000
000100
000000
010000
000000
000000
001000
000000
100000
000000
010000
000000
001000
000000
000100
000000
,
001000
010000
100000
010000
000100
001000
010000
100000
,
010000
001000
010000
100000
001000
000100
010000
100000
,
010000
000100
010000
100000
010000
000100
001000
100000
,
010000
001000
100000
010000
100000
010000
000100
010000
,
100000
000000
000000
000000
000000
000000
000100
000000
000000
000000
000000
000000
010000
000000
000000
000100
000000
000000
000000
000000
000000
010000
000000
000000
000100
000000
000000
000000
000000
000000
010000
000000
000000
100000
000000
000000
000000
000000
000000
010000
000000
000000
100000
000000
010000
000000
200200
000000
,
000000
000000
000000
000000
000000
000000
000000
000000
000000
000000
000000
000000
000000
300300
000000
000000
000000
000000
000000
000000
000000
000000
000000
000000
;
