#TITLE:Lonely;
#SUBTITLE:(Original Club Mix);
#ARTIST:Deep Spirit;
#TITLETRANSLIT:;
#SUBTITLETRANSLIT:;
#ARTISTTRANSLIT:;
#CREDIT:;
#BANNER:Lonely-bn.png;
#BACKGROUND:Lonely-bg.png;
#LYRICSPATH:;
#CDTITLE:!joeCDtitle.png;
#MUSIC:Deep Spirit - Lonely (Original Club Mix).mp3;
#OFFSET:-0.060;
#SAMPLESTART:100.000;
#SAMPLELENGTH:12.000;
#SELECTABLE:YES;
#BPMS:0.000=140.000;
#STOPS:;
#BGCHANGES:;
// cache tags:
#FIRSTBEAT:0.000;
#LASTBEAT:780.000;
#SONGFILENAME:Songs/Fresh Flock of Fantastic Files F4/(-joe-) Lonely (Original Club Mix)/Lonely.sm;
#HASMUSIC:1;
#HASBANNER:1;
#MUSICLENGTH:337.570;
// end cache tags

//---------------dance-single - ----------------
#NOTES:
     dance-single:
     :
     Hard:
     12:
     0.986,0.953,1.000,0.592,0.370,1634.000,496.000,200.000,0.000,0.000:
1001
0001
0101
0100
1001
1000
2002
3003
,
1010
0000
0001
0000
0101
0000
0010
1000
0101
0000
0010
0000
0011
0000
0001
0000
,
0011
0010
1100
0001
1100
0001
0220
0330
,
0101
0001
1001
1000
0020
0000
2030
0000
,
3010
0001
1001
1000
0011
1000
0202
0303
,
0011
0000
0100
0000
0101
0000
1000
0100
0010
0000
0001
0000
0101
0000
0001
0000
,
0101
1000
1010
1000
0110
0001
2020
3030
,
0101
1000
1001
0100
0002
0000
2003
0000
,
3001
0001
0101
0100
1001
1000
1001
0110
,
1010
0000
0001
0000
0101
0000
0010
1000
0101
0000
0010
0000
0011
0000
0001
0000
,
0011
0010
1100
0001
1100
0001
1001
1010
,
0101
0001
1001
1000
0020
0000
2030
0000
,
3010
0001
1001
1000
0011
1000
0101
1010
,
0011
0000
0100
0000
0101
0000
1000
0100
0010
0000
0001
0000
0101
0000
0001
0000
,
0101
1000
1010
1000
0110
0001
0101
0011
,
1010
1000
1001
0100
0020
0000
2030
0000
,
3001
0001
0101
0100
1001
1000
1001
0010
,
1010
0000
0001
0000
0101
0000
0010
1000
0101
0000
0010
0000
0011
0000
0001
0000
,
0011
0010
1100
0001
1100
0001
0110
1000
,
0101
0001
1001
0001
2000
0000
3020
0000
,
0130
0001
1001
1000
0011
1000
0101
1000
,
0011
0000
0100
0000
0101
0000
1000
0100
0010
0000
0001
0000
0101
0000
0001
0000
,
0101
1000
1010
1000
0110
0001
0101
0010
,
1010
1000
1001
0100
0002
0000
2003
0000
,
3002
1003
2000
3100
0020
0031
0002
1003
,
0002
0103
0020
1030
0200
0310
0002
1003
,
2000
3010
0200
0301
0002
0103
0020
1030
,
0200
0000
1300
0000
0020
0000
1030
0001
1000
0000
0101
0000
0110
0000
1100
0000
,
2000
0000
3010
0000
0200
0000
0301
0000
0020
0000
0031
0000
0002
0000
0013
0100
,
2000
0000
3010
0000
0200
0000
0301
0000
0020
0000
0031
0000
2000
0000
3100
0010
,
0001
1000
0010
0100
0010
1000
0001
0100
0001
0010
0001
1000
0010
1000
0001
0100
,
0001
0010
0100
0000
0000
0000
1000
0100
0010
0000
0000
0000
0001
0010
0100
0000
0000
0000
1000
0100
0010
0000
0000
0000
,
0002
2003
3020
0230
,
0302
2003
3200
0320
,
0032
0023
0230
2300
,
3020
0230
0000
0000
,
0301
0001
1000
1000
0010
0010
0100
0100
,
0001
0001
1000
1000
0010
0010
0200
0000
,
0000
0000
0000
0000
,
0302
0000
0000
2003
,
3020
0000
0230
0302
,
0023
0000
0000
0230
,
2300
3002
0023
0230
,
0320
0032
2003
3200
,
0320
0000
0230
2300
,
3002
0000
0000
2003
,
3002
0203
0320
2030
,
3002
0203
0320
2030
,
3001
0000
0101
0000
1001
0000
0010
0100
0010
0000
1000
0000
1001
0000
0101
0000
,
1010
0000
1100
0000
0101
0000
1000
0001
1000
0000
0101
0000
1010
0000
0011
0000
,
1100
0000
0101
0000
0011
0000
0100
0010
0100
0000
0011
0000
1100
0000
1010
0000
,
0101
0000
0011
0000
1010
0000
0001
1000
0001
0000
1010
0000
0101
0000
1100
0000
,
0011
0000
1010
0000
1100
0000
0010
0100
0010
0000
1100
0000
0011
0000
1010
0000
,
0101
0000
0011
0000
1010
0000
0001
1000
0001
0000
1010
0000
0101
0000
0101
0000
,
1010
0000
1100
0000
0101
0000
1000
0001
1000
0000
0101
0000
1010
0000
0011
0000
,
1100
0000
0101
0000
0011
0000
0100
0001
1000
0000
0011
0000
1100
0000
1010
0000
,
1002
0000
1003
1000
0010
0010
1000
0001
,
1001
0001
0101
1000
1010
1000
0110
0100
,
0011
1000
1100
0001
0011
0100
0101
0001
,
1100
0001
1001
0010
0110
0001
0011
1000
,
1020
0130
1100
0101
1100
0011
1010
1001
,
0101
1000
0101
1000
1100
1000
0101
0010
,
0011
0001
0101
0010
1010
0100
1100
0100
,
0011
1000
0101
1000
0110
0001
1010
0100
,
2010
3100
0011
0010
0101
1000
1010
0100
,
1010
0001
1010
0001
0011
0001
1010
0100
,
1100
1000
1010
0100
0101
0010
0011
0010
,
1100
0001
1010
0001
0110
1000
0101
0010
,
0102
1003
1100
0100
1010
0001
0101
0010
,
0011
0000
1000
0000
0101
0000
0001
0000
1100
0000
0010
0000
0011
0000
1000
0100
,
0011
0000
0100
0000
0011
0000
0100
0000
0101
0000
0100
0000
0011
0000
1000
0001
,
0010
1000
0010
0100
0001
0100
0010
1000
0010
0100
0001
0010
0001
0100
0010
1000
,
0001
0100
0010
0000
0000
0000
1000
0010
0100
0000
0000
0000
0001
0100
0010
0000
0000
0000
1000
0010
0100
0000
0000
0000
,
0102
1003
2100
3010
,
0210
0301
0102
1003
,
0001
0000
0100
0010
1000
0000
1000
0010
0100
0000
0010
1000
0001
0000
1000
0000
,
0001
0000
1000
0100
0010
0000
0001
0010
0100
0000
1000
0001
0100
0000
0001
0000
,
1000
0000
0100
1000
0010
0000
0100
0001
0010
0000
0001
1000
0010
0000
0100
0000
,
1000
0000
0001
0010
0001
0000
1000
0000
1000
0000
0010
0000
0010
0000
0100
0000
,
1010
0000
0100
0010
1001
0000
0100
0010
0101
0000
1000
0001
1000
0000
0010
0000
,
0101
0000
0010
0100
1001
0000
0010
0100
1010
0000
0010
1000
0001
0100
0001
0100
,
0001
0000
1000
0100
1010
0000
0100
0010
1001
0000
0100
0010
0001
0000
1000
0000
,
1010
0000
0001
1000
0101
0000
0110
0000
1001
0010
0100
0001
0100
0010
0100
0001
,
2200
0000
0000
0000
3300
0000
0001
1000
0001
0000
0001
0000
0001
0000
0000
0000
,
1000
0010
0100
0001
1000
0010
0100
0001
1000
0010
0100
0001
1000
0010
0100
0010
,
1001
0000
0001
0010
0100
0000
1000
0010
0101
0000
0010
0100
1000
0000
1100
0000
,
0011
0000
0010
0100
0001
0000
1000
0010
1100
0000
1000
0010
0100
0000
0011
0000
,
0101
0000
0010
0100
0001
0000
0010
0100
1001
0000
1000
0001
0100
0000
0101
0000
,
1010
0000
0100
0001
1100
0000
0002
0000
0203
0000
0320
0000
2030
0000
3002
0000
,
1003
0000
1000
0100
0011
0000
0001
0010
1100
0000
0010
0100
1010
0000
0110
0000
,
1010
0000
0100
0001
1010
0000
0100
0001
1100
0000
1000
0100
0011
0000
0101
0000
,
0011
0000
0001
0010
0100
0000
1000
0100
0010
0000
0001
0010
0100
0000
0110
0000
,
0101
0000
0010
1000
0101
0000
0010
1000
0001
0100
0001
1000
0001
0100
0001
1000
,
0001
0000
0001
0010
0101
0000
1000
0100
0010
0000
0001
0010
0100
0000
1100
0000
,
0011
0000
1000
0010
0101
0000
1000
0100
0010
0000
0001
0010
0100
0000
1100
0000
,
0011
0000
1000
0010
0101
0000
0001
0010
0100
0000
1000
0100
0010
0000
0011
0000
,
1100
0000
0001
0100
1010
0000
0110
0000
0101
0000
1100
0000
0110
0000
0011
0000
,
1100
0000
0001
0100
1010
0000
1000
0100
0010
0000
0001
0010
0100
0000
1100
0000
,
0011
0000
1000
0010
1100
0000
0010
1000
0001
0000
0100
0001
1000
0000
1010
0000
,
0101
0000
0010
1000
0011
0000
0100
0001
1000
0000
0010
1000
0001
0000
0101
0000
,
1010
0000
0100
1000
0010
1000
0010
0100
0001
0010
0001
1000
0010
0100
0010
1000
,
0002
0023
0230
2300
3020
0230
0302
2003
,
3020
0230
0302
2003
3002
0023
0032
2003
,
3001
0001
0101
0100
1001
1000
1001
0100
,
1010
0000
0001
0000
0101
0000
0010
1000
0101
0000
0010
0000
0011
0000
0001
0000
,
0011
0010
1100
0001
1100
0001
1010
0100
,
0101
0001
1001
1000
0020
0000
2030
0000
,
3010
0001
1001
1000
0011
1000
0101
1000
,
0011
0000
0100
0000
0101
0000
1000
0100
0010
0000
0001
0000
0101
0000
0001
0000
,
0101
1000
1010
1000
0110
0001
0011
1000
,
1010
0001
1001
0100
0002
0000
2003
0000
,
3001
0001
0011
0100
1001
1000
1100
0001
,
1010
0000
0010
0000
0101
0000
0010
1000
0101
0000
0010
0000
0011
0000
0001
0000
,
0011
0010
1100
0001
1100
0001
1001
0010
,
0101
1010
1001
0001
2000
0000
3200
0000
,
0310
0001
0101
0001
1100
0001
1001
0010
,
0101
0000
1000
0000
1001
0000
0001
0010
0101
0000
0001
0000
1000
0000
0100
0000
,
0011
1000
0101
0001
1010
0001
0110
1000
,
0101
1000
1001
0001
0020
0000
2030
0000
,
3002
1003
2000
3100
0020
0031
0002
1003
,
0002
0103
0020
1030
0200
1300
0002
1003
,
2000
3010
0020
0130
0200
0310
0002
1003
,
2000
0000
3001
0000
0020
0000
0031
1000
0001
0000
0101
0000
0110
0000
1100
0000
,
2000
0000
3010
0000
0200
0000
0301
0000
0200
0000
0310
0000
2000
0000
3010
0100
,
0002
0000
0013
0000
0200
0000
0310
0000
0002
0000
1003
0000
2000
0000
3100
0010
,
0001
1000
0010
0100
0010
1000
0001
0100
0001
0010
0001
1000
0010
1000
0001
0100
,
0001
0100
0001
0000
0000
0000
1000
0010
1000
0000
0000
0000
0100
0001
0100
0000
0000
0000
1000
0010
1000
0000
0000
0000
,
0002
0000
0023
0230
,
2300
0000
0000
3002
,
0203
0320
2030
3002
,
2003
3020
0230
0302
,
2003
0000
3002
0203
,
0320
2030
3002
0203
,
0320
2030
3200
0320
,
0032
2003
3020
0230
,
0301
0000
0110
0000
0001
0000
1000
0001
1000
0000
0010
0000
0110
0000
1100
0000
,
0011
0000
1010
0000
0001
0000
0100
0010
1000
0000
0001
0000
1001
0000
0010
0000
,
1010
0000
0011
0000
1010
0000
0010
1000
0010
0000
1000
0000
1001
0000
1000
0000
,
1010
0000
0101
0000
1010
0000
1000
0001
0100
0000
1000
0000
1001
0000
0010
0000
,
0101
0000
0110
0000
0011
0000
0100
0001
0100
0000
0100
0000
1010
0000
1000
0000
,
0101
0000
1010
0000
1001
0000
0100
0001
1000
0000
0010
0000
0101
0000
1000
0000
,
1100
0000
0101
0000
1100
0000
0001
0100
0001
0000
1000
0000
0101
0000
1000
0000
,
0101
0000
1001
0000
0101
0000
0010
1000
0001
0000
1000
0000
0100
0000
0010
0000
,
2001
0000
3001
1000
0010
0010
1000
0001
,
1001
0001
0101
1000
1010
1000
0110
0100
,
0011
1000
1100
0001
0011
0100
0101
0001
,
1100
0001
1001
0010
0110
0001
0011
1000
,
0210
0301
1100
0001
1100
0001
1010
0001
,
0101
1000
0101
1000
1100
1000
0101
0010
,
0011
0001
0101
0010
1010
0100
1100
0100
,
0011
1000
0101
1000
0110
0001
1010
0100
,
0012
1003
0100
1000
0101
1000
1010
0100
,
1010
0001
1010
0001
0011
0001
1010
0100
,
1100
1000
1010
0100
0101
0010
0011
0010
,
1100
0001
1010
0001
0110
1000
0101
0010
,
1002
0103
1100
0100
1010
0001
0101
0010
,
0011
0000
1000
0000
0101
0000
0001
0000
1100
0000
0010
0000
0011
0000
1000
0100
,
0011
0000
0100
0000
0011
0000
0100
0000
0101
0000
0100
0000
0011
0000
0001
1000
,
0001
1000
0010
0100
0001
0100
0010
1000
0010
0100
0001
0010
0001
0100
0010
1000
,
0001
0010
0001
0000
0000
0000
0010
0100
0010
0000
0000
0000
0001
0100
0001
0000
0000
0000
0010
0100
0010
0000
0000
0000
,
0102
1003
2000
3100
,
0001
0100
0010
1000
0001
0100
0010
1000
0001
0100
0010
1000
0001
1000
0010
0100
,
1001
0000
0001
0010
0100
0000
1000
0010
0101
0000
1000
0100
0010
0000
1100
0000
,
0011
0000
0010
0100
0001
0000
1000
0010
1100
0000
1000
0010
0100
0000
0011
0000
,
0101
0000
0010
0100
0001
0000
0010
0100
1001
0000
1000
0100
0010
0000
0101
0000
,
1010
0000
0100
0001
1100
0000
2000
0000
3020
0000
0230
0000
0302
0000
2003
0000
,
3100
0000
1000
0100
0011
0000
0001
0010
1100
0000
0010
0100
1010
0000
0110
0000
,
1010
0000
0100
0001
1010
0000
0100
0001
1100
0000
1000
0100
0011
0000
0101
0000
,
0011
0000
0001
0010
0100
0000
1000
0100
0010
0000
0001
0010
0100
0000
0110
0000
,
0101
0000
0010
1000
0101
0000
0010
1000
0001
0100
0001
1000
0001
0100
0001
1000
,
0001
0000
0001
0010
0101
0000
1000
0100
0010
0000
0001
0010
0100
0000
1100
0000
,
0011
0000
1000
0010
0101
0000
1000
0100
0010
0000
0001
0010
0100
0000
1100
0000
,
0011
0000
1000
0010
0101
0000
0001
0010
0100
0000
1000
0100
0010
0000
0011
0000
,
1100
0000
0001
0100
1010
0000
0110
0000
0101
0000
1100
0000
0110
0000
0011
0000
,
1100
0000
0001
0100
1010
0000
1000
0100
0010
0000
0001
0010
0101
0000
1100
0000
,
0101
0000
0010
0001
1100
0000
0010
1000
0001
0000
0100
0001
1000
0000
1010
0000
,
0101
0000
0010
0001
1100
0000
0100
0001
1000
0000
0010
1000
0001
0000
0101
0000
,
1010
0100
0001
1000
0010
0100
0001
0010
0001
0100
0010
1000
0001
1000
0010
0100
,
1001
0100
1010
0001
1001
1000
1001
0100
,
1010
0000
0001
0000
0101
0000
0010
1000
0101
0000
0010
0000
0101
0000
1000
0000
,
0011
0010
1100
0001
1100
0001
0110
0001
,
0101
0001
1001
1000
0020
0000
2030
0000
,
3010
0001
1001
1000
0011
1000
0101
1000
,
0011
0000
0100
0000
0101
0000
1000
0100
0010
0000
0001
0000
0101
0000
0001
0000
,
0101
1000
1010
1000
0110
0001
0110
0001
,
1010
1000
1001
0100
0002
0000
2003
0000
,
3001
0001
0101
0100
1001
1000
1010
0100
,
0101
0000
0010
0000
1001
0000
0001
1000
0101
0000
0010
0000
0011
0000
0001
0000
,
0011
0010
1100
0001
0101
0001
1100
0001
,
1010
0001
1001
1000
0002
0000
0203
0000
,
0310
1000
1001
0010
0011
1000
0011
1000
,
0110
0000
0001
0000
0101
0000
0010
1000
0101
0000
0010
0000
0101
0000
1000
0000
,
0011
0010
1100
1000
0011
1001
1100
0020
,
2030
3001
0002
1003
0002
0000
2003
0000
,
3020
0230
0302
2003
,
3000
0000
0000
0000
;
