#TITLE:Koke Killers;
#SUBTITLE:;
#ARTIST:DJ Sharpnel;
#TITLETRANSLIT:;
#SUBTITLETRANSLIT:;
#ARTISTTRANSLIT:;
#CREDIT:;
#BANNER:../Beast - bn.png;
#BACKGROUND:../Beast - bg.png;
#LYRICSPATH:;
#CDTITLE:;
#MUSIC:Koke Killers.ogg;
#OFFSET:-1.174;
#SAMPLESTART:30.778;
#SAMPLELENGTH:12.000;
#SELECTABLE:YES;
#DISPLAYBPM:210.000;
#BPMS:0.000=210.020,158.000=105.017,174.000=210.017,210.000=210.075,238.000=211.600,242.000=210.040,316.000=210.000;
#STOPS:;
#BGCHANGES:;
// cache tags:
#FIRSTBEAT:28.000;
#LASTBEAT:447.500;
#SONGFILENAME:Songs/Beast Aoreo BEAST! 2/Koke Killers - [Aoreo]/Koke Killers.sm;
#HASMUSIC:1;
#HASBANNER:1;
#MUSICLENGTH:134.285;
// end cache tags

//---------------dance-single - J. Nero----------------
#NOTES:
     dance-single:
     J. Nero:
     Challenge:
     15:
     1.000,1.000,0.112,0.417,1.000,1196.000,15.000,56.000,8.000,0.000:
0000
0000
0000
0000
,
0000
0000
0000
0000
,
0000
0000
0000
0000
,
0000
0000
0000
0000
,
0000
0000
0000
0000
,
0000
0000
0000
0000
,
0000
0000
0000
0000
,
1001
0001
0010
0100
1000
0010
0100
0001
,
0100
0100
1000
0001
1000
0010
1000
0100
,
0010
0010
1000
0001
0100
0010
1000
0001
,
0100
0000
0100
0000
1000
0000
0001
0000
0010
0000
0100
0000
1000
000M
1000
0000
,
0100
0100
0001
1000
0100
0010
0001
1000
,
0010
0010
0001
0100
0010
1000
0100
1000
,
0010
0010
0001
0100
0001
0010
0100
1000
,
0100
0000
0000
0000
0100
0000
0000
0000
0001
0000
0000
0000
1000
0000
0000
0000
0020
0000
0000
0000
0000
0000
0000
0000
0230
0000
0000
0000
0000
0000
0000
0300
,
1001
0001
1000
0100
0010
0100
1000
0001
,
0100
0100
1000
0010
0100
0001
1000
0100
,
0010
0010
1000
0001
0100
0010
1000
0001
,
0100
0000
0100
0000
1000
0000
0100
0000
0010
0000
0100
0000
1000
000M
1000
0000
,
0010
0010
0001
1000
0100
0010
0100
1000
,
0100
0100
0001
1000
0010
0100
0001
1000
,
0100
0100
0001
1001
0000
1100
0000
0001
,
1000
0100
1000
0001
0100
0010
0100
0001
2000
0000
3000
0000
1001
0000
0000
0000
,
0002
0000
0000
0000
0000
0000
0000
0000
2003
0000
0000
0000
0000
0000
0000
0000
3020
0000
0000
0000
0000
0000
0000
0000
0230
0000
0000
0000
0000
0000
0000
0000
0000
0000
0000
0000
0000
0000
0000
0300
0100
0000
0000
0000
0000
0000
0000
0000
2000
0000
0000
0000
0000
0000
0000
0000
3002
0000
0000
0000
0000
0000
0000
0000
,
0203
0000
0000
0000
0000
0000
0000
0000
0320
0000
0000
0000
0000
0000
0000
0000
1030
0000
0000
0000
0000
0000
0000
0000
0200
0000
0000
0000
0000
0000
0000
0000
0000
0000
0000
0000
0000
0000
0000
0300
0100
0000
0000
0000
0000
0000
0000
0000
0002
0000
0000
0000
0000
0000
0000
0000
2003
0000
0000
0000
0000
0000
0000
0000
,
3200
0000
0000
0000
0000
0000
0000
0000
2300
0000
0000
0000
0000
0000
0000
0000
3002
0000
0000
0000
0000
0000
0000
0000
0023
0000
0000
0000
0000
0000
0000
0000
0000
0000
0000
0000
0000
0000
0000
0030
0010
0000
0000
0000
0000
0000
0000
0000
2000
0000
0000
0000
0000
0000
0000
0000
3200
0000
0000
0000
0000
0000
0000
0000
,
0320
0000
0000
0000
0000
0000
0000
0000
0230
0000
0000
0000
0000
0000
0000
0000
2300
0000
0000
0000
0000
0000
0000
0000
3020
0000
0000
0000
0000
0000
0000
0000
0000
0000
0000
0000
0000
0000
0000
0030
0010
0000
0000
0000
0000
0000
0000
0000
0002
0000
0000
0000
0000
0000
0000
0000
2003
0000
0000
0000
0000
0000
0000
0000
,
3200
0000
0000
0000
0000
0000
0000
0000
2300
0000
0000
0000
0000
0000
0000
0000
3002
0000
0000
0000
0000
0000
0000
0000
0203
0000
0000
0000
0000
0000
0000
0000
0000
0000
0000
0000
0000
0000
0000
0300
0100
0000
0000
0000
0000
0000
0000
0000
2000
0000
0000
0000
0000
0000
0000
0000
3020
0000
0000
0000
0000
0000
0000
0000
,
0230
0000
0000
0000
0000
0000
0000
0000
0302
0000
0000
0000
0000
0000
0000
0000
2003
0000
0000
0000
0000
0000
0000
0000
3200
0000
0000
0000
0000
0000
0000
0000
0000
0000
0000
0000
0000
0000
0000
0300
0100
0000
0000
0000
0000
0000
0000
0000
0002
0000
0000
0000
0000
0000
0000
0000
2003
0000
0000
0000
0000
0000
0000
0000
,
3001
0101
0000
0110
0000
1010
0000
1100
,
0100
1000
0001
0100
0001
1000
0100
1000
0002
0000
0003
0000
1001
0000
0000
0000
,
1000
0010
1000
0010
0100
0001
0100
0000
0001
1000
0010
0100
0001
1000
0001
0000
,
1000
0100
1000
0100
0010
0001
1000
0000
0001
0100
0001
0100
0010
1000
0001
0000
,
1000
0100
0010
0001
1000
0001
1000
0000
0001
0100
0010
0100
0001
1000
0001
0000
,
1000
0010
1000
0010
0100
0001
0100
0000
0001
1000
0100
0010
0001
1000
0001
0000
,
1000
0100
0010
0100
1000
0001
1000
0000
0001
0100
0010
0100
0001
1000
0001
0000
,
1000
0010
1000
0010
0100
0001
0100
0000
0001
1000
0100
0010
0001
1000
0001
0000
,
1000
0010
1000
0010
0100
0001
0100
0000
0001
1000
0100
0010
0001
1000
0001
0000
,
1000
0100
0010
0100
1000
0001
1000
0000
0001
0100
0010
0100
0001
1000
0001
1000
,
0200
0000
0000
0000
0300
0000
0000
0000
4000
0000
0000
0000
3000
0000
0000
0000
1001
0000
0000
0000
0001
0000
1000
0000
0100
0000
1000
0000
0001
0000
1000
0100
,
1000
0000
0001
0100
0010
0100
0001
1000
0200
0000
0300
0020
0000
0030
0002
0000
,
1003
0000
0000
0000
0010
0000
0000
0000
0100
0001
0100
0001
0100
0001
1000
0001
1000
0000
0000
0000
0100
0000
1000
0000
0001
0000
0100
0000
0010
0000
1000
0001
,
1000
0000
0001
0010
0100
1000
0010
0100
0002
0000
0000
0023
0000
0000
0230
0000
,
1300
0000
1000
0000
0001
0000
0001
0000
0100
0001
0100
0001
1000
0010
1000
0010
1M0M
0000
0000
0000
0000
0000
0000
0000
0010
0000
0000
0000
0100
0000
0000
0000
,
0001
0000
0010
0000
0001
0000
1000
0100
1000
0000
0000
0000
0001
0000
0100
0000
,
0010
1000
0001
0010
0200
0000
0000
2300
,
0000
3001
0100
0010
,
1000
0000
0001
0000
0100
0000
0010
0100
0010
0000
0000
0000
1000
0000
0001
0000
,
0010
0000
0100
0000
1000
0000
0001
0100
0001
0000
0000
0000
1000
0000
0010
0000
,
0100
0010
1000
0001
2000
0000
0000
3200
,
0000
0320
0031
1000
,
0001
0000
1000
0000
0010
0000
0100
0001
0100
0000
0000
0000
0001
0000
1000
0000
,
1100
0000
0100
0000
0110
0000
0010
0000
0001
0010
0001
0000
1000
0001
0100
0000
,
0010
0100
0001
0000
1000
0001
1000
0000
0100
1000
0001
0000
0100
0001
0100
0000
,
0010
1000
0010
0000
0100
0010
1000
0000
0001
0010
0100
0000
1000
0001
1000
0000
,
0001
0100
0010
0000
0100
0001
1000
0000
0100
1000
0001
0000
0010
0100
0010
0000
,
0100
1000
0100
0000
1000
0001
1000
0000
0010
0100
0001
0000
0010
0100
1000
0000
,
0100
0010
0001
0000
1000
0001
1000
0000
0010
0100
0001
0000
1000
0100
0010
0000
,
0100
1000
0001
0000
0100
0001
0100
0000
0010
1000
0001
0000
1000
0100
0010
0000
,
0100
1000
0001
0000
0010
0100
1000
0000
0004
0000
0000
0003
1000
0000
0001
0000
,
0100
0010
2000
3000
0001
0001
1000
1000
,
0001
0000
1000
0100
1000
0000
0100
0010
0100
0000
0010
0001
1000
0000
0001
1000
,
0100
0000
1000
0001
1000
0000
0100
1000
0001
0000
0001
0000
0010
0000
0010
0000
,
0100
0100
0000
1000
1000
0001
0001
0100
,
0100
0000
0001
0100
0001
0000
1000
0000
1000
0000
0100
0000
0100
0000
0010
0000
,
0010
0000
0001
1000
0001
0000
1000
0010
1000
0000
0010
0100
0001
0000
1000
0100
,
1000
0000
0100
0010
0001
0000
1000
0000
1000
0000
0001
0000
0001
0000
0100
0000
,
0100
0010
0000
1000
1000
0100
0100
0010
,
0010
0001
1000
0000
1001
0000
0000
0000
,
0000
0000
0000
0000
0000
0000
0000
0000
0001
0000
0000
0000
1000
0100
1000
0100
,
1000
0000
0001
0000
0010
0000
0100
0000
10MM
0100
1000
0000
0001
0000
0100
0000
,
0010
1000
0010
1000
0001
0100
0001
0000
1000
0100
0010
0001
1000
0001
1000
0000
,
0001
0100
0001
1000
0010
0100
0010
0000
1000
0100
0010
0001
1000
0001
1000
0000
,
0001
0100
0010
0100
0001
1000
0001
0000
1000
0100
0010
0001
1000
0001
1000
0000
,
0010
0100
0010
1000
0001
1000
0100
0000
1000
0100
1000
0001
0100
0001
1000
0000
,
0001
0010
0100
1000
0001
1000
0001
0000
0100
0010
0100
0001
1000
0001
1000
0000
,
0001
0100
0010
1000
0010
0100
0001
0000
1000
0001
0010
0100
1000
0001
1000
0000
,
0100
0010
0001
1000
0001
1000
0010
0000
0100
0000
0100
0000
0000
0000
0001
0000
,
0001
0000
1000
1000
1001
0000
0000
0000
,
1000
0001
1000
0001
1000
0001
1000
0001
1000
0001
0100
0010
0100
0001
1000
0001
,
0100
0001
1000
0100
1000
0100
0010
0100
0010
0001
1000
0001
1000
0010
0100
0001
,
0100
0010
1000
0010
0100
0001
0100
0001
1000
0100
1000
0100
0010
0001
1000
0001
,
0100
0001
1000
0010
1000
0001
1000
0100
0010
0001
1000
0001
0010
0100
1000
0001
,
1000
0010
0100
0001
0100
0010
1000
0010
1000
0001
0100
0001
1000
0100
0010
0001
,
0010
0001
1000
0001
1000
0100
0010
0001
1000
0100
1000
0001
0100
0001
1000
0010
,
1000
0001
0010
0100
1000
0001
1000
0100
0010
0001
1000
0100
1000
0001
1000
0001
,
0100
0010
0100
0001
1000
0100
1000
0001
2000
0000
3000
0000
0020
0000
0030
0000
,
0200
0000
0300
0000
0002
0000
0003
0000
1000
0001
1000
0010
0100
0001
0100
0010
,
1000
0001
1000
0010
0100
0010
0100
0001
1000
0001
1000
0100
0010
0001
1000
0001
,
1000
0010
0100
0001
0100
0010
1000
0001
1000
0100
0010
0001
1000
0001
0010
0100
,
1000
0001
1000
0100
1000
0001
0100
0010
0100
0001
1000
0001
1000
0100
0010
0100
,
1000
0001
0100
0001
1000
0010
0100
0001
1000
0001
0100
0001
1000
0100
0010
0001
,
1000
0001
1000
0010
0100
0010
1000
0001
1000
0001
0100
0001
1000
0100
0010
0001
,
0010
0001
1000
0100
1000
0001
0010
0100
1000
0001
1000
0010
0100
0001
0100
0010
,
1000
0010
1000
0001
1000
0100
0010
0001
1000
0100
1000
0001
0100
0001
1000
0100
,
0010
0001
1000
0001
1000
0010
0100
0001
0100
0010
1000
0001
1000
0100
1000
0001
,
0100
0010
1000
0001
1000
0100
0010
0001
1000
0001
0010
0100
1000
0001
1000
0100
,
1000
0001
0100
0001
1000
0001
0100
0010
0100
0001
1000
0001
0010
0100
1000
0100
,
1000
0001
0100
0001
1000
0010
0100
0001
1000
0001
0010
0100
1000
0001
1000
0010
,
0100
0001
1000
0100
0010
0001
1000
0100
1000
0001
0010
0100
0010
0001
1000
0001
,
1000
0100
0010
0100
1000
0001
0100
0010
1000
0010
0100
0010
1000
0001
0100
0001
,
1000
0100
0010
0001
1000
0001
1000
0010
0100
0010
0100
0001
1000
0001
0010
0100
,
1000
0100
1000
0001
0100
0001
1000
0010
0100
0010
1000
0001
1000
0100
0010
0100
,
1000
0001
0010
0100
0010
0001
1000
0001
1000
0001
0100
0010
0100
0001
1000
0100
,
0010
0001
1000
0001
0010
0100
1000
0001
1000
0001
0100
0001
1000
0010
0100
0001
,
1000
0001
1000
0100
1000
0100
0010
0001
1000
0001
0010
0100
0010
0100
1000
0001
,
1000
0001
0010
0100
1000
0001
1000
0010
0100
0001
0100
0001
1000
0010
0100
0001
,
0100
0010
1000
0001
1000
0100
0010
0001
1000
0010
0100
0010
1000
0001
0100
0001
,
1000
0001
0010
0100
1000
0001
1000
0100
0010
0100
1000
0001
1000
0001
0010
0100
,
1000
0001
0100
0001
1000
0010
0100
0001
0100
0010
1000
0001
1000
0100
0010
0001
,
1000
0100
1000
0001
1000
0001
0100
0010
0100
0001
1000
0001
0010
0100
1000
0001
,
1000
0100
0010
0001
1000
0001
0100
0010
0100
0000
0000
0000
000M
0000
M000
0000
;
