#TITLE:Vertex BETA;
#SUBTITLE:;
#ARTIST:Silvia;
#TITLETRANSLIT:;
#SUBTITLETRANSLIT:;
#ARTISTTRANSLIT:;
#CREDIT:;
#BANNER:vertexbeta.png;
#BACKGROUND:vertexbeta-bg.png;
#LYRICSPATH:;
#CDTITLE:!HSTTitle.png;
#MUSIC:vertexbeta.mp3;
#OFFSET:-0.220;
#SAMPLESTART:98.536;
#SAMPLELENGTH:12.000;
#SELECTABLE:YES;
#BPMS:0.000=200.000;
#STOPS:;
#BGCHANGES:;
// cache tags:
#FIRSTBEAT:4.000;
#LASTBEAT:600.000;
#SONGFILENAME:Songs/Keyboard Collaboration II/HST - Vertex BETA/vertexbeta.sm;
#HASMUSIC:1;
#HASBANNER:1;
#MUSICLENGTH:184.404;
// end cache tags

//---------------dance-single - ----------------
#NOTES:
     dance-single:
     :
     Hard:
     13:
     1.000,1.000,1.000,0.016,1.000,1669.000,365.000,3.000,0.000,0.000:  // measure 1
0000
0000
0000
0000
,  // measure 2
1001
0100
1000
0010
0000
0100
0001
0010
,  // measure 3
1100
1000
0010
0100
0101
0000
0000
0000
,  // measure 4
0110
0000
0000
0000
,  // measure 5
1010
0000
1100
0000
,  // measure 6
1001
0001
1000
0010
0000
0010
0100
0001
,  // measure 7
0011
0100
1000
0010
0101
0010
0100
1000
,  // measure 8
0110
0001
0010
0100
0000
0000
0001
1000
,  // measure 9
0001
0000
0000
0000
,  // measure 10
1001
0010
0100
1000
0000
1000
0001
0100
,  // measure 11
1010
0100
0010
0001
0110
1000
0001
0100
,  // measure 12
1001
0100
0001
0010
0000
0010
0001
0010
,  // measure 13
1100
0010
0001
1000
0110
0001
0010
0100
,  // measure 14
1001
0100
1000
0100
0000
0100
1000
0001
,  // measure 15
1100
0001
1000
0001
0110
1000
0100
0010
,  // measure 16
1001
0100
1000
0001
0000
0100
0001
1000
,  // measure 17
1010
0000
0100
0000
0001
0000
1000
0000
0200
0000
0000
0000
0310
0001
0010
0001
,  // measure 18
1100
0010
0001
1000
0010
0100
0010
1000
0100
1000
0010
0100
0001
0010
0001
1000
,  // measure 19
0010
0100
0001
0010
0001
1000
0010
1000
0100
1000
0010
0100
0001
0100
0010
1000
,  // measure 20
0100
1000
0010
0100
0001
0010
0100
1000
0010
1000
0100
1000
0001
0010
0001
1000
,  // measure 21
0001
0100
0010
0100
0010
1000
0100
1000
0010
0100
0001
0010
0001
0100
0001
1000
,  // measure 22
0010
0100
0001
0010
0001
1000
0010
1000
0100
0010
0001
1000
0010
1000
0001
0100
,  // measure 23
0001
1000
0100
1000
0010
0100
0001
0010
0001
1000
0100
1000
0100
0010
0001
1000
,  // measure 24
0010
0100
0010
0100
0001
0010
0001
0010
0100
1000
0100
1000
0010
0100
0001
0010
,  // measure 25
0001
0100
0001
1000
0010
0100
0001
0010
0100
1000
0010
0100
0001
0010
0100
1000
,  // measure 26
1001
0101
1001
1100
0000
0110
0011
0110
,  // measure 27
1100
1001
0011
1001
1100
0011
0110
0011
,  // measure 28
0110
1001
0110
1001
0000
1100
1001
0011
,  // measure 29
1001
1100
1001
0011
0110
1100
1001
1100
,  // measure 30
0011
0101
0011
0101
0000
1100
0110
0011
,  // measure 31
0110
1100
0110
0011
0110
0011
0110
1100
,  // measure 32
1001
0110
0000
1001
0000
1010
1001
0101
,  // measure 33
1001
1010
0101
0011
1100
0110
1001
0110
,  // measure 34
1001
0100
1000
0100
0010
0001
0010
0001
1000
0010
0100
0001
0100
0001
0010
0100
,  // measure 35
0010
0100
0010
0001
1000
0010
1000
0100
1000
0010
0100
0001
0100
0010
0100
0001
,  // measure 36
0010
0100
1000
0100
1000
0100
0010
0001
0010
0001
0010
0100
1000
0010
0100
0001
,  // measure 37
0010
0100
0010
0001
1000
0001
1000
0010
0100
0001
0010
0100
1000
0100
1000
0100
,  // measure 38
0010
0001
0010
0001
1000
0010
1000
0100
1000
0010
0100
0001
0010
0100
1000
0100
,  // measure 39
1000
0010
0100
0001
0100
0001
0010
0100
1000
0100
1000
0010
0100
0001
0010
0100
,  // measure 40
1000
0100
1000
0001
0100
0001
1000
0010
1000
0001
0010
0001
0100
0010
1000
0100
,  // measure 41
1000
0010
0100
0001
0010
0001
1000
0100
1000
0001
1000
0001
1000
0001
1000
0001
,  // measure 42
0100
0001
1000
0100
1000
0010
0100
0001
0100
0010
1000
0100
1000
0010
0100
0001
,  // measure 43
0010
0001
1000
0010
0100
0001
0010
0100
1000
0010
0100
0001
0010
0100
1000
0001
,  // measure 44
1000
0100
1000
0001
0100
0010
1000
0100
1000
0001
0100
0010
1000
0100
1000
0010
,  // measure 45
0100
0001
0010
0001
0100
0010
1000
0100
1000
0001
0100
0010
1000
0100
1000
0001
,  // measure 46
0100
0010
1000
0001
0100
0010
0100
0001
0010
0001
1000
0100
1000
0001
0100
0010
,  // measure 47
1000
0001
0100
0010
1000
0001
0010
0001
0100
0001
0010
0100
1000
0001
1000
0010
,  // measure 48
0100
0010
1000
0010
1000
0100
0010
0100
0010
0001
0010
0001
0100
0010
1000
0100
,  // measure 49
1000
0001
1000
0001
1000
0001
1000
0001
0010
0100
0010
0100
0010
0100
0010
0100
,  // measure 50
1001
0110
1001
0110
0000
1010
1100
0110
,  // measure 51
0011
0110
0011
1001
1010
0110
0101
0011
,  // measure 52
0110
1100
0110
0011
0000
1100
0110
1100
,  // measure 53
1010
0110
0101
0011
0110
1100
0110
0011
,  // measure 54
1001
1100
1001
0101
0000
1001
1100
1001
,  // measure 55
0011
1001
1010
0110
0101
0011
0110
1100
,  // measure 56
1001
0011
0000
1100
0000
0110
0011
0110
,  // measure 57
1100
0000
1010
0000
1000
0001
1000
0001
0110
0000
0011
0000
1001
0000
0110
0000
,  // measure 58
1000
0100
1000
0010
0100
0001
0010
0001
1000
0010
0100
0001
0010
0001
1000
0010
,  // measure 59
1000
0100
1000
0001
1000
0100
1000
0010
0100
0001
0010
0001
0100
0010
1000
0100
,  // measure 60
1000
0010
0100
0001
0010
0001
1000
0010
0100
0001
0010
0100
1000
0010
0100
0001
,  // measure 61
1000
0010
1000
0100
0010
0001
1000
0001
1000
0010
0100
0001
1000
0100
1000
0010
,  // measure 62
0100
0001
0010
0001
1000
0010
0100
0001
0010
0100
1000
0100
1000
0010
0100
0001
,  // measure 63
0010
0100
1000
0100
1000
0010
0100
0001
0010
0100
1000
0010
0100
0010
1000
0100
,  // measure 64
1000
0010
0100
0001
0010
0001
1000
0010
0100
0001
0010
0100
1000
0001
1000
0010
,  // measure 65
1000
0001
1000
0001
1000
0010
1000
0010
1000
0100
0010
0001
1000
0010
0100
0001
,  // measure 66
1001
0100
1000
1001
0000
1000
1010
0000
,  // measure 67
0101
0010
1000
1100
0000
0100
1100
0000
,  // measure 68
1001
0100
0010
0011
0000
0001
0011
0000
,  // measure 69
1010
0100
0001
0101
0000
0001
1001
0000
,  // measure 70
1010
0100
0010
1010
0000
1000
1010
0000
,  // measure 71
1100
0100
0010
0011
0000
0001
0011
0000
,  // measure 72
1001
0100
0010
1001
0000
1000
1001
0000
,  // measure 73
1100
0000
0010
0000
0001
0000
1100
0000
0000
0000
0100
1000
0100
0000
0000
0000
,  // measure 74
1100
0000
0110
0000
0011
0011
0101
0000
,  // measure 75
1010
0000
1100
0110
0000
0110
0011
0000
,  // measure 76
1001
0000
0110
0000
0000
0011
1100
0000
,  // measure 77
1010
0000
1010
0000
1001
0000
0101
0000
0000
0000
0101
0000
1001
0000
1000
0001
,  // measure 78
1000
0000
1001
0000
0000
1100
0011
0000
,  // measure 79
1001
0000
1010
0110
0000
0110
1001
0100
,  // measure 80
1000
0010
0100
0001
0000
0010
0001
0010
,  // measure 81
0100
0000
1000
0100
1000
0000
1000
0000
1100
0000
0100
0010
0100
0000
0110
0000
,  // measure 82
0010
0001
0010
0001
0010
0001
0010
0001
1000
0100
1000
0100
1000
0100
1000
0100
,  // measure 83
0010
0001
1000
0010
1000
0001
0100
0001
1000
0100
1000
0010
0100
0001
0010
0001
,  // measure 84
1000
0010
0100
0001
1000
0100
1000
0001
0100
0001
0010
0001
0100
0010
1000
0100
,  // measure 85
1000
0001
1000
0100
0010
0001
1000
0010
0100
0001
0010
0100
1000
0100
1000
0010
,  // measure 86
0100
0001
0010
0001
1000
0010
0100
0001
0010
0001
1000
0100
1000
0010
0100
0001
,  // measure 87
0010
0001
1000
0010
0100
0001
0100
0001
1000
0100
1000
0010
0100
0001
0010
0100
,  // measure 88
1000
0100
1000
0010
1000
0001
0010
0001
1000
0100
1000
0001
0100
0001
1000
0100
,  // measure 89
1000
0010
1000
0001
1000
0001
0100
0001
0010
0001
0010
0100
1000
0100
1000
0010
,  // measure 90
0100
0001
0100
0010
1000
0100
1000
0100
1000
0001
1000
0001
1000
0001
1000
0001
,  // measure 91
0010
0100
1000
0001
1000
0100
1000
0010
0100
0001
0010
0001
1000
0010
0100
0001
,  // measure 92
0010
0001
1000
0010
0100
0001
0010
0001
1000
0010
0100
0001
0010
0001
1000
0100
,  // measure 93
1000
0010
0100
0001
0010
0001
1000
0100
1000
0001
1000
0001
0010
0001
1000
0010
,  // measure 94
0100
0001
0010
0001
1000
0100
1000
0010
0100
0001
0010
0001
1000
0100
1000
0010
,  // measure 95
0100
0001
1000
0100
1000
0010
0100
0001
0010
0001
1000
0100
1000
0100
0010
0001
,  // measure 96
1000
0010
0100
0001
1000
0100
1000
0010
0100
0001
0100
0010
1000
0100
1000
0010
,  // measure 97
1000
0100
0010
0001
1000
0010
0100
0001
0010
0100
1000
0100
1000
0010
0100
0001
,  // measure 98
1000
0100
1000
0100
1000
0100
1000
0100
0010
0001
0010
0001
0010
0001
0010
0001
,  // measure 99
1000
0100
1000
0001
0100
0001
0010
0001
1000
0010
0100
0001
0010
0100
1000
0100
,  // measure 100
1000
0001
0010
0001
1000
0100
1000
0010
0100
0001
0010
0001
1000
0100
1000
0010
,  // measure 101
0100
0001
0010
0100
1000
0001
1000
0100
1000
0010
0100
0001
0010
0001
1000
0100
,  // measure 102
1000
0010
0100
0001
0100
0001
0010
0100
1000
0100
1000
0010
0100
0001
0010
0001
,  // measure 103
1000
0100
1000
0010
0100
0001
0010
0001
0100
0001
1000
0100
1000
0010
0100
0001
,  // measure 104
0010
0100
1000
0100
1000
0010
0100
0001
0010
0001
1000
0100
1000
0010
0100
0001
,  // measure 105
0010
0001
0010
0001
1000
0100
1000
0010
0100
0001
0010
0100
1000
0010
0100
0001
,  // measure 106
0010
0100
1000
0100
1000
0010
0100
0001
1000
0001
1000
0001
1000
0001
1000
0001
,  // measure 107
1000
0100
1000
0100
0010
0001
0010
0001
1000
0010
0100
0001
0010
0100
1000
0010
,  // measure 108
0100
0001
0100
0001
0010
0001
1000
0100
1000
0010
0100
0001
0100
0001
1000
0100
,  // measure 109
1000
0010
0100
0001
0010
0100
1000
0100
1000
0010
0100
0001
0010
0001
1000
0010
,  // measure 110
1000
0100
0010
0001
1000
0100
1000
0010
0100
0001
0010
0001
1000
0100
1000
0010
,  // measure 111
0100
0001
0010
0001
1000
0100
1000
0010
0100
0001
0010
0001
1000
0100
1000
0010
,  // measure 112
0100
0001
0100
0001
0010
0100
1000
0100
1000
0010
0100
0001
0010
0001
1000
0100
,  // measure 113
1000
0001
0010
0001
1000
0100
1000
0010
0100
0001
0010
0001
1000
0100
1000
0010
,  // measure 114
0100
0001
0010
0001
0010
0001
1000
0100
1000
0001
1000
0001
1000
0001
1000
0001
,  // measure 115
1001
1100
1001
0101
0000
0101
0011
0110
,  // measure 116
1100
1001
0011
0110
0011
1100
0000
0000
,  // measure 117
0110
0011
0110
1100
0000
1100
1010
0110
,  // measure 118
0101
0011
0110
1100
0110
0011
0110
1100
,  // measure 119
1010
0110
0101
0110
0000
0110
1010
1100
,  // measure 120
0110
0011
0110
1100
0110
0011
1001
1010
,  // measure 121
1001
1100
1001
0101
0000
0101
1001
1100
,  // measure 122
1010
0000
0110
0000
0100
0001
0100
0001
1000
0100
1000
0001
1000
0100
1000
0001
,  // measure 123
1000
0100
1000
0010
0100
0001
0010
0001
0010
0100
1000
0100
1000
0010
0100
0001
,  // measure 124
0010
0001
1000
0100
1000
0010
0100
0001
0010
0001
1000
0100
1000
0010
0100
0001
,  // measure 125
0010
0001
1000
0100
1000
0010
0100
0001
0010
0100
1000
0100
1000
0010
0100
0001
,  // measure 126
0100
0001
0010
0001
1000
0100
1000
0010
0100
0010
1000
0100
1000
0100
0010
0001
,  // measure 127
0100
0010
0100
0001
0010
0100
1000
0100
1000
0010
0100
0001
0010
0001
0100
0010
,  // measure 128
1000
0100
0010
0001
1000
0010
0100
0001
0010
0001
1000
0100
1000
0010
0100
0001
,  // measure 129
0010
0001
1000
0100
1000
0010
0100
0001
0010
0001
1000
0100
1000
0010
0100
0001
,  // measure 130
0010
0001
0010
0001
1000
0100
1000
0100
1000
0001
1000
0001
1000
0001
1000
0001
,  // measure 131
1001
1100
1001
0101
0000
0101
1001
1100
,  // measure 132
1010
0110
0101
0011
0101
0110
1010
1100
,  // measure 133
0110
0011
0110
1100
0000
1100
0110
0011
,  // measure 134
0110
1100
1010
0101
0011
0101
1010
1100
,  // measure 135
0110
0011
0110
1100
0000
1100
1001
0101
,  // measure 136
0011
0110
1100
1010
0110
0101
0011
0110
,  // measure 137
1100
1001
0101
1001
0000
1100
1010
0110
,  // measure 138
0101
0011
0110
1100
1001
0101
1001
1100
,  // measure 139
1001
0011
1001
1100
0000
1100
1001
0101
,  // measure 140
0011
0110
1100
1001
0101
1001
1100
1001
,  // measure 141
0011
1100
1010
0101
0000
0101
1001
1010
,  // measure 142
1100
0110
0011
0110
1100
0110
0011
0101
,  // measure 143
1010
1100
0110
0011
0000
0011
1001
1010
,  // measure 144
1100
1001
0101
0011
1001
1100
1010
0110
,  // measure 145
0101
1001
1100
1001
0000
1001
0110
1001
,  // measure 146
1010
0101
0011
1100
1001
0011
1100
0110
,  // measure 147
2002
0000
0000
0000
,  // measure 148
0000
0000
0000
0000
,  // measure 149
0000
0000
0000
0000
,  // measure 150
0000
0000
0000
0000
,  // measure 151
3003
0000
0000
0000
;
