#TITLE:Butterfly;
#SUBTITLE:-Full-;
#ARTIST:Smile.dk;
#TITLETRANSLIT:;
#SUBTITLETRANSLIT:;
#ARTISTTRANSLIT:;
#CREDIT:;
#BANNER:BUTTERFLY.png;
#BACKGROUND:BUTTERFLY-bg.png;
#LYRICSPATH:;
#CDTITLE:;
#MUSIC:dance dance revolution - butterfly [japanese techno][dj mystik].mp3;
#OFFSET:0.000;
#SAMPLESTART:16.620;
#SAMPLELENGTH:20.000;
#SELECTABLE:YES;
#BPMS:0.000=134.900;
#STOPS:;
#BGCHANGES:;
// cache tags:
#FIRSTBEAT:1.500;
#LASTBEAT:388.625;
#SONGFILENAME:Songs/toune 3/Butterfly -Full-/Butterfly.sm;
#HASMUSIC:1;
#HASBANNER:1;
#MUSICLENGTH:177.345;
// end cache tags

//---------------dance-single - Created by Chunkmeis----------------
#NOTES:
     dance-single:
     Created by Chunkmeis:
     Hard:
     11:
     0.594,0.657,0.524,0.197,1.000,607.000,93.000,35.000,0.000,7.000:

0000
0000
0000
0000
0000
0000
0000
0000
0000
2000
0000
0000
0000
0000
0000
0000
0000
0000
0000
0000
0000
0000
0010
0100
,
0010
0001
0010
0100
0010
0001
3010
0000
0000
0100
0000
0000
0000
0000
0000
0100
0000
0000
1000
0000
0000
0010
0000
0000
,
0000
1000
0010
0100
0001
0010
0100
1000
,
0000
0000
0000
0000
0000
1000
0000
0000
0000
0100
0000
0001
0000
0010
0000
0000
,
0000
1000
0000
0100
0000
0010
0000
0100
0000
0001
0000
1000
0000
0100
0000
0000
,
0000
0000
0000
0000
0000
0110
0000
0000
0200
0000
0000
0000
0310
0000
0001
0000
,
0100
0000
1000
0000
0000
0000
0000
0002
0000
0000
0000
0013
0000
0100
0000
1000
,
0000
0010
0000
0000
0000
0000
0000
2000
0000
0000
0000
3100
0000
0010
0000
0001
,
0000
0010
0000
0000
0000
1100
0000
0110
0000
0011
0000
0011
0000
0101
0000
0000
,
0000
0000
0000
0000
0000
0000
0000
0000
0100
0000
0000
0010
0000
0000
0100
0000
0000
0001
0000
0010
0000
0000
0100
1000
,
0000
0000
0010
0000
0000
0001
0000
0000
0001
0000
0000
0010
0000
0000
0100
0000
0000
1000
0000
0100
0000
0000
0010
0001
,
0000
0000
0010
0000
0000
0100
0000
0000
0100
0000
0000
1000
0000
0000
0010
0000
0000
0001
0000
0010
0000
0000
0100
1000
,
0000
0000
0100
0000
0000
0010
0000
0000
0001
0000
0000
0100
0000
0000
0010
0000
0000
1000
0000
0010
0000
0000
0010
0100
,
0000
0000
0100
0000
1000
0000
0010
0000
0000
0001
0010
0000
0100
0000
1000
0000
,
0000
0000
0000
0000
0000
0100
0000
0000
0001
0010
0000
0000
0100
0000
1000
0000
,
0000
0000
0000
0000
0000
0101
0000
0000
0000
1010
0000
0000
0000
1001
0000
0000
,
0000
0110
0000
0000
0000
1000
0000
0100
0000
0010
0000
0001
0000
0010
0000
0000
,
0000
0000
0000
0000
0000
1000
0000
0000
0010
0100
0000
0001
0000
0100
0000
0000
,
0000
0000
0000
0000
0000
0000
0000
0000
0000
0000
1000
0000
0000
0000
0000
0100
0000
0000
0000
0000
0000
0000
0000
0000
0010
0000
0000
0001
0000
0000
0000
0000
0000
0010
0000
0000
0000
0000
0000
0100
0000
0000
0000
0000
0000
0000
0000
0000
,
0000
0000
0000
0000
0000
1100
0000
0000
0000
0101
0000
0000
0000
0011
0000
0000
,
0000
1100
0000
0000
0000
1000
0000
0010
0000
0100
0000
0001
0000
0100
0000
0000
,
0000
0000
0000
0100
0010
0001
0010
0100
,
0000
1000
0100
0001
0010
0100
1000
0100
,
0000
0000
0000
0000
0000
0022
0000
0000
0033
0100
0000
1000
0000
0100
0000
0000
,
0000
0001
0000
0010
0000
0100
0000
1000
0000
0100
0000
0010
0000
0001
0000
0000
,
0000
0000
0000
0000
0000
1000
0000
0100
0000
0010
0000
0001
0000
0010
0000
0000
,
0000
1000
0000
0100
0000
0010
0000
0100
0000
1000
0000
0100
0000
0100
0000
0000
,
0000
0000
0000
0000
0000
0220
0000
0000
0330
0001
0000
0010
0000
0100
0000
0000
,
0000
1000
0000
0100
0000
0010
0000
0001
0000
0010
0000
0100
0000
1000
0000
0000
,
0000
0000
0000
0000
0000
0000
0000
0000
0000
1101
0000
0100
0000
0000
0010
0000
0000
0001
0000
0010
0000
0000
0010
0100
,
0000
0000
1000
0000
0000
0100
0000
0000
0010
0000
0000
0001
0000
0000
0100
0000
0000
0010
0000
0100
0000
0000
1000
0100
,
0000
0000
0001
0000
0000
0010
0000
0000
0100
0000
0000
1000
0000
0000
0010
0000
0000
0001
0000
0010
0000
0000
0100
1000
,
0000
0000
0010
0000
0000
0001
0000
0000
0010
0000
0000
0100
0000
0000
1000
0000
0000
0100
0000
0010
0000
0000
0001
0010
,
0000
0000
0100
0000
0000
1000
0000
0000
0100
0000
0000
0000
0000
0010
0000
0001
0000
0000
0010
0000
0000
0100
0000
0000
,
0000
0000
0000
0000
0000
0100
0000
0000
0010
0000
0000
0000
0000
0010
0100
0000
0000
0100
0000
0000
0010
0000
0000
0000
,
0000
0000
0000
0000
0101
0000
0000
1010
0000
0000
0101
0000
,
0000
0000
1010
0000
0000
0000
0000
0000
0010
0000
0000
0001
0000
0000
0010
0000
0000
0001
0000
0000
0010
0000
0000
0000
,
0000
0000
0000
0000
0000
1000
0000
0000
0001
0000
0000
0000
0100
0010
0000
0000
0000
0001
0000
0000
0100
0000
0000
0000
,
0000
0000
0000
0000
1000
0000
0000
0100
0000
0000
0000
0010
0000
0001
0000
0000
0010
0000
0000
0000
0100
0000
0000
0000
,
0000
0000
0000
0000
1100
0000
0000
1010
0000
0000
1001
0000
,
0000
0000
1100
0000
0000
0000
0000
0000
0001
0000
0000
0010
0000
0000
0100
0000
0000
1000
0000
0000
0100
0000
0000
0000
,
0000
0000
0000
0000
0000
0000
0000
0000
1000
0000
0000
0100
0000
0000
0010
0000
0000
0001
0000
0000
0010
0000
0000
0000
,
0000
0000
0010
0000
0000
0100
0000
0000
1000
0000
0000
0010
0000
0000
0100
0000
0000
1000
0000
0000
0011
0000
0000
0000
,
0000
0000
0000
0000
0000
0000
0000
0000
2002
0000
0000
0000
3003
0000
0100
0000
0000
0010
0000
0000
0100
0000
0000
0000
,
0000
0000
0100
0000
0000
1000
0000
0000
1000
0000
0000
0100
0000
0000
0010
0000
0000
0001
0000
0000
0001
0000
0000
0000
,
0000
0000
0000
0000
0000
0000
0000
0000
1000
0000
0000
0100
0000
0000
0010
0000
0000
0001
0000
0000
0010
0000
0000
0000
,
0000
0000
0100
0000
0000
0010
0000
0000
0001
0000
0000
0010
0000
0000
0001
0000
0000
0100
0000
0000
0001
0000
0000
0000
,
0000
0000
0000
0000
0000
0000
0000
0000
2200
0000
0000
3300
0000
0000
0010
0000
0000
0001
0000
0000
0010
0000
0000
0000
,
0000
0000
0010
0000
0000
0100
0000
0000
0001
0000
0000
1000
0000
0000
0010
0000
0000
0001
0000
0000
0100
0000
0000
0000
,
0000
0000
0000
0000
0000
0000
0000
0000
1101
0000
0000
0000
0020
0000
0000
0000
0000
0000
0130
0000
0000
1000
0000
0000
,
0010
0000
0000
0001
0000
0000
0000
0000
0000
0000
0000
0020
0000
0000
0000
0000
0000
0130
0000
0000
1000
0000
0000
0010
,
0000
0000
0001
0000
0000
0000
0000
0000
0000
0000
0000
2000
0000
0000
0000
0000
0000
3100
0000
0000
0010
0000
0000
0001
,
0000
0000
0010
0000
0000
0000
0000
0000
1000
0000
0000
0100
0000
0000
0010
0000
0000
0001
0000
0000
0010
0000
0000
0000
,
0000
0000
0000
0000
0000
0000
0000
0000
1101
0000
0000
0000
2000
0000
0000
0000
0000
0000
3100
0000
0000
0010
0000
0000
,
0001
0000
0000
1000
0000
0000
0000
0000
0000
0000
0000
2000
0000
0000
0000
0000
0000
3010
0000
0000
0001
0000
0000
0010
,
0000
0000
0100
0000
0000
0000
0000
0000
0000
0000
0000
2000
0000
0000
0000
0000
0000
3100
0000
0000
0001
0000
0000
0010
,
0000
0000
0100
0000
0000
0000
0000
0000
0100
0000
0000
0010
0000
0000
0100
0000
0000
0001
0000
0000
1000
0000
0000
0000
,
0000
0000
0000
1000
0010
0100
0001
1000
0000
0010
0000
1000
0100
0010
0001
0010
,
0000
0100
0000
1000
0100
1000
0010
0100
0000
0010
0000
0001
0010
0100
0010
0001
,
0000
1000
0000
0100
0010
0001
0010
0100
0000
1000
0000
0100
1000
0010
0001
0100
,
0000
0010
0000
0100
0001
0010
0100
0010
0000
1000
0000
0100
0010
0001
0010
0001
,
0000
0100
0000
1000
0100
0010
0100
1000
0000
0100
0000
0100
0010
0100
1000
1000
,
0000
0010
0000
0010
0100
1000
0100
0010
0000
0001
0000
0010
0001
0010
0001
0100
,
0000
1000
0000
0100
0010
0010
0001
0100
0000
1000
0000
0100
0010
0001
0010
0100
,
0000
1000
0000
0100
0010
0002
0000
0000
0000
0000
0000
0000
0000
0000
0000
0000
,
0000
0000
0000
0000
0000
0000
0000
0000
0000
0003
0000
0000
0000
0000
0000
0000
1000
0000
0000
0000
0000
0000
0100
0000
0000
0000
0000
0000
0010
0000
0000
0000
0000
0000
0001
0000
0000
0000
0000
0000
0010
0000
0000
0000
0000
0000
0000
0000
,
0000
0000
0100
0000
0000
1000
0000
0000
0010
0000
0000
0001
0000
0000
0001
0000
0000
0010
0000
0000
0100
0000
0000
0000
,
0000
0000
0000
0000
0000
0000
0000
0000
2200
0000
0000
3300
0000
0000
0010
0000
0000
0001
0000
0000
0010
0000
0000
0000
,
0000
0000
1000
0000
0000
0100
0000
0000
0010
0000
0000
0001
0000
0000
0010
0000
0000
0100
0000
0000
0010
0000
0000
0000
,
0000
0000
0000
0000
0000
0000
0000
0000
0100
0000
0000
0010
0000
0000
0100
0000
0000
0010
0000
0000
1000
0000
0000
0000
,
0000
0000
0010
0000
0000
0100
0000
0000
1000
0000
0000
1000
0000
0000
0100
0000
0000
0010
0000
0000
0001
0000
0000
0000
,
0000
0000
0000
0000
0000
0000
0000
0000
2200
0000
0000
3300
0000
0000
0010
0000
0000
0001
0000
0000
0010
0000
0000
0000
,
0000
0000
0100
0000
0000
0010
0000
0000
0100
0000
0000
1000
0000
0000
0100
0000
0000
1000
0000
0000
0010
0000
0000
0000
,
0000
0000
0000
0000
0000
0000
0000
0000
1000
0000
0000
0100
0000
0000
0010
0000
0000
0001
0000
0000
0010
0000
0000
0000
,
0000
0000
0100
0000
0000
0010
0000
0000
0001
0000
0000
0010
0000
0000
0001
0000
0000
0100
0000
0000
1000
0000
0000
0000
,
0000
0000
0000
0000
0000
0000
0000
0000
0220
0000
0000
0330
0000
0000
0001
0000
0000
0010
0000
0000
0100
0000
0000
0000
,
0000
0000
1000
0000
0000
0100
0000
0000
0010
0000
0000
0001
0000
0000
0010
0000
0000
0001
0000
0000
0100
0000
0000
0000
,
0000
0000
0000
0000
0000
0000
0000
0000
1000
0000
0000
0100
0000
0000
1000
0000
0000
0010
0000
0000
0001
0000
0000
0000
,
0000
0000
0100
0000
0000
0010
0000
0000
0001
0000
0000
0010
0000
0000
0100
0000
0000
0010
0000
0000
0001
0000
0000
0000
,
0000
0000
0000
0000
0000
0000
0000
0000
0022
0000
0000
0033
0000
0000
0010
0000
0000
0100
0000
0000
1000
0000
0000
0000
,
0000
0000
0100
0000
0000
0010
0000
0000
0001
0000
0000
0010
0000
0000
0001
0000
0000
0010
0000
0000
0100
0000
0000
0000
,
0000
0000
0000
0000
2000
0000
3100
0010
,
0001
0000
0000
0010
0000
0000
0000
0000
0000
0000
0000
2000
0000
0000
0000
0000
0000
3100
0000
0000
0010
0000
0000
0001
,
0000
0000
0010
0000
0000
0000
0000
0000
0000
0000
0000
2000
0000
0000
0000
0000
0000
3100
0000
0000
0010
0000
0000
0001
,
0000
0000
0010
0000
0000
0000
0000
0000
1000
0000
0000
0100
0000
0000
0010
0000
0000
0001
0000
0000
1010
0000
0000
0000
,
0000
0000
0000
0000
0000
0000
0000
0000
0000
0000
0000
0200
0000
0000
0000
0000
0000
1310
0000
0000
0101
0000
0000
0011
,
0000
0000
1100
0000
0000
0000
0000
0000
0000
0000
0000
0200
0000
0000
0000
0000
0000
1310
0000
0000
0101
0000
0000
0011
,
0000
0000
0101
0000
0000
0000
0000
0000
0000
0000
0000
0020
0000
0000
0000
0000
0000
1130
0000
0000
0101
0000
0000
0011
,
0000
0000
0110
0000
0000
0000
0000
0000
1000
0000
0000
0100
0000
0000
0010
0000
0000
0100
0000
0000
0101
0000
0000
0000
,
0000
0000
0000
0000
0000
0000
0000
0000
1100
0000
0000
0000
0000
0000
0110
0000
0000
1100
0000
0000
0110
0000
0000
0000
,
0000
0000
1001
0000
0000
1100
0000
0000
0110
0000
0000
1001
0000
0000
0011
0000
0000
0110
0000
0000
1010
0000
0000
0000
,
0000
0000
0000
0000
0000
0000
0000
0000
0110
0000
0000
0000
0000
0000
1100
0000
0000
0110
0000
0000
0110
0000
0000
0000
,
0000
0000
1100
0000
0000
0110
0000
0000
1100
0000
0000
0110
0000
0000
0011
0000
0000
1100
0000
0000
1001
0000
0000
0000
,
0000
0000
0000
0000
0000
0000
0000
0000
1100
0000
0000
0011
0000
0000
0110
0000
0000
0011
0000
0000
1100
0000
0000
0000
,
0000
0000
1010
0000
0000
0110
0000
0000
1001
0000
0000
1010
0000
0000
0011
0000
0000
1100
0000
0000
0011
0000
0000
0000
,
0000
0000
0000
0000
0000
0000
0000
0000
0220
0000
0000
0000
0000
0000
1331
0000
0000
0011
0000
0000
1100
0000
0000
0000
,
0000
0000
0110
0000
0000
1001
0000
0000
0110
0000
0000
1001
0000
0000
1100
0000
0000
0011
0000
0000
0110
0000
0000
0000
,
0000
0000
1000
0100
0010
0001
0000
0000
0000
0000
0000
0000
0000
0000
0000
0000
0000
0000
0000
0000
0000
0000
0000
0000
0000
0000
0000
0000
0000
0000
0000
0000
;

//---------------dance-single - Created by Chunkmeis----------------
#NOTES:
     dance-single:
     Created by Chunkmeis:
     Edit:
     11:
     0.594,0.657,0.524,0.197,1.000,607.000,93.000,35.000,0.000,7.000:


0000
0000
0000
0000
0000
0000
0000
0000
0000
2000
0000
0000
0000
0000
0000
0000
0000
0000
0000
0000
0000
0000
0010
0100
,
0010
0001
0010
0100
0010
0001
3010
0000
0000
0100
0000
0000
0000
0000
0000
0100
0000
0000
1000
0000
0000
0010
0000
0000
,
0000
1000
0010
0100
0001
0010
0100
1000
,
0000
0000
0000
0000
0000
1000
0000
0000
0000
0100
0000
0001
0000
0010
0000
0000
,
0000
1000
0000
0100
0000
0010
0000
0100
0000
0001
0000
1000
0000
0100
0000
0000
,
0000
0000
0000
0000
0000
0110
0000
0000
0200
0000
0000
0000
0310
0000
0001
0000
,
0100
0000
1000
0000
0000
0000
0000
0002
0000
0000
0000
0013
0000
0100
0000
1000
,
0000
0010
0000
0000
0000
0000
0000
2000
0000
0000
0000
3100
0000
0010
0000
0001
,
0000
0010
0000
0000
0000
1100
0000
0110
0000
0011
0000
0011
0000
0101
0000
0000
,
0000
0000
0000
0000
0000
0000
0000
0000
0100
0000
0000
0010
0000
0000
0100
0000
0000
0001
0000
0010
0000
0000
0100
1000
,
0000
0000
0010
0000
0000
0001
0000
0000
0001
0000
0000
0010
0000
0000
0100
0000
0000
1000
0000
0100
0000
0000
0010
0001
,
0000
0000
0010
0000
0000
0100
0000
0000
0100
0000
0000
1000
0000
0000
0010
0000
0000
0001
0000
0010
0000
0000
0100
1000
,
0000
0000
0100
0000
0000
0010
0000
0000
0001
0000
0000
0100
0000
0000
0010
0000
0000
1000
0000
0010
0000
0000
0010
0100
,
0000
0000
0100
0000
1000
0000
0010
0000
0000
0001
0010
0000
0100
0000
1000
0000
,
0000
0000
0000
0000
0000
0100
0000
0000
0001
0010
0000
0000
0100
0000
1000
0000
,
0000
0000
0000
0000
0000
0101
0000
0000
0000
1010
0000
0000
0000
1001
0000
0000
,
0000
0110
0000
0000
0000
1000
0000
0100
0000
0010
0000
0001
0000
0010
0000
0000
,
0000
0000
0000
0000
0000
1000
0000
0000
0010
0100
0000
0001
0000
0100
0000
0000
,
0000
0000
0000
0000
0000
0000
0000
0000
0000
0000
1000
0000
0000
0000
0000
0100
0000
0000
0000
0000
0000
0000
0000
0000
0010
0000
0000
0001
0000
0000
0000
0000
0000
0010
0000
0000
0000
0000
0000
0100
0000
0000
0000
0000
0000
0000
0000
0000
,
0000
0000
0000
0000
0000
1100
0000
0000
0000
0101
0000
0000
0000
0011
0000
0000
,
0000
1100
0000
0000
0000
1000
0000
0010
0000
0100
0000
0001
0000
0100
0000
0000
,
0000
0000
0000
0100
0010
0001
0010
0100
,
0000
1000
0100
0001
0010
0100
1000
0100
,
0000
0000
0000
0000
0000
0022
0000
0000
0033
0100
0000
1000
0000
0100
0000
0000
,
0000
0001
0000
0010
0000
0100
0000
1000
0000
0100
0000
0010
0000
0001
0000
0000
,
0000
0000
0000
0000
0000
1000
0000
0100
0000
0010
0000
0001
0000
0010
0000
0000
,
0000
1000
0000
0100
0000
0010
0000
0100
0000
1000
0000
0100
0000
0100
0000
0000
,
0000
0000
0000
0000
0000
0220
0000
0000
0330
0001
0000
0010
0000
0100
0000
0000
,
0000
1000
0000
0100
0000
0010
0000
0001
0000
0010
0000
0100
0000
1000
0000
0000
,
0000
0000
0000
0000
0000
0000
0000
0000
0000
1101
0000
0100
0000
0000
0010
0000
0000
0001
0000
0010
0000
0000
0010
0100
,
0000
0000
1000
0000
0000
0100
0000
0000
0010
0000
0000
0001
0000
0000
0100
0000
0000
0010
0000
0100
0000
0000
1000
0100
,
0000
0000
0001
0000
0000
0010
0000
0000
0100
0000
0000
1000
0000
0000
0010
0000
0000
0001
0000
0010
0000
0000
0100
1000
,
0000
0000
0010
0000
0000
0001
0000
0000
0010
0000
0000
0100
0000
0000
1000
0000
0000
0100
0000
0010
0000
0000
0001
0010
,
0000
0000
0100
0000
0000
1000
0000
0000
0100
0000
0000
0000
0000
0010
0000
0001
0000
0000
0010
0000
0000
0100
0000
0000
,
0000
0000
0000
0000
0000
0100
0000
0000
0010
0000
0000
0000
0000
0010
0100
0000
0000
0100
0000
0000
0010
0000
0000
0000
,
0000
0000
0000
0000
0101
0000
0000
1010
0000
0000
0101
0000
,
0000
0000
1010
0000
0000
0000
0000
0000
0010
0000
0000
0001
0000
0000
0010
0000
0000
0001
0000
0000
0010
0000
0000
0000
,
0000
0000
0000
0000
0000
1000
0000
0000
0001
0000
0000
0000
0100
0010
0000
0000
0000
0001
0000
0000
0100
0000
0000
0000
,
0000
0000
0000
0000
1000
0000
0000
0100
0000
0000
0000
0010
0000
0001
0000
0000
0010
0000
0000
0000
0100
0000
0000
0000
,
0000
0000
0000
0000
1100
0000
0000
1010
0000
0000
1001
0000
,
0000
0000
1100
0000
0000
0000
0000
0000
0001
0000
0000
0010
0000
0000
0100
0000
0000
1000
0000
0000
0100
0000
0000
0000
,
0000
0000
0000
0000
0000
0000
0000
0000
1000
0000
0000
0100
0000
0000
0010
0000
0000
0001
0000
0000
0010
0000
0000
0000
,
0000
0000
0010
0000
0000
0100
0000
0000
1000
0000
0000
0010
0000
0000
0100
0000
0000
1000
0000
0000
0011
0000
0000
0000
,
0000
0000
0000
0000
0000
0000
0000
0000
2002
0000
0000
0000
3003
0000
0100
0000
0000
0010
0000
0000
0100
0000
0000
0000
,
0000
0000
0100
0000
0000
1000
0000
0000
1000
0000
0000
0100
0000
0000
0010
0000
0000
0001
0000
0000
0001
0000
0000
0000
,
0000
0000
0000
0000
0000
0000
0000
0000
1000
0000
0000
0100
0000
0000
0010
0000
0000
0001
0000
0000
0010
0000
0000
0000
,
0000
0000
0100
0000
0000
0010
0000
0000
0001
0000
0000
0010
0000
0000
0001
0000
0000
0100
0000
0000
0001
0000
0000
0000
,
0000
0000
0000
0000
0000
0000
0000
0000
2200
0000
0000
3300
0000
0000
0010
0000
0000
0001
0000
0000
0010
0000
0000
0000
,
0000
0000
0010
0000
0000
0100
0000
0000
0001
0000
0000
1000
0000
0000
0010
0000
0000
0001
0000
0000
0100
0000
0000
0000
,
0000
0000
0000
0000
0000
0000
0000
0000
1101
0000
0000
0000
0020
0000
0000
0000
0000
0000
0130
0000
0000
1000
0000
0000
,
0010
0000
0000
0001
0000
0000
0000
0000
0000
0000
0000
0020
0000
0000
0000
0000
0000
0130
0000
0000
1000
0000
0000
0010
,
0000
0000
0001
0000
0000
0000
0000
0000
0000
0000
0000
2000
0000
0000
0000
0000
0000
3100
0000
0000
0010
0000
0000
0001
,
0000
0000
0010
0000
0000
0000
0000
0000
1000
0000
0000
0100
0000
0000
0010
0000
0000
0001
0000
0000
0010
0000
0000
0000
,
0000
0000
0000
0000
0000
0000
0000
0000
1101
0000
0000
0000
2000
0000
0000
0000
0000
0000
3100
0000
0000
0010
0000
0000
,
0001
0000
0000
1000
0000
0000
0000
0000
0000
0000
0000
2000
0000
0000
0000
0000
0000
3010
0000
0000
0001
0000
0000
0010
,
0000
0000
0100
0000
0000
0000
0000
0000
0000
0000
0000
2000
0000
0000
0000
0000
0000
3100
0000
0000
0001
0000
0000
0010
,
0000
0000
0100
0000
0000
0000
0000
0000
0100
0000
0000
0010
0000
0000
0100
0000
0000
0001
0000
0000
1000
0000
0000
0000
,
0000
0000
0000
1000
0010
0100
0001
1000
0000
0010
0000
1000
0100
0010
0001
0010
,
0000
0100
0000
1000
0100
1000
0010
0100
0000
0010
0000
0001
0010
0100
0010
0001
,
0000
1000
0000
0100
0010
0001
0010
0100
0000
1000
0000
0100
1000
0010
0001
0100
,
0000
0010
0000
0100
0001
0010
0100
0010
0000
1000
0000
0100
0010
0001
0010
0001
,
0000
0100
0000
1000
0100
0010
0100
1000
0000
0100
0000
0100
0010
0100
1000
1000
,
0000
0010
0000
0010
0100
1000
0100
0010
0000
0001
0000
0010
0001
0010
0001
0100
,
0000
1000
0000
0100
0010
0010
0001
0100
0000
1000
0000
0100
0010
0001
0010
0100
,
0000
1000
0000
0100
0010
0002
0000
0000
0000
0000
0000
0000
0000
0000
0000
0000
,
0000
0000
0000
0000
0000
0000
0000
0000
0000
0003
0000
0000
0000
0000
0000
0000
1000
0000
0000
0000
0000
0000
0100
0000
0000
0000
0000
0000
0010
0000
0000
0000
0000
0000
0001
0000
0000
0000
0000
0000
0010
0000
0000
0000
0000
0000
0000
0000
,
0000
0000
0100
0000
0000
1000
0000
0000
0010
0000
0000
0001
0000
0000
0001
0000
0000
0010
0000
0000
0100
0000
0000
0000
,
0000
0000
0000
0000
0000
0000
0000
0000
2200
0000
0000
3300
0000
0000
0010
0000
0000
0001
0000
0000
0010
0000
0000
0000
,
0000
0000
1000
0000
0000
0100
0000
0000
0010
0000
0000
0001
0000
0000
0010
0000
0000
0100
0000
0000
0010
0000
0000
0000
,
0000
0000
0000
0000
0000
0000
0000
0000
0100
0000
0000
0010
0000
0000
0100
0000
0000
0010
0000
0000
1000
0000
0000
0000
,
0000
0000
0010
0000
0000
0100
0000
0000
1000
0000
0000
1000
0000
0000
0100
0000
0000
0010
0000
0000
0001
0000
0000
0000
,
0000
0000
0000
0000
0000
0000
0000
0000
2200
0000
0000
3300
0000
0000
0010
0000
0000
0001
0000
0000
0010
0000
0000
0000
,
0000
0000
0100
0000
0000
0010
0000
0000
0100
0000
0000
1000
0000
0000
0100
0000
0000
1000
0000
0000
0010
0000
0000
0000
,
0000
0000
0000
0000
0000
0000
0000
0000
1000
0000
0000
0100
0000
0000
0010
0000
0000
0001
0000
0000
0010
0000
0000
0000
,
0000
0000
0100
0000
0000
0010
0000
0000
0001
0000
0000
0010
0000
0000
0001
0000
0000
0100
0000
0000
1000
0000
0000
0000
,
0000
0000
0000
0000
0000
0000
0000
0000
0220
0000
0000
0330
0000
0000
0001
0000
0000
0010
0000
0000
0100
0000
0000
0000
,
0000
0000
1000
0000
0000
0100
0000
0000
0010
0000
0000
0001
0000
0000
0010
0000
0000
0001
0000
0000
0100
0000
0000
0000
,
0000
0000
0000
0000
0000
0000
0000
0000
1000
0000
0000
0100
0000
0000
1000
0000
0000
0010
0000
0000
0001
0000
0000
0000
,
0000
0000
0100
0000
0000
0010
0000
0000
0001
0000
0000
0010
0000
0000
0100
0000
0000
0010
0000
0000
0001
0000
0000
0000
,
0000
0000
0000
0000
0000
0000
0000
0000
0022
0000
0000
0033
0000
0000
0010
0000
0000
0100
0000
0000
1000
0000
0000
0000
,
0000
0000
0100
0000
0000
0010
0000
0000
0001
0000
0000
0010
0000
0000
0001
0000
0000
0010
0000
0000
0100
0000
0000
0000
,
0000
0000
0000
0000
2000
0000
3100
0010
,
0001
0000
0000
0010
0000
0000
0000
0000
0000
0000
0000
2000
0000
0000
0000
0000
0000
3100
0000
0000
0010
0000
0000
0001
,
0000
0000
0010
0000
0000
0000
0000
0000
0000
0000
0000
2000
0000
0000
0000
0000
0000
3100
0000
0000
0010
0000
0000
0001
,
0000
0000
0010
0000
0000
0000
0000
0000
1000
0000
0000
0100
0000
0000
0010
0000
0000
0001
0000
0000
1010
0000
0000
0000
,
0000
0000
0000
0000
0000
0000
0000
0000
0000
0000
0000
0200
0000
0000
0000
0000
0000
1310
0000
0000
0101
0000
0000
0011
,
0000
0000
1100
0000
0000
0000
0000
0000
0000
0000
0000
0200
0000
0000
0000
0000
0000
1310
0000
0000
0101
0000
0000
0011
,
0000
0000
0101
0000
0000
0000
0000
0000
0000
0000
0000
0020
0000
0000
0000
0000
0000
1130
0000
0000
0101
0000
0000
0011
,
0000
0000
0110
0000
0000
0000
0000
0000
1000
0000
0000
0100
0000
0000
0010
0000
0000
0100
0000
0000
0101
0000
0000
0000
,
0000
0000
0000
0000
0000
0000
0000
0000
1100
0000
0000
0000
0000
0000
0110
0000
0000
1100
0000
0000
0110
0000
0000
0000
,
0000
0000
1001
0000
0000
1100
0000
0000
0110
0000
0000
1001
0000
0000
0011
0000
0000
0110
0000
0000
1010
0000
0000
0000
,
0000
0000
0000
0000
0000
0000
0000
0000
0110
0000
0000
0000
0000
0000
1100
0000
0000
0110
0000
0000
0110
0000
0000
0000
,
0000
0000
1100
0000
0000
0110
0000
0000
1100
0000
0000
0110
0000
0000
0011
0000
0000
1100
0000
0000
1001
0000
0000
0000
,
0000
0000
0000
0000
0000
0000
0000
0000
1100
0000
0000
0011
0000
0000
0110
0000
0000
0011
0000
0000
1100
0000
0000
0000
,
0000
0000
1010
0000
0000
0110
0000
0000
1001
0000
0000
1010
0000
0000
0011
0000
0000
1100
0000
0000
0011
0000
0000
0000
,
0000
0000
0000
0000
0000
0000
0000
0000
0220
0000
0000
0000
0000
0000
1331
0000
0000
0011
0000
0000
1100
0000
0000
0000
,
0000
0000
0110
0000
0000
1001
0000
0000
0110
0000
0000
1001
0000
0000
1100
0000
0000
0011
0000
0000
0110
0000
0000
0000
,
0000
0000
1000
0100
0010
0001
0000
0000
0000
0000
0000
0000
0000
0000
0000
0000
0000
0000
0000
0000
0000
0000
0000
0000
0000
0000
0000
0000
0000
0000
0000
0000
;
