#TITLE:Rainbow Road;
#SUBTITLE:;
#ARTIST:nanobii;
#TITLETRANSLIT:;
#SUBTITLETRANSLIT:;
#ARTISTTRANSLIT:;
#CREDIT:owenviau1;
#BANNER:../Banner.png;
#BACKGROUND:../BG.PNG;
#LYRICSPATH:;
#CDTITLE:../CDTitleOV1.png;
#MUSIC:nanobii - Rainbow Road.ogg;
#OFFSET:-0.163;
#SAMPLESTART:34.044;
#SAMPLELENGTH:29.999;
#SELECTABLE:YES;
#BPMS:0.000=170.008;
#STOPS:;
#BGCHANGES:;
// cache tags:
#FIRSTBEAT:0.000;
#LASTBEAT:479.500;
#SONGFILENAME:Songs/Index Fusion/Rainbow Road - [owenviau1]/Rainbow Road.sm;
#HASMUSIC:1;
#HASBANNER:1;
#MUSICLENGTH:173.923;
// end cache tags

//---------------dance-single - 14- (owenviau1)----------------
#NOTES:
     dance-single:
     14- (owenviau1):
     Challenge:
     14:
     1.000,1.000,0.029,0.264,1.000,1306.000,5.000,46.000,30.000,0.000:
1000
0100
0010
0001
0000
000M
0000
0000
,
0000
0000
0000
0000
,
0000
0000
0000
0000
,
0000
0000
0000
0000
,
1000
0010
0100
0001
0000
000M
0000
0000
,
0000
0000
0000
0000
0000
0000
1000
0010
,
0000
0000
0000
0000
0000
0000
0100
0001
,
2000
0000
0000
0000
,
3020
0230
0320
2030
,
0000
3002
0023
0032
,
0000
0203
0320
2030
,
0000
0000
0000
3000
,
0002
0203
0320
0000
2030
0000
3002
0000
,
0000
0203
0320
2030
,
0000
0000
0000
0000
0000
0000
0000
0000
0000
0000
0000
0000
0000
0000
3010
0100
,
0010
1000
0001
0100
0001
0010
0100
1000
,
0001
0100
0010
0100
0001
1000
0010
1000
,
0100
0000
0000
0010
0000
0000
0001
0000
0000
0100
0000
0000
0010
0000
0000
0100
0000
0000
0001
0000
0000
1000
0000
0010
,
0100
0010
1000
0001
0010
0001
0100
0010
,
1000
0010
0100
0001
1000
0001
0010
0100
,
1000
0010
1000
0001
0100
0001
0010
0100
1000
0001
0100
0010
0100
0001
1000
0010
,
1000
0100
0010
0001
0100
0010
0100
0001
1000
0100
1000
0010
0100
0010
1000
0001
,
0100
0001
0010
0100
1000
0001
0010
0001
0100
0010
0100
0001
1000
0010
1000
0100
,
0010
0000
0000
0001
0000
0000
0100
0000
0000
0010
0000
0000
1000
0000
0000
0010
0000
0000
0100
0000
0000
0001
0000
0000
2000
0000
0000
0000
3000
0000
0200
0000
0000
0000
0300
0000
0020
0000
0000
0000
0000
0000
0031
0000
0000
1000
0000
0000
,
0001
0100
0010
0100
0001
1000
0010
1000
0100
0010
0001
1000
0100
1000
0010
0100
,
0001
0100
0010
1000
0001
1000
0100
0010
0001
1000
0100
1000
0010
0100
0010
1000
,
0001
0100
0001
1000
0010
0100
0001
0100
0010
1000
0001
1000
0100
0010
0001
1000
,
0010
0100
0010
1000
0001
0100
0001
0010
0100
1000
0001
0010
0001
0100
0010
0100
,
0001
1000
0100
0010
0001
1000
0100
1000
0010
0100
0001
0100
0010
1000
0001
1000
,
0100
0010
0001
1000
0010
0100
0010
1000
0001
0100
0001
1000
0010
0100
0001
0100
,
0010
1000
0001
1000
0100
0010
0001
1000
0100
1000
0001
0010
0001
0100
0010
0100
,
0001
1000
0010
0100
0001
0100
0010
1000
0001
0010
0100
1000
0001
0000
0100
0000
,
0010
1000
0001
0100
0001
1000
0010
0100
0010
1000
0001
0010
0100
1000
0100
0010
,
0001
1000
0100
1000
0001
0100
0010
0100
0001
1000
0010
0100
0001
1000
0100
1000
,
0010
0100
0001
1000
0100
1000
0001
0010
0100
1000
0001
0010
0001
0100
0010
0100
,
0001
1000
0001
0100
0010
0100
0001
1000
0010
1000
0001
0100
0010
0100
0001
1000
,
0001
0010
0100
1000
0001
0010
0001
0100
0010
0100
0001
1000
0100
1000
0010
0100
,
0001
0100
0010
1000
0001
1000
0100
0010
0001
1000
0100
1000
0001
0010
0100
1000
,
0001
0010
0001
1000
0010
0100
0010
1000
0001
0100
0010
1000
0010
0100
0001
1000
,
0100
0010
0001
1000
0100
1000
0001
0100
0010
0000
1000
0000
0001
0000
0020
0000
,
0130
1000
0001
0100
0010
1000
0010
0100
0001
1000
0100
1000
0001
0010
0001
1000
,
0100
0010
0001
1000
0100
1000
0010
0100
0010
1000
0001
0100
0001
1000
0010
0100
,
0010
1000
0001
0010
0100
1000
0001
0010
0001
0100
0010
0100
0001
1000
0010
0100
,
0010
1000
0001
0100
0001
1000
0010
0100
0010
1000
0001
0010
0100
1000
0001
0010
,
0001
0100
0010
0100
0001
1000
0100
1000
0001
0010
0100
1000
0010
0100
0010
1000
,
0001
0100
0010
0100
0001
1000
0010
1000
0100
0010
0001
1000
0100
1000
0001
0010
,
0001
0100
0010
0100
0001
1000
0001
0100
0010
1000
0010
0100
0001
1000
0100
1000
,
0010
0100
0001
0100
0010
1000
0001
1000
0100
0000
0010
0000
0001
0000
1000
0000
,
0010
0100
0010
1000
0001
0100
0001
1000
0100
0010
0001
1000
0010
0100
0010
1000
,
0001
0100
0001
0010
0100
1000
0001
0010
0001
1000
0100
1000
0010
0100
0001
0100
,
0010
1000
0001
1000
0100
0010
0001
1000
0010
0000
0220
0000
0330
0000
1000
0100
,
0010
0001
1000
0001
0100
0010
0100
0001
1000
0001
0010
0100
1000
0001
1000
0010
,
0200
0000
0000
0000
0301
1000
0001
0100
0010
1000
0010
0100
0001
1000
0001
0100
,
0010
1000
0100
1000
0001
0010
0001
0100
0010
0100
0001
1000
0100
0010
0001
1000
,
0001
0100
0010
0100
0001
1000
0010
1000
0100
0010
0001
0010
0100
1000
0001
0100
,
0001
1000
0010
1000
0010
0100
0001
1000
0010
0000
0000
0000
0000
0000
0000
0000
,
0000
0000
0000
0000
,
1000
0100
0010
0001
0000
000M
0000
0000
,
0000
0000
0000
0000
,
1000
0100
1000
0001
0000
000M
0000
0000
,
0000
0000
0000
0000
,
1000
0010
1000
0001
0000
000M
0000
0000
,
0020
0000
0000
0000
0000
0000
0000
0000
0000
0230
0000
0000
0000
0000
0000
0000
,
1300
0010
0100
0001
0000
000M
0000
0000
,
0000
2000
0000
0000
0000
0000
0000
0000
0000
0000
0000
0000
0000
0000
0000
0000
,
3001
0100
0010
1000
0000
0000
0000
0000
,
00M0
0000
0000
0000
0000
0M00
0000
0000
0000
0000
0000
0000
0000
000M
0000
0000
,
1000
0000
010M
0000
0010
0000
M001
0000
0000
0000
0M00
0000
0000
00M0
0000
000M
,
0000
0000
M000
0000
0000
000M
00M0
0000
0000
0000
0000
0000
0000
0000
0000
0000
,
10M0
0000
0100
0000
M010
0000
0M01
0000
0000
0000
0000
00M0
2000
000M
0000
0000
,
0000
0000
0000
0000
3M20
0000
0000
0000
M230
000M
M000
0000
0302
0000
00M0
0000
,
0000
0000
0000
0M00
0000
0000
0000
1003
,
01M0
0000
1000
0000
0001
0000
0010
0000
0100
1000
0001
1000
0010
0100
0001
0100
,
0010
1000
0001
0100
0010
0100
0001
1000
,
0010
1000
0100
0010
0001
1000
0100
1000
,
0001
0010
0001
0100
0010
1000
0001
0100
,
0001
1000
0100
0010
0001
0010
0100
1000
,
0001
0010
0001
0100
0010
0100
0001
1000
,
0010
1000
0001
0100
0010
0100
0001
1000
,
0100
0010
0001
1000
0100
1000
0001
0100
,
0010
0100
0001
1000
0001
0010
0100
1000
,
0001
0100
0010
1000
0010
0100
0001
1000
0001
0010
0100
1000
0001
0010
0001
0100
,
0010
1000
0010
0100
0001
1000
0100
1000
0010
0100
0010
1000
0001
0100
0010
0100
,
0001
1000
0100
1000
0010
0100
0001
1000
0100
1000
0001
0010
0100
1000
0001
0010
,
0001
0100
0010
1000
0010
0100
0001
1000
0001
0100
0010
0100
0001
1000
0100
0010
,
0001
0000
1000
0000
0001
0000
1000
0000
0000
0010
0000
0000
0100
0000
0000
0001
0000
0000
1000
0000
0100
0000
1000
0000
0100
0000
0000
0010
0000
0000
0001
0000
0000
1000
0000
0000
0010
0000
0100
0000
0010
0000
0100
0000
0000
0001
0000
0000
,
1000
0000
0010
0000
1000
0000
0010
0000
0000
0100
0000
0000
0001
0000
0000
1000
0000
0000
0010
0000
0100
0000
0010
0000
0100
0000
0000
0001
0000
0000
1000
0000
0000
0100
0000
0000
0010
0000
0001
0000
0010
0000
0001
0000
0000
0100
0000
0000
,
0010
0000
1000
0000
0010
0000
1000
0000
0000
0001
0000
0000
0100
0000
0000
0010
0000
0000
0100
0000
0000
0001
0000
0000
1000
0000
0000
0001
0000
0000
0100
0000
0000
0010
0000
0000
1000
0000
0000
0010
0000
0000
0100
0000
0000
0001
0000
0000
,
2000
0000
0000
0000
3000
0000
0200
0000
0000
0000
0300
0000
0020
0000
0000
0000
0030
0000
0001
0000
0000
0000
1000
0000
0001
0000
0000
0010
0000
0000
0000
0000
0000
M000
0000
0000
0100
0000
0000
0000
0000
0000
1000
0000
0000
0000
0000
0000
,
0001
0010
0100
1000
0010
0100
0010
1000
0001
0010
0001
1000
0100
1000
0010
0100
,
0001
0100
0010
1000
0001
1000
0100
0010
0001
1000
0100
1000
0010
0100
0010
1000
,
0001
0100
0001
1000
0010
0100
0001
0100
0010
1000
0001
1000
0100
0010
0001
1000
,
0010
0100
0010
1000
0001
0100
0001
0010
0100
1000
0001
0010
0001
0100
0010
0100
,
0001
1000
0100
0010
0001
1000
0100
1000
0010
0100
0001
0100
0010
1000
0001
1000
,
0100
0010
0001
1000
0010
0100
0010
1000
0001
0100
0001
1000
0010
0100
0001
0100
,
0010
1000
0001
1000
0100
0010
0001
1000
0100
1000
0001
0010
0001
0100
0010
0100
,
0001
1000
0010
0100
0001
0100
0010
1000
0001
0010
0100
1000
0001
0000
0100
0000
,
0010
1000
0001
0100
0001
1000
0010
0100
0010
1000
0001
0010
0100
1000
0100
0010
,
0001
1000
0100
1000
0001
0100
0010
0100
0001
1000
0010
0100
0001
1000
0100
1000
,
0010
0100
0001
1000
0100
1000
0001
0010
0100
1000
0001
0010
0001
0100
0010
0100
,
0001
1000
0001
0100
0010
0100
0001
1000
0010
1000
0001
0100
0010
0100
0001
1000
,
0001
0010
0100
1000
0001
0010
0001
0100
0010
0100
0001
1000
0100
1000
0010
0100
,
0001
0100
0010
1000
0001
1000
0100
0010
0001
1000
0100
1000
0001
0010
0100
1000
,
0001
0010
0001
1000
0010
0100
0010
1000
0001
0100
0010
1000
0010
0100
0001
1000
,
0100
0010
0001
1000
0100
1000
0001
0100
0010
0000
1000
0000
0001
0000
0020
0000
,
0130
1000
0001
0100
0010
1000
0010
0100
0001
1000
0100
1000
0001
0010
0001
1000
,
0100
0010
0001
1000
0100
1000
0010
0100
0010
1000
0001
0100
0001
1000
0010
0100
,
0010
1000
0001
0010
0100
1000
0001
0010
0001
0100
0010
0100
0001
1000
0010
0100
,
0010
1000
0001
0100
0001
1000
0010
0100
0010
1000
0001
0010
0100
1000
0001
0010
,
0001
0100
0010
0100
0001
1000
0100
1000
0001
0010
0100
1000
0010
0100
0010
1000
,
0001
0100
0010
0100
0001
1000
0010
1000
0100
0010
0001
1000
0100
1000
0001
0010
,
0001
0100
0010
0100
0001
1000
0001
0100
0010
1000
0010
0100
0001
1000
0100
1000
,
0010
0100
0001
0100
0010
1000
0001
1000
0100
0000
0010
0000
0001
0000
1000
0000
,
0010
0100
0010
1000
0001
0100
0001
1000
0100
0010
0001
1000
0010
0100
0010
1000
,
0001
0100
0001
0010
0100
1000
0001
0010
0001
1000
0100
1000
0010
0100
0001
0100
,
0010
1000
0001
1000
0100
0010
0001
1000
0010
0100
0010
1000
0001
0100
0001
1000
,
0100
0010
0001
1000
0001
0100
0010
1000
0001
0000
0020
0000
0130
0000
1000
0000
,
2002
0000
3003
0220
0330
2020
3030
0202
,
0300
0000
0000
1000
,
1000
0000
0000
0000
0000
1003
0100
0010
,
0000
0000
0000
0000
,
0000
0000
0000
0000
,
0000
0000
0000
0000
,
0000
0000
0000
0000
;
