#TITLE:Control Myself;
#SUBTITLE:Sexuality Violation;
#ARTIST:LL Cool J feat. Jennifer Lopez;
#TITLETRANSLIT:;
#SUBTITLETRANSLIT:;
#ARTISTTRANSLIT:;
#CREDIT:;
#BANNER:Control Myself-bn.png;
#BACKGROUND:Control Myself-bg.png;
#LYRICSPATH:;
#CDTITLE:~CDTitle-@@.png;
#MUSIC:LL Cool J feat. Jennifer Lopez - Control Myself.ogg;
#OFFSET:-0.335;
#SAMPLESTART:190.335;
#SAMPLELENGTH:16.000;
#SELECTABLE:YES;
#BPMS:0.000=120.000;
#STOPS:;
#BGCHANGES:;
// cache tags:
#FIRSTBEAT:24.000;
#LASTBEAT:463.750;
#SONGFILENAME:Songs/Sexuality Violation 2/Control Myself - [AA]/Control Myself.sm;
#HASMUSIC:1;
#HASBANNER:1;
#MUSICLENGTH:233.691;
// end cache tags

//---------------dance-single - @@----------------
#NOTES:
     dance-single:
     @@:
     Challenge:
     14:
     1.000,1.000,0.034,0.030,1.000,2127.000,8.000,7.000,0.000,0.000:

0000
0000
0000
0000
,
0000
0000
0000
0000
,
0000
0000
0000
0000
,
0000
0000
0000
0000
,
0000
0000
0000
0000
,
0000
0000
0000
0000
,
1001
1001
1001
1001
,
1000
0100
0010
0001
0100
0001
1000
0100
1000
0001
0010
0100
1000
0010
1000
0001
,
0100
0010
0100
0001
0010
0001
1000
0010
1000
0001
0100
0010
1000
0100
0010
0001
,
1000
0010
1000
0100
0010
0001
1000
0001
0100
0001
0010
0100
1000
0001
0100
0001
,
1000
0000
0000
0100
0000
0000
1000
0000
0000
0010
0000
0000
0100
0000
0000
0001
0000
0000
1000
0000
0000
0100
0000
0000
1000
0000
0010
0000
0100
0000
0001
0000
0000
0010
0000
0000
0100
0000
0000
1000
0000
0000
0001
0000
0000
1000
0000
0000
,
0001
0000
0100
0000
0010
0000
0100
0000
0001
0000
1000
0000
0001
0000
0000
0010
0000
0000
0100
0000
1000
0000
0001
0000
0010
0000
0100
0000
0010
0000
0001
0000
0000
1000
0000
0000
0010
0000
0000
1000
0000
0000
0100
0000
0000
0010
0000
0000
,
0001
0000
1000
0000
0001
0000
0010
0000
0100
0000
0010
0000
0001
0000
0000
1000
0000
0000
0001
0000
0100
0000
0010
0000
1000
0000
0010
0000
0100
0000
0001
0000
0000
0010
0000
0000
0100
0000
0000
0010
0000
0000
0001
0000
0000
1000
0000
0000
,
0001
0000
0100
0000
0001
0000
1000
0000
0010
0000
1000
0000
0001
0000
0000
0010
0000
0000
0100
0000
1000
0000
0001
0000
1000
0000
0100
0000
0010
0000
0001
0000
0000
1000
0000
0000
0010
0000
0000
0100
0000
0000
0001
0000
0000
0010
0000
0000
,
0100
0000
0010
0000
0001
0000
1000
0000
0100
0000
0010
0000
0001
0000
0000
1000
0000
0000
0010
0000
0100
0000
0010
0000
1000
0000
0001
0000
0100
0000
0001
0000
0000
1000
0000
0000
0100
0000
0000
1000
0000
0000
0010
0000
0000
0100
0000
0000
,
0001
0000
0100
0000
0010
0000
1000
0000
0001
0000
0100
0000
0001
0000
0000
1000
0000
0000
0001
0000
0010
0000
0100
0000
1000
0000
0001
0000
0010
0000
0001
0000
0000
1000
0000
0000
0010
0000
0000
0100
0000
0000
0001
0000
0000
0010
0000
0000
,
0100
0000
1000
0000
0001
0000
0010
0000
0100
0000
1000
0000
0001
0000
0000
0100
0000
0000
0010
0000
1000
0000
0001
0000
0100
0000
0001
0000
1000
0000
0010
0000
0000
1000
0000
0000
0100
0000
0000
0010
0000
0000
0001
0000
0000
0100
0000
0000
,
0001
0000
1000
0000
0010
0000
1000
0000
0001
0000
0100
0000
0001
0000
0000
1000
0000
0000
0100
0000
1000
0000
0001
0000
0010
0000
0100
0000
0010
0000
0001
0000
0000
1000
0000
0000
0010
0000
0000
1000
0000
0000
0001
0000
0000
1000
0000
0000
,
0100
0000
0010
0000
0001
0000
1000
0000
0100
0000
0010
0000
0001
0000
0000
0000
0000
0000
1000
0000
0010
0000
0100
0000
0001
0000
1000
0000
0010
0000
0100
0000
0000
0001
0000
0000
0010
0000
0000
0100
0000
0000
1000
0000
0000
0001
0000
0000
,
1000
0000
0010
0000
0100
0000
0001
0000
0100
0000
0010
0000
1000
0000
0000
0001
0000
0000
1000
0000
0100
0000
0010
0000
0100
0000
1000
0000
0001
0000
0010
0000
0000
0100
0000
0000
1000
0000
0000
0010
0000
0000
0100
0000
0000
0001
0000
0000
,
1000
0000
0100
0000
1000
0000
0001
0000
0010
0000
0100
0000
1000
0000
0000
0001
0000
0000
0100
0000
0010
0000
1000
0000
0001
0000
0100
0000
0001
0000
1000
0000
0000
0010
0000
0000
1000
0000
0000
0100
0000
0000
0010
0000
0000
0100
0000
0000
,
1000
0000
0001
0000
0100
0000
0001
0000
1000
0000
0010
0000
1000
0000
0000
0001
0000
0000
0010
0000
0100
0000
1000
0000
0001
0000
1000
0000
0100
0000
0010
0000
0000
0001
0000
0000
0100
0000
0000
0001
0000
0000
1000
0000
0000
0010
0000
0000
,
1000
0000
0001
0000
0010
0000
0100
0000
0010
0000
0001
0000
1000
0000
0000
0010
0000
0000
0100
0000
0010
0000
1000
0000
0001
0000
1000
0000
0010
0000
0100
0000
0000
0001
0000
0000
0010
0000
0000
0001
0000
0000
1000
0000
0000
0100
0000
0000
,
1000
0000
0001
0000
0100
0000
0010
0000
0100
0000
0001
0000
1000
0000
0000
0001
0000
0000
0010
0000
0100
0000
0010
0000
0001
0000
1000
0000
0100
0000
1000
0000
0000
0001
0000
0000
0010
0000
0000
0001
0000
0000
0100
0000
0000
0010
0000
0000
,
1000
0000
0001
0000
0010
0000
0001
0000
1000
0000
0100
0000
1000
0000
0000
0001
0000
0000
0100
0000
0010
0000
1000
0000
0001
0000
0100
0000
0001
0000
1000
0000
0000
0010
0000
0000
1000
0000
0000
0100
0000
0000
0010
0000
0000
0001
0000
0000
,
1000
0000
0010
0000
0100
0000
0010
0000
1000
0000
0001
0000
1000
0000
0000
0100
0000
0000
0010
0000
0001
0000
1000
0000
0100
0000
0010
0000
0100
0000
1000
0000
0000
0001
0000
0000
0010
0000
0000
0001
0000
0000
0100
0000
0000
0010
0000
0000
,
1000
0000
0001
0000
0010
0000
0001
0000
1000
0000
0100
0000
1000
0000
0000
0001
0000
0000
0100
0000
0001
0000
1000
0000
0010
0000
0100
0000
0010
0000
1000
0000
0000
0001
0000
0000
0100
0000
0000
0001
0000
0000
0010
0000
0000
0100
0000
0000
,
1000
0010
1000
0001
0100
0001
0010
0100
1000
0001
0100
0001
1000
0010
1000
0100
0010
0001
1000
0010
1000
0001
0100
0001
,
0010
0100
1000
0001
0010
0001
1000
0001
0100
0010
1000
0001
1000
0100
0010
0001
1000
0001
0100
0010
1000
0001
0100
0001
,
0010
0000
0100
0000
0010
0000
0001
0000
0100
0000
0001
0000
1000
0000
0010
0000
1000
0000
0100
0000
0010
0000
0001
0000
0010
0000
0100
0000
1000
0001
0100
0010
,
1000
0001
0010
0100
1000
0000
0001
0000
0010
0000
0001
0000
0100
0000
0010
0000
1000
0000
0001
0000
0100
0000
0001
0000
0010
0000
0100
0000
1000
0000
0001
0000
,
1000
0100
1000
0001
0010
0001
0100
0010
1000
0001
0010
0001
1000
0100
1000
0010
0100
0001
1000
0100
1000
0001
0010
0001
,
0100
0010
1000
0001
0100
0001
1000
0001
0010
0100
1000
0001
1000
0010
0100
0001
1000
0001
0010
0100
1000
0001
0010
0001
,
0100
0000
0010
0000
0100
0000
0001
0000
0010
0000
0001
0000
1000
0000
0100
0000
1000
0000
0010
0000
0100
0000
0001
0000
0100
0000
0010
0000
1000
0001
0010
0100
,
1000
0001
0100
0010
1000
0000
0001
0000
0100
0000
0001
0000
0010
0000
0100
0000
1000
0000
0001
0000
0010
0000
0001
0000
0100
0000
0010
0000
1000
0000
0001
0000
,
1000
0100
0010
0001
0100
0010
1000
0001
0100
0001
0010
0100
1000
0010
1000
0001
0100
0001
1000
0100
0010
0001
0100
0010
,
1000
0010
0100
0001
0010
0100
1000
0001
0010
0001
0100
0010
1000
0100
0010
0001
1000
0100
1000
0010
0100
0001
0010
0100
,
1000
0001
0010
0001
0100
0010
1000
0010
0100
0001
0010
0100
1000
0001
0100
0001
1000
0100
1000
0001
0100
0001
0000
0000
,
0010
0100
1000
0100
0010
0001
0010
0001
,
1000
0000
0010
0000
0100
0000
0001
0000
0100
0000
0010
0000
1000
0000
0000
0001
0000
0000
1000
0000
0100
0000
0010
0000
0100
0000
1000
0000
0001
0000
0010
0000
0000
0100
0000
0000
1000
0000
0000
0010
0000
0000
0100
0000
0000
0001
0000
0000
,
0010
0000
0100
0000
0010
0000
0001
0000
1000
0000
0100
0000
1000
0000
0000
0001
0000
0000
0100
0000
0010
0000
1000
0000
0001
0000
0100
0000
0001
0000
1000
0000
0000
0010
0000
0000
1000
0000
0000
0100
0000
0000
0010
0000
0000
0001
0000
0000
,
1000
0000
0010
0000
0100
0000
0010
0000
1000
0000
0001
0000
0100
0000
0000
0001
0000
0000
1000
0000
0100
0000
0010
0000
0100
0000
1000
0000
0001
0000
0010
0000
0000
0001
0000
0000
0100
0000
0000
0010
0000
0000
1000
0000
0000
0001
0000
0000
,
1000
0000
0100
0000
1000
0000
0001
0000
0010
0000
0100
0000
1000
0000
0000
0001
0000
0000
1000
0000
0010
0000
0100
0000
0010
0000
1000
0000
0001
0000
0200
0000
0000
0300
0000
0000
0020
0000
0000
0000
0000
0000
0030
0000
0000
0000
0000
0000
,
1000
0000
0100
0000
1000
0000
0001
0000
0010
0000
0001
0000
1000
0000
0000
0010
0000
0000
0100
0000
0001
0000
1000
0000
0010
0000
1000
0000
0001
0000
0100
0000
0000
0001
0000
0000
0010
0000
0000
0100
0000
0000
1000
0000
0000
0001
0000
0000
,
1000
0000
0010
0000
0100
0000
0010
0000
1000
0000
0001
0000
1000
0000
0000
0100
0000
0000
0010
0000
0100
0000
1000
0000
0001
0000
0010
0000
0001
0000
1000
0000
0000
0100
0000
0000
1000
0000
0000
0010
0000
0000
0100
0000
0000
0001
0000
0000
,
1000
0000
0100
0000
0010
0000
0100
0000
1000
0000
0001
0000
0010
0000
0000
0001
0000
0000
1000
0000
0010
0000
1000
0000
0001
0000
0100
0000
0001
0000
1000
0000
0000
0010
0000
0000
1000
0000
0000
0100
0000
0000
0010
0000
0000
0001
0000
0000
,
1000
0000
0010
0000
1000
0000
0001
0000
0100
0000
0010
0000
1000
0000
0000
0001
0000
0000
0010
0000
0100
0000
0010
0000
0001
0000
1000
0000
0100
0000
1000
0000
0000
0001
0000
0000
0010
0000
0000
0001
0000
0000
0100
0000
0000
0010
0000
0000
,
1000
0000
0100
0000
0010
0000
0100
0000
1000
0000
0100
0000
0010
0000
0001
0000
0100
0000
0001
0000
1000
0000
0010
0000
0100
0000
0010
0000
1000
0000
0001
0000
0000
0100
0000
0000
0001
0000
0000
0010
0000
0000
0100
0000
0000
1000
0000
0000
,
0001
0000
0100
0000
0010
0000
0100
0000
0001
0000
0100
0000
0010
0000
1000
0000
0100
0000
0010
0000
0001
0000
1000
0000
0001
0000
0010
0000
0100
0000
1000
0000
0000
0001
0000
0000
0010
0000
0000
0001
0000
0000
0100
0000
0000
0010
0000
0000
,
1000
0000
0001
0000
0010
0000
0001
0000
1000
0000
0001
0000
0010
0000
0100
0000
1000
0000
0010
0000
0100
0000
0001
0000
1000
0000
0010
0000
1000
0000
0001
0000
0000
0100
0000
0000
0010
0000
0000
1000
0000
0000
0100
0000
0000
0010
0000
0000
,
0001
0000
1000
0000
0010
0000
1000
0000
0001
0000
1000
0000
0010
0000
0100
0000
0001
0000
0010
0000
0100
0000
1000
0000
0001
0000
0000
0000
0000
0000
0020
0000
0000
0030
0000
0000
0002
0000
0000
0003
0000
0000
1000
0000
0100
0000
0010
0000
,
0001
0100
0001
1000
0100
1000
0001
0100
0001
0010
0100
1000
0001
0100
0010
1000
0001
0100
0001
1000
0010
0100
0010
1000
,
0100
1000
0001
0100
0001
1000
0100
1000
0001
0100
0010
1000
0100
0010
0001
1000
0100
0010
0100
1000
0001
0010
0100
0010
,
0001
0100
0001
0100
0010
1000
0001
0010
0001
1000
0010
0100
0001
0010
0001
0010
0100
1000
0001
0100
0001
1000
0100
0010
,
0001
1000
0010
1000
0001
1000
0100
0010
0001
0100
0001
1000
0010
0100
0010
1000
0001
0100
0001
1000
0010
1000
0100
1000
,
0001
0100
0001
1000
0010
1000
0100
0010
0001
1000
0010
1000
0001
0100
0001
0010
0100
1000
0001
0100
0001
1000
0010
1000
,
0100
0010
0001
1000
0100
1000
0001
1000
0010
0100
0001
1000
0001
0010
0100
1000
0001
1000
0010
0100
0001
1000
0010
1000
,
0100
0000
0010
0000
0100
0000
1000
0000
0010
0000
1000
0000
0001
0000
0100
0000
0001
0000
0010
0000
0100
0000
1000
0000
0100
0000
0010
0000
0001
1000
0010
0100
,
0001
1000
0100
0010
0001
0000
1000
0000
0100
0000
1000
0000
0010
0000
0100
0000
0001
0000
1000
0000
0010
0000
1000
0000
0100
0000
0010
0000
0001
0000
1000
0000
,
0001
0010
0001
1000
0100
1000
0010
0100
0001
1000
0100
1000
0001
0010
0001
0100
0010
1000
0001
0010
0001
1000
0100
1000
,
0010
0100
0001
1000
0010
1000
0001
1000
0100
0010
0001
1000
0001
0100
0010
1000
0001
1000
0100
0010
0001
1000
0100
1000
,
0010
0000
0100
0000
0010
0000
1000
0000
0100
0000
1000
0000
0001
0000
0010
0000
0001
0000
0100
0000
0010
0000
1000
0000
0010
0000
0100
0000
0001
1000
0100
0010
,
0001
1000
0010
0100
0001
0000
1000
0000
0010
0000
1000
0000
0100
0000
0010
0000
0001
0000
1000
0000
0100
0000
1000
0000
0010
0000
0100
0000
0001
0000
1000
0000
,
0001
0010
0100
1000
0010
0100
0001
1000
0010
1000
0100
0010
0001
0100
0001
1000
0010
1000
0001
0010
0100
1000
0010
0100
,
0001
0100
0010
1000
0100
0010
0001
1000
0100
1000
0010
0100
0001
0010
0100
1000
0001
0010
0001
0100
0010
1000
0100
0010
,
0001
1000
0100
1000
0010
0100
0001
0100
0010
1000
0100
0010
0001
1000
0010
1000
0001
0010
0001
1000
0010
1000
0000
0000
,
0100
0010
0001
0010
0100
1000
0100
1000
,
0010
0100
0010
1000
0010
0100
0001
0010
0100
1000
0100
0010
0002
0000
0000
0003
0000
0000
0000
0000
0000
1000
0000
0000
,
0100
0010
0001
0010
0100
0010
0001
0100
0010
1000
0010
0100
0002
0000
0000
0003
0000
0000
0000
0000
0000
1000
0000
0000
,
0010
0000
0100
0000
0001
0000
1000
0000
0010
0000
1000
0000
0001
0000
0000
0010
0000
0000
0100
0000
1000
0000
0001
0000
0010
0000
0001
0000
1000
0000
0100
0000
0000
0010
0000
0000
0001
0000
0000
0100
0000
0000
0010
0000
0000
1000
0000
0000
,
0001
0000
0010
0000
0001
0000
1000
0000
0100
0000
0010
0000
0001
0000
0000
1000
0000
0000
0010
0000
0100
0000
0001
0000
1000
0000
0010
0000
1000
0000
0001
0000
0000
0100
0000
0000
0001
0000
0000
0010
0000
0000
0100
0000
0000
1000
0000
0000
,
0001
0000
0100
0000
0001
0000
1000
0000
0010
0000
1000
0000
0001
0000
0000
0010
0000
0000
0100
0000
0010
0000
0001
0000
1000
0000
0100
0000
0010
0000
0100
0000
0000
1000
0000
0000
0010
0000
0000
0100
0000
0000
0001
0000
0000
0010
0000
0000
,
0001
0000
1000
0000
0100
0000
0010
0000
0001
0000
1000
0000
0001
0000
0000
0100
0000
0000
0010
0000
1000
0000
0001
0000
0100
0000
0001
0000
1000
0000
0010
0000
0000
0100
0000
0000
0001
0000
0000
0010
0000
0000
0100
0000
0000
1000
0000
0000
,
0010
0000
1000
0000
0001
0000
0100
0000
0010
0000
0100
0000
0001
0000
0000
1000
0000
0000
0001
0000
0010
0000
0100
0000
0010
0000
0001
0000
1000
0000
0100
0000
0000
0010
0000
0000
0001
0000
0000
0100
0000
0000
0010
0000
0000
1000
0000
0000
,
0100
0000
0010
0000
0001
0000
1000
0000
0100
0000
0010
0000
0100
0000
0000
1000
0000
0000
0001
0000
0100
0000
0010
0000
1000
0000
0001
0000
0100
0000
0001
0000
0000
1000
0000
0000
0010
0000
0000
1000
0000
0000
0100
0000
0000
0010
0000
0000
,
0001
0000
1000
0000
0010
0000
0100
0000
0001
0000
1000
0000
0001
0000
0000
0010
0000
0000
0100
0000
1000
0000
0001
0000
0010
0000
0001
0000
1000
0000
0100
0000
0000
0010
0000
0000
0001
0000
0000
0100
0000
0000
0001
0000
0000
1000
0000
0000
,
0100
0000
0010
0000
0100
0000
1000
0000
0001
0000
0010
0000
0100
0000
0000
1000
0000
0000
0001
0000
1000
0000
0010
0000
0100
0000
0010
0000
1000
0000
0001
0000
0000
0100
0000
0000
0001
0000
0000
0010
0000
0000
0100
0000
0000
1000
0000
0000
,
0001
0000
1000
0000
0010
0000
0100
0000
0010
0000
1000
0000
0001
0000
0000
0010
0000
0000
0100
0000
1000
0000
0001
0000
0010
0000
0001
0000
1000
0000
0100
0000
0000
0010
0000
0000
0001
0000
0000
0100
0000
0000
0001
0000
0000
1000
0000
0000
,
0100
0000
0010
0000
0001
0000
1000
0000
0100
0000
1000
0000
0001
0000
0000
0100
0000
0000
0010
0000
1000
0000
0001
0000
0100
0000
0001
0000
1000
0000
0010
0000
0000
0100
0000
0000
0001
0000
0000
0010
0000
0000
0100
0000
0000
1000
0000
0000
,
0001
0000
0100
0000
0001
0000
1000
0000
0010
0000
0100
0000
0001
0000
0000
1000
0000
0000
0001
0000
0010
0000
0100
0000
1000
0000
0100
0000
0010
0000
0001
0000
0000
1000
0000
0000
0100
0000
0000
1000
0000
0000
0010
0000
0000
0100
0000
0000
,
0001
0000
1000
0000
0100
0000
1000
0000
0001
0000
0010
0000
0100
0000
0000
1000
0000
0000
0001
0000
0100
0000
0001
0000
1000
0000
0010
0000
0100
0000
0001
0000
0000
1000
0000
0000
0010
0000
0000
1000
0000
0000
0100
0000
0000
0010
0000
0000
,
0001
0000
1000
0000
0010
0000
0100
0000
0001
0000
1000
0000
0001
0000
0000
0010
0000
0000
0100
0000
1000
0000
0100
0000
0010
0000
0001
0000
1000
0000
0001
0000
0000
0100
0000
0000
0001
0000
0000
0010
0000
0000
0100
0000
0000
0000
0000
0000
,
1000
0000
0001
0000
0100
0000
0010
1000
0000
0001
0000
0000
0000
0010
0100
0000
,
1000
0010
1000
0001
0010
0100
1000
0010
1000
0001
0010
0001
1000
0010
0100
0001
0010
0001
1000
0010
1000
0001
0010
0100
,
1000
0010
1000
0001
0010
0001
1000
0001
0100
0010
1000
0001
1000
0100
0010
0001
1000
0001
0100
0010
1000
0001
0100
0001
,
0010
0000
0100
0000
0010
0000
0001
0000
0100
0000
0001
0000
1000
0000
0010
0000
1000
0000
0100
0000
0010
0000
0001
0000
0010
0000
0100
0000
1000
0001
0100
0010
,
1000
0001
0010
0100
1000
0000
0001
0000
0010
0000
0001
0000
0100
0000
0010
0000
1000
0000
0001
0000
0100
0000
0001
0000
0010
0000
0100
0000
1000
0000
0001
0000
,
1000
0100
1000
0001
0100
0010
1000
0100
1000
0001
0100
0001
1000
0100
0010
0001
0100
0001
1000
0100
1000
0001
0100
0010
,
1000
0100
1000
0001
0010
0001
1000
0001
0010
0100
1000
0001
1000
0010
0100
0001
1000
0001
0010
0100
1000
0001
0010
0001
,
0100
0000
0010
0000
0100
0000
0001
0000
0010
0000
0001
0000
1000
0000
0100
0000
1000
0000
0010
0000
0100
0000
0001
0000
0100
0000
0010
0000
1000
0001
0010
0100
,
1000
0001
0100
0010
1000
0000
0001
0000
0100
0000
0001
0000
0010
0000
0100
0000
1000
0000
0001
0000
0100
0000
0001
0000
0010
0000
0100
0000
1000
0000
0001
0000
,
1000
0010
0100
0001
0010
0100
1000
0001
0010
0001
0100
0010
1000
0100
1000
0001
0010
0001
1000
0010
0100
0001
0010
0100
,
1000
0100
0010
0001
0100
0010
1000
0001
0100
0001
0010
0100
1000
0010
0100
0001
1000
0010
1000
0100
0010
0001
0100
0010
,
1000
0001
0100
0001
0010
0100
1000
0100
0010
0001
0100
0010
1000
0001
0010
0001
1000
0010
1000
0001
0010
0001
0000
0000
,
0100
0010
1000
0010
0100
0001
0100
0001
,
1000
0000
0100
0000
1000
0000
0001
0000
0100
0000
0001
0000
1000
0000
0010
0000
1000
0000
0001
0000
0010
0000
0001
0000
1000
0000
0100
0000
1000
0000
0001
0000
0000
1000
0000
0000
0001
0000
0100
0000
0001
0000
1000
0000
0100
0000
1000
0000
,
0001
0000
0000
0000
0000
0000
0000
0000
0010
0000
0000
0000
0000
0000
0000
0000
0001
0000
0000
0000
0000
0000
0000
0000
1000
0000
0000
0000
0000
0000
0000
0000
0000
0000
0000
0000
0001
0000
0000
0000
0000
0000
0000
0000
0000
0000
0000
0000
1000
0000
0000
0000
0000
0000
0010
0000
0000
0000
0000
0000
1000
0000
0000
0000
0000
0000
0001
0000
0000
0000
0000
0000
0100
0000
0000
0000
0000
0000
0001
0000
0000
0000
0000
0000
1000
0000
0000
0000
0000
0000
0010
0000
0000
0000
0000
0000
1000
0000
0000
0000
0000
0000
0001
0000
0000
0000
0000
0000
0010
0000
0000
0000
0000
0000
0001
0000
0000
0000
0000
0000
1000
0000
0000
0000
0000
0000
0100
0000
0000
0000
0000
0000
1000
0000
0000
0000
0000
0000
0001
0000
0000
0000
0000
0000
0010
0000
0000
0000
0000
0000
0001
0000
0000
0000
0000
0000
1000
0000
0000
0000
0000
0000
0100
0000
0000
0000
0000
0000
1000
0000
0000
0000
0000
0000
0000
0000
0000
0000
0000
0000
0001
0000
0000
0000
0000
0000
0000
0000
0000
0000
0000
0000
,
1000
0000
0010
0000
1000
0000
0100
0000
0010
0000
0001
0000
1000
0000
0000
0001
0000
0000
1000
0000
0100
0000
1000
0000
0010
0000
0100
0000
0010
0000
1000
0000
0100
0000
1000
0000
0010
0000
0100
0000
0010
0000
1000
0000
0100
0000
1000
0000
,
0001
0000
0010
0000
0001
0000
0100
0000
0010
0000
0100
0000
0001
0000
0010
0000
0001
0000
0100
0000
0010
0000
0100
0000
0001
0000
0010
0000
0001
0000
0100
0000
0010
0000
0100
0000
0001
0000
0010
0000
0100
0000
1000
0000
0000
0001
0000
0000
,
1000
0000
0010
0000
1000
0000
0001
0000
0010
0000
0001
0000
1000
0000
0100
0000
1000
0000
0001
0000
0100
0000
0001
0000
1000
0000
0010
0000
1000
0000
0001
0000
0000
1000
0000
0000
0001
0000
0010
0000
0001
0000
1000
0000
0010
0000
1000
0000
,
0001
0000
0000
0000
0000
0000
0000
0000
0100
0000
0000
0000
0000
0000
0000
0000
0001
0000
0000
0000
0000
0000
0000
0000
1000
0000
0000
0000
0000
0000
0000
0000
0000
0000
0000
0000
0001
0000
0000
0000
0000
0000
0000
0000
0000
0000
0000
0000
1000
0000
0000
0000
0000
0000
0100
0000
0000
0000
0000
0000
1000
0000
0000
0000
0000
0000
0001
0000
0000
0000
0000
0000
0010
0000
0000
0000
0000
0000
0001
0000
0000
0000
0000
0000
1000
0000
0000
0000
0000
0000
0100
0000
0000
0000
0000
0000
1000
0000
0000
0000
0000
0000
0001
0000
0000
0000
0000
0000
0100
0000
0000
0000
0000
0000
0001
0000
0000
0000
0000
0000
1000
0000
0000
0000
0000
0000
0010
0000
0000
0000
0000
0000
1000
0000
0000
0000
0000
0000
0001
0000
0000
0000
0000
0000
0100
0000
0000
0000
0000
0000
0001
0000
0000
0000
0000
0000
1000
0000
0000
0000
0000
0000
0010
0000
0000
0000
0000
0000
1000
0000
0000
0000
0000
0000
0000
0000
0000
0000
0000
0000
0001
0000
0000
0000
0000
0000
0000
0000
0000
0000
0000
0000
,
1000
0000
0100
0000
1000
0000
0010
0000
0100
0000
0001
0000
1000
0000
0000
0001
0000
0000
1000
0000
0010
0000
1000
0000
0100
0000
0010
0000
0100
0000
1000
0000
0010
0000
1000
0000
0100
0000
0010
0000
0100
0000
1000
0000
0010
0000
1000
0000
,
0001
0000
0100
0000
0001
0000
0010
0000
0100
0000
0010
0000
0001
0000
0100
0000
0001
0000
0010
0000
0100
0000
0010
0000
0001
0000
0100
0000
0001
0000
0010
0000
0100
0000
0010
0000
0001
0000
0100
0000
0010
0000
1000
0000
0000
0001
0000
0000
,
1000
0100
0010
0001
0100
0001
1000
0100
1000
0001
0010
0100
1000
0010
1000
0001
,
0100
0010
0100
0001
0010
0001
1000
0010
1000
0001
0100
0010
1000
0100
0010
0001
,
2000
3000
0000
0000
0000
0000
0000
0000
,
1001
1001
1001
1001
,
0001
0010
0100
1000
0010
1000
0001
0010
0001
1000
0100
0010
0001
0100
0001
1000
,
0010
0100
0010
1000
0100
1000
0001
0100
0001
1000
0010
0100
0001
0010
0100
1000
,
0001
0100
0010
1000
0100
1000
0001
0100
0001
1000
0010
0100
0001
0010
0001
1000
,
0100
0010
0100
1000
0010
1000
0001
0010
0001
1000
0100
0010
0001
0100
0010
1000
,
0001
0010
0100
1000
0010
1000
0001
0010
0001
1000
0100
0010
0001
0100
0001
1000
,
0010
0100
0010
1000
0100
1000
0001
0100
0001
1000
0010
0100
0001
0010
0100
1000
,
0001
0100
0010
1000
0100
1000
0001
0100
0001
1000
0010
0100
0001
0010
0001
1000
,
0100
0010
0100
1000
0010
1000
0001
0010
0001
1000
0100
0010
0001
0100
0010
1000
,
0100
0010
0001
1000
0100
0010
0100
1000
0001
0100
0010
1000
0100
1000
0001
0100
;

//---------------dance-single - @@----------------
#NOTES:
     dance-single:
     @@:
     Hard:
     13:
     1.000,1.000,0.282,0.094,1.000,1758.000,66.000,22.000,0.000,0.000:
0000
0000
0000
0000
,
0000
0000
0000
0000
,
0000
0000
0000
0000
,
0000
0000
0000
0000
,
0000
0000
0000
0000
,
0000
0000
0000
0000
,
1001
1001
1001
1001
,
0001
0010
0100
1000
0010
1000
0001
0010
0001
1000
0100
0010
0001
0100
0001
1000
,
0010
0100
0010
1000
0100
1000
0001
0100
0001
1000
0010
0100
0001
0010
0100
1000
,
0001
0100
0001
0010
0100
1000
0001
1000
0010
1000
0100
0010
0001
1000
0010
1000
,
0001
0010
0001
0100
0010
1000
0001
0010
0100
1000
0010
0100
0001
1000
0001
1000
,
0010
0100
0010
1000
0100
0010
0001
0100
0001
1000
0010
1000
0001
0100
0001
0010
,
0100
1000
0001
1000
0010
0100
0001
0100
0010
1000
0100
0010
0001
0100
0001
1000
,
0100
0010
0001
0010
0100
0010
0001
0100
0010
1000
0100
0010
0001
0100
0010
1000
,
0100
0010
0100
1000
0010
1000
0001
0010
0001
0100
0010
1000
0001
0100
0001
0010
,
0100
1000
0001
1000
0010
0100
0010
1000
0100
0010
0001
1000
0100
1000
0010
0100
,
0001
0010
0001
1000
0001
0100
0010
1000
0100
0010
0100
1000
0001
0010
0001
0100
,
0010
1000
0001
1000
0100
0010
0001
1000
0001
0100
0001
1000
0100
1000
0010
0100
,
0002
0000
0003
0000
0010
0000
0001
2000
3000
1000
0002
1003
0100
1000
0010
0100
,
0001
1000
0100
0010
0001
0100
0001
1000
0010
1000
0100
0010
0001
0100
0010
1000
,
0001
1000
0010
0100
0001
0010
0001
1000
0100
1000
0010
0100
0001
0010
0001
1000
,
0010
1000
0001
1000
0100
1000
0100
0010
0001
1000
0001
0100
0001
1000
0001
0010
,
0001
0100
0010
1000
0001
0100
0001
0010
0100
1000
0001
0010
0001
0100
0010
1000
,
0001
0010
0001
0010
0100
1000
0010
1000
0001
0010
0001
0100
0010
1000
0001
1000
,
0100
0010
0001
0010
0100
1000
0010
1000
0100
0010
0001
1000
0010
0100
0010
1000
,
0100
0010
0100
1000
0001
0100
0010
0100
0001
0010
0100
1000
0001
0010
0001
1000
,
0010
0100
0010
1000
0001
0100
0001
0010
0100
1000
0010
0100
0001
0010
0100
1000
,
0001
0100
0001
1000
0010
1000
0100
0010
0001
1000
0010
1000
0001
0100
0001
0010
0100
1000
0001
0100
0001
1000
0010
1000
,
0100
0010
0001
1000
0100
1000
0001
1000
0010
0100
0001
1000
0001
0010
0100
1000
0001
1000
0010
0100
0001
1000
0010
1000
,
0100
0010
0100
1000
0010
1000
0001
0100
0001
0010
0100
1000
0100
0010
0002
1003
,
0020
0130
0001
1000
0100
1000
0010
0100
0001
1000
0010
1000
0100
0010
0001
1000
,
0001
0010
0001
1000
0100
1000
0010
0100
0001
1000
0100
1000
0001
0010
0001
0100
0010
1000
0001
0010
0001
1000
0100
1000
,
0010
0100
0001
1000
0010
1000
0001
1000
0100
0010
0001
1000
0001
0100
0010
1000
0001
1000
0100
0010
0001
1000
0100
1000
,
0010
0100
0010
1000
0100
1000
0001
0010
0001
0100
0010
1000
0010
0100
0002
1003
,
0200
0310
0001
1000
0010
1000
0100
0010
0001
1000
0100
1000
0010
0100
0001
1000
,
0001
0010
0100
1000
0010
0100
0001
1000
0010
1000
0100
0010
0001
0100
0001
1000
0010
1000
0001
0010
0100
1000
0010
0100
,
0001
0100
0010
1000
0100
0010
0001
1000
0100
1000
0010
0100
0001
0010
0100
1000
0001
0010
0001
0100
0010
1000
0100
0010
,
0001
1000
0100
1000
0010
0100
0001
0100
0010
1000
0100
0010
0001
1000
0010
1000
0001
0010
0001
1000
0010
1000
0000
0000
,
0100
0010
0001
0010
0100
1000
0100
1000
,
0001
0010
0001
1000
0001
0100
0010
1000
0100
0010
0001
0100
0010
1000
0001
0100
,
0001
0010
0100
1000
0001
0100
0001
1000
0100
1000
0100
0010
0001
0100
0010
1000
,
0001
0010
0100
1000
0010
0100
0001
0100
0010
1000
0100
1000
0010
0100
0001
1000
,
0001
0010
0001
0100
0001
1000
0010
1000
0100
0010
0002
0003
2000
0000
3000
0010
,
1000
0100
1000
0001
1000
0010
0100
0001
0010
0001
1000
0100
0010
0001
1000
0100
,
1000
0010
0100
0010
1000
0001
0010
0001
0100
0001
1000
0010
0100
0001
1000
0010
,
1000
0100
1000
0010
0100
0001
0010
0100
1000
0001
0010
0001
1000
0010
0100
0001
,
0010
0100
0010
0001
0100
0010
1000
0010
0100
0001
0010
0001
1000
0100
0010
0001
,
0100
0010
0100
0010
1000
0100
0010
0001
1000
0010
0100
0001
0010
0100
0010
0001
,
0100
0010
0100
0010
1000
0100
0010
0001
1000
0010
0100
0010
1000
0100
0010
0001
,
0100
0010
0100
0010
1000
0100
0010
0001
1000
0010
1000
0001
0100
0001
0010
0100
,
1000
0010
1000
0001
1000
0100
0010
0001
0100
0000
0002
0003
2000
3000
0001
0000
,
0010
0001
1000
0001
0100
0001
1000
0100
0010
0100
0010
0001
0100
0010
1000
0100
,
1000
0010
1000
0001
1000
0100
0010
0001
0100
0001
0100
0010
1000
0100
1000
0001
,
0010
0100
0010
0100
1000
0010
0100
0001
0010
0100
0010
0100
1000
0001
0010
0100
,
1000
0010
1000
0001
1000
0100
1000
0010
0100
0001
0010
0001
1000
0100
0010
0001
,
1000
0010
1000
0001
0100
0001
0010
0100
1000
0001
0100
0001
1000
0010
1000
0100
0010
0001
1000
0010
1000
0001
0100
0001
,
0010
0100
1000
0001
0010
0001
1000
0001
0100
0010
1000
0001
1000
0100
0010
0001
1000
0001
0100
0010
1000
0001
0100
0001
,
0010
0100
0010
0001
0100
0001
1000
0010
1000
0100
0010
0001
0010
0100
2000
3001
,
0200
0310
1000
0001
0010
0001
0100
0010
1000
0001
0100
0001
0010
0100
1000
0001
,
1000
0100
1000
0001
0010
0001
0100
0010
1000
0001
0010
0001
1000
0100
1000
0010
0100
0001
1000
0100
1000
0001
0010
0001
,
0100
0010
1000
0001
0100
0001
1000
0001
0010
0100
1000
0001
1000
0010
0100
0001
1000
0001
0010
0100
1000
0001
0010
0001
,
0100
0010
0100
0001
0010
0001
1000
0100
1000
0010
0100
0001
0100
0010
2000
3001
,
0020
0130
1000
0001
0100
0001
0010
0100
1000
0001
0010
0001
0100
0010
1000
0001
,
1000
0100
0010
0001
0100
0010
1000
0001
0100
0001
0010
0100
1000
0010
1000
0001
0100
0001
1000
0100
0010
0001
0100
0010
,
1000
0010
0100
0001
0010
0100
1000
0001
0010
0001
0100
0010
1000
0100
0010
0001
1000
0100
1000
0010
0100
0001
0010
0100
,
1000
0001
0010
0001
0100
0010
1000
0010
0100
0001
0010
0100
1000
0001
0100
0001
1000
0100
1000
0001
0100
0001
0000
0000
,
0010
0100
1000
0100
0010
0001
0010
0001
,
0100
0010
1000
0001
1000
0100
0010
0001
2000
0000
3000
0000
0000
0000
0001
0000
,
0100
0010
1000
0001
1000
0100
0010
0001
2000
0000
3000
0000
0000
0000
0001
0000
,
1000
0100
0010
0001
0100
0001
1000
0010
1000
0100
1000
0100
0010
0001
1000
0001
,
0100
0010
0100
0010
1000
0001
0010
0001
1000
0010
1000
0010
0100
0001
0010
0100
,
1000
0010
1000
0010
0100
0001
0010
0100
1000
0001
1000
0001
0100
0010
0100
0001
,
0010
0100
0010
0100
1000
0001
1000
0100
0010
0001
0010
0001
0100
0001
1000
0010
,
1000
0100
1000
0100
0010
0001
1000
0001
0100
0010
0100
0010
1000
0100
0010
0001
,
1000
0010
1000
0010
0100
0001
1000
0100
0010
0001
0010
0001
1000
0010
1000
0100
,
0010
0001
1000
0001
0100
0001
1000
0010
1000
0100
0010
0001
0100
0001
0010
0100
,
1000
0010
1000
0001
1000
0100
1000
0001
0100
0010
1000
0001
0100
0001
0010
0100
,
1000
0001
1000
0001
0010
0001
0100
0010
1000
0001
0100
0001
0010
0100
1000
0010
,
0100
0001
0010
0001
1000
0100
0010
0001
0100
0001
1000
0010
1000
0100
0010
0100
,
1000
0010
1000
0001
1000
0100
0010
0001
0100
0001
1000
0010
0100
0010
1000
0001
,
0100
0001
0010
0001
1000
0001
0100
0001
1000
0010
1000
0100
0010
0001
0100
0001
,
0010
0100
1000
0100
0010
0100
1000
0010
0100
0001
0100
0010
0100
0001
0100
0000
,
0001
0000
1000
0000
0100
0000
1000
0001
0000
1000
0000
0000
0000
0100
0010
0000
,
0001
0100
0001
1000
0100
0010
0001
0100
0001
1000
0100
1000
0001
0100
0010
1000
0100
1000
0001
0100
0001
1000
0100
0010
,
0001
0100
0001
1000
0100
1000
0001
1000
0010
0100
0001
1000
0001
0010
0100
1000
0001
1000
0010
0100
0001
1000
0010
1000
,
0100
0010
0100
1000
0010
1000
0001
0100
0001
0010
0100
1000
0100
0010
0002
1003
,
0020
0130
0001
1000
0100
1000
0010
0100
0001
1000
0010
1000
0100
0010
0001
1000
,
0001
0010
0001
1000
0010
0100
0001
0010
0001
1000
0010
1000
0001
0010
0100
1000
0010
1000
0001
0010
0001
1000
0010
0100
,
0001
0010
0001
1000
0100
1000
0001
1000
0100
0010
0001
1000
0001
0100
0010
1000
0001
1000
0100
0010
0001
1000
0100
1000
,
0010
0100
0010
1000
0100
1000
0001
0010
0001
0100
0010
1000
0010
0100
0002
1003
,
0200
0310
0001
1000
0010
1000
0100
0010
0001
1000
0010
1000
0100
0010
0001
1000
,
0001
0100
0010
1000
0100
0010
0001
1000
0100
1000
0010
0100
0001
0010
0001
1000
0100
1000
0001
0100
0010
1000
0100
0010
,
0001
0010
0100
1000
0010
0100
0001
1000
0010
1000
0100
0010
0001
0100
0010
1000
0001
0100
0001
0010
0100
1000
0010
0100
,
0001
1000
0010
1000
0100
0010
0001
0010
0100
1000
0010
0100
0001
1000
0100
1000
0001
0100
0001
1000
0100
1000
0000
0000
,
0010
0100
0001
0100
0010
1000
0010
1000
,
1001
0011
1001
1010
1001
0000
0011
1001
,
1100
0000
0000
1001
0101
1001
1100
0011
1001
1010
0000
0000
,
0110
0000
0100
0101
0000
0000
0011
0000
0101
0000
0011
0000
0101
0000
0011
0000
,
0101
0011
0101
0011
0101
0011
0101
0000
,
1001
1010
1001
0011
1001
0000
1010
1001
,
0101
0000
0000
1001
1100
1001
0101
1010
1001
0011
0000
0000
,
0110
0000
0100
1100
0000
0000
1010
0000
1100
0000
1010
0000
1100
0000
1010
0000
,
1100
1010
1100
1010
1100
1010
1100
0000
,
0001
0010
0100
1000
0010
1000
0001
0010
0001
1000
0100
0010
0001
0100
0001
1000
,
0010
0100
0010
1000
0100
1000
0001
0100
0001
1000
0010
0100
0001
0010
0100
1000
,
0002
0003
0000
0000
0000
0000
0000
0000
,
1001
1001
1001
1001
,
1000
0100
0010
0001
0100
0001
1000
0100
1000
0001
0010
0100
1000
0010
1000
0001
,
0100
0010
0100
0001
0010
0001
1000
0010
1000
0001
0100
0010
1000
0100
0010
0001
,
1000
0010
0100
0001
0010
0001
1000
0010
1000
0001
0100
0010
1000
0100
1000
0001
,
0010
0100
0010
0001
0100
0001
1000
0100
1000
0001
0010
0100
1000
0010
0100
0001
,
1000
0100
0010
0001
0100
0001
1000
0100
1000
0001
0010
0100
1000
0010
1000
0001
,
0100
0010
0100
0001
0010
0001
1000
0010
1000
0001
0100
0010
1000
0100
0010
0001
,
1000
0010
0100
0001
0010
0001
1000
0010
1000
0001
0100
0010
1000
0100
1000
0001
,
0010
0100
0010
0001
0100
0001
1000
0100
1000
0001
0010
0100
1000
0010
0100
0001
,
0010
0100
1000
0001
0010
0100
0010
0001
1000
0010
0100
0001
0010
0001
1000
0010
;

//---------------dance-single - @@----------------
#NOTES:
     dance-single:
     @@:
     Medium:
     12:
     0.992,0.843,0.034,0.094,1.000,1593.000,8.000,22.000,0.000,0.000:
0000
0000
0000
0000
,
0000
0000
0000
0000
,
0000
0000
0000
0000
,
0000
0000
0000
0000
,
0000
0000
0000
0000
,
0000
0000
0000
0000
,
1001
1001
1001
1001
,
0001
0010
0100
1000
0010
1000
0001
0010
0001
1000
0100
0010
0001
0100
0001
1000
,
0010
0100
0010
1000
0100
1000
0001
0100
0001
1000
0010
0100
0001
0010
0100
1000
,
0001
0100
0001
0010
0100
1000
0001
1000
0010
1000
0100
0010
0001
1000
0010
1000
,
0001
0010
0001
0100
0010
1000
0001
0010
0100
1000
0010
0100
0001
1000
0001
1000
,
0010
0100
0010
1000
0100
0010
0001
0100
0001
1000
0010
1000
0001
0100
0001
0010
,
0100
1000
0001
1000
0010
0100
0001
0100
0010
1000
0100
0010
0001
0100
0001
1000
,
0100
0010
0001
0010
0100
0010
0001
0100
0010
1000
0100
0010
0001
0100
0010
1000
,
0100
0010
0100
1000
0010
1000
0001
0010
0001
0100
0010
1000
0001
0100
0001
0010
,
0100
1000
0001
1000
0010
0100
0010
1000
0100
0010
0001
1000
0100
1000
0010
0100
,
0001
0010
0001
1000
0001
0100
0010
1000
0100
0010
0100
1000
0001
0010
0001
0100
,
0010
1000
0001
1000
0100
0010
0001
1000
0001
0100
0001
1000
0100
1000
0010
0100
,
0002
0000
0003
0000
0010
0000
0001
2000
3000
1000
0002
1003
0100
1000
0010
0100
,
0001
1000
0100
0010
0001
0100
0001
1000
0010
1000
0100
0010
0001
0100
0010
1000
,
0001
1000
0010
0100
0001
0010
0001
1000
0100
1000
0010
0100
0001
0010
0001
1000
,
0010
1000
0001
1000
0100
1000
0100
0010
0001
1000
0001
0100
0001
1000
0001
0010
,
0001
0100
0010
1000
0001
0100
0001
0010
0100
1000
0001
0010
0001
0100
0010
1000
,
0001
0010
0001
0010
0100
1000
0010
1000
0001
0010
0001
0100
0010
1000
0001
1000
,
0100
0010
0001
0010
0100
1000
0010
1000
0100
0010
0001
1000
0010
0100
0010
1000
,
0100
0010
0100
1000
0001
0100
0010
0100
0001
0010
0100
1000
0001
0010
0001
1000
,
0010
0100
0010
1000
0001
0100
0001
0010
0100
1000
0010
0100
0001
0010
0100
1000
,
0001
0100
0001
0010
0100
1000
0010
1000
0100
0010
0001
0100
0001
0010
0100
1000
,
0010
0100
0001
0010
0100
0010
0001
0100
0010
1000
0100
0010
0001
0100
0010
1000
,
0100
0010
0100
1000
0010
1000
0001
0100
0001
0010
0100
1000
0100
0010
0002
1003
,
0020
0130
0001
1000
0100
1000
0010
0100
0001
1000
0010
1000
0100
0010
0100
1000
,
0001
0010
0001
0100
0010
1000
0100
1000
0010
0100
0001
0010
0001
0100
0010
1000
,
0100
0010
0001
0100
0010
0100
0001
0010
0100
1000
0010
0100
0001
0010
0100
1000
,
0010
0100
0010
1000
0100
1000
0001
0010
0001
0100
0010
1000
0010
0100
0002
1003
,
0200
0310
0001
1000
0010
1000
0100
0010
0001
1000
0100
1000
0010
0100
0001
1000
,
0100
0010
0001
0100
0010
1000
0100
0010
0001
0010
0100
1000
0010
0100
0001
0010
,
0100
1000
0010
0100
0001
0100
0010
1000
0100
0010
0100
1000
0010
0100
0010
1000
,
0100
0010
0001
0100
0001
1000
0010
1000
0100
0010
0100
1000
0010
0100
0010
0000
,
0100
0100
0001
0010
0100
1000
0100
1000
,
0001
0010
0001
1000
0001
0100
0010
1000
0100
0010
0001
0100
0010
1000
0001
0100
,
0001
0010
0100
1000
0001
0100
0001
1000
0100
1000
0100
0010
0001
0100
0010
1000
,
0001
0010
0100
1000
0010
0100
0001
0100
0010
1000
0100
1000
0010
0100
0001
1000
,
0001
0010
0001
0100
0001
1000
0010
1000
0100
0010
0002
0003
2000
0000
3000
0010
,
1000
0100
1000
0001
1000
0010
0100
0001
0010
0001
1000
0100
0010
0001
1000
0100
,
1000
0010
0100
0010
1000
0001
0010
0001
0100
0001
1000
0010
0100
0001
1000
0010
,
1000
0100
1000
0010
0100
0001
0010
0100
1000
0001
0010
0001
1000
0010
0100
0001
,
0010
0100
0010
0001
0100
0010
1000
0010
0100
0001
0010
0001
1000
0100
0010
0001
,
0100
0010
0100
0010
1000
0100
0010
0001
1000
0010
0100
0001
0010
0100
0010
0001
,
0100
0010
0100
0010
1000
0100
0010
0001
1000
0010
0100
0010
1000
0100
0010
0001
,
0100
0010
0100
0010
1000
0100
0010
0001
1000
0010
1000
0001
0100
0001
0010
0100
,
1000
0010
1000
0001
1000
0100
0010
0001
0100
0000
0002
0003
2000
3000
0001
0000
,
0010
0001
1000
0001
0100
0001
1000
0100
0010
0100
0010
0001
0100
0010
1000
0100
,
1000
0010
1000
0001
1000
0100
0010
0001
0100
0001
0100
0010
1000
0100
1000
0001
,
0010
0100
0010
0100
1000
0010
0100
0001
0010
0100
0010
0100
1000
0001
0010
0100
,
1000
0010
1000
0001
1000
0100
1000
0010
0100
0001
0010
0001
1000
0100
0010
0001
,
1000
0010
1000
0100
0010
0001
0100
0001
0010
0100
1000
0010
1000
0100
0010
0001
,
0100
0010
1000
0100
0010
0100
1000
0010
0100
0001
0010
0100
1000
0010
0100
0001
,
0010
0100
0010
0001
0100
0001
1000
0010
1000
0100
0010
0001
0010
0100
2000
3001
,
0200
0310
1000
0001
0010
0001
0100
0010
1000
0001
0100
0001
0010
0100
0010
0001
,
1000
0100
1000
0010
0100
0001
0010
0001
0100
0010
1000
0100
1000
0010
0100
0001
,
0010
0100
1000
0010
0100
0010
1000
0100
0010
0001
0100
0010
1000
0100
0010
0001
,
0100
0010
0100
0001
0010
0001
1000
0100
1000
0010
0100
0001
0100
0010
2000
3001
,
0020
0130
1000
0001
0100
0001
0010
0100
1000
0001
0010
0001
0100
0010
1000
0001
,
0010
0100
1000
0010
0100
0001
0010
0100
1000
0100
0010
0001
0100
0010
1000
0100
,
0010
0001
0100
0010
1000
0010
0100
0001
0010
0100
0010
0001
0100
0010
0100
0001
,
0010
0100
1000
0010
1000
0001
0100
0001
0010
0100
0010
0001
0100
0010
0100
0000
,
0010
0010
1000
0100
0010
0001
0010
0001
,
0100
0010
1000
0001
1000
0100
0010
0001
2000
0000
3000
0000
0000
0000
0001
0000
,
0100
0010
1000
0001
1000
0100
0010
0001
2000
0000
3000
0000
0000
0000
0001
0000
,
1000
0100
0010
0001
0100
0001
1000
0010
1000
0100
1000
0100
0010
0001
1000
0001
,
0100
0010
0100
0010
1000
0001
0010
0001
1000
0010
1000
0010
0100
0001
0010
0100
,
1000
0010
1000
0010
0100
0001
0010
0100
1000
0001
1000
0001
0100
0010
0100
0001
,
0010
0100
0010
0100
1000
0001
1000
0100
0010
0001
0010
0001
0100
0001
1000
0010
,
1000
0100
1000
0100
0010
0001
1000
0001
0100
0010
0100
0010
1000
0100
0010
0001
,
1000
0010
1000
0010
0100
0001
1000
0100
0010
0001
0010
0001
1000
0010
1000
0100
,
0010
0001
1000
0001
0100
0001
1000
0010
1000
0100
0010
0001
0100
0001
0010
0100
,
1000
0010
1000
0001
1000
0100
1000
0001
0100
0010
1000
0001
0100
0001
0010
0100
,
1000
0001
1000
0001
0010
0001
0100
0010
1000
0001
0100
0001
0010
0100
1000
0010
,
0100
0001
0010
0001
1000
0100
0010
0001
0100
0001
1000
0010
1000
0100
0010
0100
,
1000
0010
1000
0001
1000
0100
0010
0001
0100
0001
1000
0010
0100
0010
1000
0001
,
0100
0001
0010
0001
1000
0001
0100
0001
1000
0010
1000
0100
0010
0001
0100
0001
,
0010
0100
1000
0100
0010
0100
1000
0010
0100
0001
0100
0010
0100
0001
0100
0000
,
0001
0000
1000
0000
0100
0000
1000
0001
0000
1000
0000
0000
0000
0100
0010
0000
,
0001
0010
0001
0100
0010
1000
0100
1000
0010
0100
0001
0010
0001
0100
0010
1000
,
0100
0010
0001
0100
0010
0100
0001
0010
0100
1000
0010
0100
0001
0010
0100
1000
,
0010
0100
0010
1000
0100
1000
0001
0010
0001
0100
0010
1000
0010
0100
0002
1003
,
0200
0310
0001
1000
0010
1000
0100
0010
0001
1000
0100
1000
0010
0100
0010
1000
,
0001
0100
0001
0010
0100
1000
0010
1000
0100
0010
0001
0100
0001
0010
0100
1000
,
0010
0100
0001
0010
0100
0010
0001
0100
0010
1000
0100
0010
0001
0100
0010
1000
,
0100
0010
0100
1000
0010
1000
0001
0100
0001
0010
0100
1000
0100
0010
0002
1003
,
0020
0130
0001
1000
0100
1000
0010
0100
0001
1000
0010
1000
0100
0010
0001
1000
,
0010
0100
0001
0010
0100
1000
0010
0100
0001
0100
0010
1000
0100
0010
0001
0100
,
0010
1000
0100
0010
0001
0010
0100
1000
0010
0100
0010
1000
0100
0010
0100
1000
,
0010
0100
0001
0010
0001
1000
0100
1000
0010
0100
0010
1000
0100
0010
0100
0000
,
0010
0010
0001
0100
0010
1000
0010
1000
,
0001
0001
0100
0010
1000
0000
0010
0100
,
0001
0000
0000
0010
0001
0100
0010
1000
0100
1000
0000
0000
,
0010
0000
0100
0001
0000
0000
0010
0000
0100
0000
0010
0000
0100
0000
0010
0000
,
0100
0010
0100
0010
0100
0010
0001
0000
,
1000
1000
0100
0010
0001
0000
0010
0100
,
1000
0000
0000
0010
1000
0100
0010
0001
0100
0001
0000
0000
,
0010
0000
0100
1000
0000
0000
0010
0000
0100
0000
0010
0000
0100
0000
0010
0000
,
0100
0010
0100
0010
0100
0010
1000
0000
,
0001
0010
0100
1000
0010
1000
0001
0010
0001
1000
0100
0010
0001
0100
0001
1000
,
0010
0100
0010
1000
0100
1000
0001
0100
0001
1000
0010
0100
0001
0010
0100
1000
,
0002
0003
0000
0000
0000
0000
0000
0000
,
1001
1001
1001
1001
,
1000
0100
0010
0001
0100
0001
1000
0100
1000
0001
0010
0100
1000
0010
1000
0001
,
0100
0010
0100
0001
0010
0001
1000
0010
1000
0001
0100
0010
1000
0100
0010
0001
,
1000
0010
0100
0001
0010
0001
1000
0010
1000
0001
0100
0010
1000
0100
1000
0001
,
0010
0100
0010
0001
0100
0001
1000
0100
1000
0001
0010
0100
1000
0010
0100
0001
,
1000
0100
0010
0001
0100
0001
1000
0100
1000
0001
0010
0100
1000
0010
1000
0001
,
0100
0010
0100
0001
0010
0001
1000
0010
1000
0001
0100
0010
1000
0100
0010
0001
,
1000
0010
0100
0001
0010
0001
1000
0010
1000
0001
0100
0010
1000
0100
1000
0001
,
0010
0100
0010
0001
0100
0001
1000
0100
1000
0001
0010
0100
1000
0010
0100
0001
,
0010
0100
1000
0001
0010
0100
0010
0001
1000
0010
0100
0001
0010
0001
1000
0010
;
