#TITLE:I Miss You;
#SUBTITLE:(DJ Sharpnel Remix);
#ARTIST:Lia;
#TITLETRANSLIT:;
#SUBTITLETRANSLIT:;
#ARTISTTRANSLIT:;
#CREDIT:;
#BANNER:i miss you bn.png;
#BACKGROUND:i miss you bg.png;
#LYRICSPATH:;
#CDTITLE:;
#MUSIC:I Miss You.ogg;
#OFFSET:-0.709;
#SAMPLESTART:85.689;
#SAMPLELENGTH:16.646;
#SELECTABLE:YES;
#BPMS:0.000=173.000;
#STOPS:;
#BGCHANGES:;
// cache tags:
#FIRSTBEAT:5.000;
#LASTBEAT:771.500;
#SONGFILENAME:Songs/SHARPNELSTREAMZ v2/I Miss You (DJ Sharpnel Remix)/I Miss You.sm;
#HASMUSIC:1;
#HASBANNER:1;
#MUSICLENGTH:274.703;
// end cache tags

//---------------dance-single - 15 (CTalon)----------------
#NOTES:
     dance-single:
     15 (CTalon):
     Challenge:
     15:
     1.000,1.000,0.109,0.266,1.000,2503.000,30.000,73.000,3.000,0.000:
0000
0000
0000
0000
,
0000
000M
00M0
0000
,
0M02
0000
0000
0000
,
2003
0000
0000
0000
,
3020
0000
0000
0000
,
0230
0000
0000
0000
,
0320
0000
0000
0000
,
2030
0000
0000
0000
,
3200
0000
0000
0000
,
0310
0000
0001
0000
1000
0000
0010
0100
0001
0100
0010
1000
0001
0000
1000
0000
,
0001
0010
0100
1000
0100
0010
0001
0010
0100
1000
0100
0010
0001
0010
0100
1000
,
0001
0100
0010
1000
0010
0100
0001
0100
0010
1000
0010
0100
0001
0100
0010
1000
,
0001
0010
0100
1000
0100
0010
0001
0010
0100
1000
0100
0010
0001
0010
0100
1000
,
0001
0100
0010
1000
0010
0100
0001
0100
0010
1000
0010
0100
0001
0100
0010
1000
,
0001
0010
0100
1000
0100
0010
0001
0010
0100
1000
0100
0010
0001
0010
0100
1000
,
0001
0100
0010
1000
0010
0100
0001
0100
0010
1000
0010
0100
0001
0100
0010
1000
,
0001
0010
0100
1000
0100
0010
0001
0010
0100
1000
0100
0010
0001
0010
0100
1000
,
0001
0100
0010
1000
0010
0100
0001
0100
0010
1000
0010
0100
0001
0100
0010
1000
,
0001
0010
0100
1000
0001
0100
0010
1000
0001
1000
0100
1000
0001
0100
0010
1000
,
0001
1000
0001
0010
0100
1000
0100
0010
0100
1000
0001
0100
0010
1000
0100
0010
,
0001
1000
0001
0100
0010
1000
0010
1000
0010
0100
0001
1000
0100
0010
0001
1000
,
0001
0100
0010
0100
0001
1000
0001
0010
0100
0010
0001
1000
0100
1000
0010
0100
,
0001
1000
0001
0010
0100
0010
0100
1000
0001
0100
0001
0100
0010
1000
0001
0010
,
0100
0010
0001
0010
0100
1000
0001
0100
0010
1000
0001
0010
0100
1000
0010
1000
,
0001
1000
0010
0100
0001
1000
0100
0010
0100
1000
0100
0010
0001
1000
0001
1000
,
0010
0100
0001
0100
0001
1000
0100
1000
0001
0010
0100
1000
0010
0100
0010
1000
,
0001
0100
0010
1000
0001
0010
0100
1000
0001
1000
0010
1000
0001
0010
0100
1000
,
0001
1000
0001
0100
0010
1000
0010
0100
0010
1000
0001
0010
0100
1000
0010
0100
,
0001
1000
0001
0010
0100
1000
0100
1000
0100
0010
0001
1000
0010
0100
0001
1000
,
0001
0010
0100
0010
0001
1000
0001
0100
0010
0100
0001
1000
0010
1000
0100
0010
,
0001
1000
0001
0100
0010
0100
0010
1000
0001
0010
0001
0010
0100
1000
0001
0100
,
0010
0100
0001
0100
0010
1000
0001
0010
0100
1000
0001
0100
0010
1000
0100
1000
,
0001
1000
0100
0010
0001
1000
0010
0100
0010
1000
0010
0100
0001
1000
0001
1000
,
0100
0010
0001
0010
0001
1000
0010
1000
0001
0100
0010
1000
0100
0010
0100
1000
,
0001
0000
0100
0000
0010
0000
1000
0100
0010
0001
1000
0001
0100
0000
0010
0000
,
1000
0000
0001
0000
0010
0000
0100
0010
0001
1000
0001
0100
0010
0000
0100
0000
,
0001
0000
1000
0000
0100
0000
0010
0001
0010
0001
1000
0010
1000
0000
0010
0000
,
0100
0000
0001
0000
1000
0000
0100
0010
0001
1000
0001
1000
0010
0000
0100
0000
,
0001
0000
1000
0000
0100
0000
1000
0100
0010
0100
1000
0001
1000
0000
0010
0000
,
0100
0000
0001
0000
0010
0000
0100
1000
0100
1000
0001
0100
0001
0000
0100
0000
,
0010
0000
1000
0000
0100
0000
0010
0001
0010
0100
1000
0001
0100
0000
0010
0000
,
1000
0000
0100
0000
0010
0000
0001
1000
0001
0100
0010
1000
0100
0000
0010
0000
,
0001
0000
1000
0000
0010
0000
0100
0001
0100
0010
1000
0100
0010
0000
0001
0000
,
1000
0000
0001
0000
0100
0000
0010
1000
0100
1000
0001
0100
0001
0000
0010
0000
,
0100
0000
1000
0000
0001
0000
0100
0010
1000
0100
1000
0001
0100
0000
0001
0000
,
0010
0000
0100
0000
1000
0000
0100
0010
0001
1000
0001
0100
0010
1000
0001
0010
,
0002
0003
0000
0000
1000
0000
0000
0000
2001
3000
0000
0000
0002
0003
0000
0000
0100
0000
0000
0000
0020
0030
0000
0000
1010
0000
0000
0000
1000
0000
0000
0000
,
0100
0010
0011
0001
1000
0010
0110
0100
,
0001
1000
1100
0100
0010
0001
1001
1000
,
0010
0100
0101
0001
0010
0100
1100
1000
,
0002
0003
0000
0000
1000
0000
0000
0000
2100
3000
0000
0000
0200
0300
0000
0000
0010
0000
0000
0000
0002
0003
0000
0000
0101
0000
0000
0000
0100
0000
0000
0000
,
0020
0030
0000
0000
1000
0000
0000
0000
1001
0000
0000
0000
0001
0000
0000
0000
0010
0000
0000
0000
0100
0000
0000
0000
0110
0000
0000
0000
0010
0000
0000
0000
,
0002
0003
0000
0000
1000
0000
0000
0000
2001
3000
0000
0000
0002
0003
0000
0000
0100
0000
0000
0000
0020
0030
0000
0000
1010
0000
0000
0000
1000
0000
0000
0000
,
0100
0010
0011
0001
1000
0010
1010
1000
,
0200
0300
0000
0000
0010
0000
0000
0000
0120
0030
0000
0000
0200
0300
0000
0000
1000
0000
0000
0000
0002
0003
0000
0000
0101
0000
0000
0000
0100
0000
0000
0000
,
0001
0010
0110
0100
1000
0001
1001
1000
,
0100
0010
0011
0001
1000
0010
1010
1000
,
0001
1000
1001
0001
0010
0100
1100
1000
,
0001
0100
0110
0010
1000
0100
0110
0010
,
0001
1000
1001
0001
0100
0010
1010
1000
,
0100
0010
0011
0001
1000
0010
0110
0100
,
0001
0010
0100
1000
0001
1000
0010
0100
0001
1000
0100
1000
0100
0010
0001
1000
,
0002
0100
1003
0002
0100
1003
0002
0103
,
0002
0010
1003
0002
0010
1003
0002
0013
,
0002
1000
0103
0002
1000
0103
0002
1003
,
0002
1000
0013
0002
1000
0013
0001
0001
,
2000
0010
3001
2000
0010
3001
2000
3010
,
2000
0100
3001
2000
0100
3001
2000
3100
,
2000
0001
3010
2000
0001
3010
2000
3001
,
2000
0001
3100
2000
0001
3100
1000
1000
,
0002
0100
0013
0002
0100
0013
0002
0103
,
0002
0010
0103
0002
0010
0103
0002
0013
,
0100
1000
0001
1000
0010
0100
0001
1000
0001
0010
0100
0010
0001
1000
0010
0100
,
0010
1000
0001
0010
0100
1000
0100
0010
0001
1000
0001
0100
0010
1000
0001
1000
,
0001
0010
0100
1000
0001
1000
0100
0010
0100
1000
0001
1000
0100
0010
0001
1000
,
0001
0100
0010
1000
0001
0100
0010
0100
0001
1000
0001
1000
0010
1000
0010
0100
,
0001
1000
0100
1000
0001
0010
0001
1000
0100
0010
0100
1000
0001
0010
0100
1000
,
0001
0100
0010
1000
0010
0100
0010
1000
0001
0100
0010
1000
0001
1000
0010
0100
,
0001
1000
0100
0010
0001
1000
0001
0010
0001
1000
0001
0010
0100
1000
0100
1000
,
0001
0100
0010
1000
0001
0100
0001
1000
0010
0100
0010
1000
0001
0100
0010
0100
,
0001
1000
0001
0010
0100
1000
0100
1000
0001
0010
0100
1000
0001
0010
0100
1000
,
0001
1000
0010
0100
0001
0100
0010
1000
0001
1000
0001
0100
0010
1000
0001
0100
,
0001
1000
0100
1000
0001
0010
0100
1000
0100
0010
0100
1000
0001
0010
0100
1000
,
0001
1000
0001
0100
0010
0100
0001
1000
0001
1000
0010
0100
0010
1000
0001
1000
,
0001
0010
0100
0010
0001
0010
0100
1000
0001
1000
0100
0010
0100
1000
0100
0010
,
0001
1000
0010
0100
0010
1000
0001
0100
0001
0100
0010
1000
0010
0100
0001
1000
,
0001
0010
0100
0010
0001
0010
0100
1000
0001
1000
0100
1000
0001
1000
0100
0010
,
0001
1000
0010
0100
0001
1000
0001
0100
0010
0100
0001
1000
0001
0100
0010
1000
,
0001
0010
0001
1000
0100
1000
0100
0010
0100
1000
0100
0010
0001
0010
0100
1000
,
0001
0100
0010
1000
0010
0100
0001
1000
0001
0100
0001
0100
0010
1000
0010
1000
,
0001
0010
0100
1000
0001
0100
0010
1000
0001
1000
0100
1000
0001
0100
0010
1000
,
0001
1000
0001
0010
0100
1000
0100
0010
0100
1000
0001
0100
0010
1000
0100
0010
,
0001
1000
0001
0100
0010
1000
0010
1000
0010
0100
0001
1000
0100
0010
0001
1000
,
0001
0100
0010
0100
0001
1000
0001
0010
0100
0010
0001
1000
0100
1000
0010
0100
,
0001
1000
0001
0010
0100
0010
0100
1000
0001
0100
0001
0100
0010
1000
0001
0010
,
0100
0010
0001
0010
0100
1000
0001
0100
0010
1000
0001
0010
0100
1000
0010
1000
,
0001
1000
0010
0100
0001
1000
0100
0010
0100
1000
0100
0010
0001
1000
0001
1000
,
0010
0100
0001
0100
0001
1000
0100
1000
0001
0010
0100
1000
0010
0100
0010
1000
,
0001
0100
0010
1000
0001
0010
0100
1000
0001
1000
0010
1000
0001
0010
0100
1000
,
0001
1000
0001
0100
0010
1000
0010
0100
0010
1000
0001
0010
0100
1000
0010
0100
,
0001
1000
0001
0010
0100
1000
0100
1000
0100
0010
0001
1000
0010
0100
0001
1000
,
0001
0010
0100
0010
0001
1000
0001
0100
0010
0100
0001
1000
0010
1000
0100
0010
,
0001
0010
0100
1000
0001
0100
0010
1000
0001
1000
0100
1000
0001
0100
0010
1000
,
0001
1000
0001
0010
0100
1000
0100
0010
0100
1000
0001
0100
0010
1000
0100
0010
,
0001
1000
0001
0100
0010
1000
0010
1000
0010
0100
0001
1000
0100
0010
0001
1000
,
0001
0100
0010
0100
0001
1000
0001
0010
0100
0010
0001
1000
0100
1000
0010
0100
,
0001
1000
0001
0010
0100
0010
0100
1000
0001
0100
0001
0100
0010
1000
0001
0010
,
0100
0010
0001
0010
0100
1000
0001
0100
0010
1000
0001
0010
0100
1000
0010
1000
,
0001
1000
0010
0100
0001
1000
0100
0010
0100
1000
0100
0010
0001
1000
0001
1000
,
0010
0100
0001
0100
0001
1000
0100
1000
0001
0010
0100
1000
0010
0100
0010
1000
,
0001
0100
0010
1000
0001
0010
0100
1000
0001
1000
0010
1000
0001
0010
0100
1000
,
0001
1000
0001
0100
0010
1000
0010
0100
0010
1000
0001
0010
0100
1000
0010
0100
,
0001
1000
0001
0010
0100
1000
0100
1000
0100
0010
0001
1000
0010
0100
0001
1000
,
0001
0010
0100
0010
0001
1000
0001
0100
0010
0100
0001
1000
0010
1000
0100
0010
,
0001
1000
0001
0100
0010
0100
0010
1000
0001
0010
0001
0010
0100
1000
0001
0100
,
0010
0100
0001
0100
0010
1000
0001
0010
0100
1000
0001
0100
0010
1000
0100
1000
,
0001
1000
0100
0010
0001
1000
0010
0100
0010
1000
0010
0100
0001
1000
0001
1000
,
0100
0010
0001
0010
0001
1000
0010
1000
0001
0100
0010
1000
0100
0010
0100
1000
,
0002
0000
0000
0000
,
0003
0020
0230
0000
,
2300
0000
3000
0000
0100
0010
0001
2000
,
0000
0000
3000
0000
0010
0100
0001
1000
,
0010
0200
0000
0302
0000
0023
0000
0000
,
0130
2000
3002
0000
,
0203
0000
0300
0000
0010
1000
0100
0020
,
0000
0000
0030
0000
0001
1000
0010
0100
,
0010
2000
0000
3002
0000
0203
0000
0301
,
1000
0200
0320
0000
,
0032
0000
0003
0000
1000
0010
0100
0010
,
2000
0000
0000
0000
0000
3000
0001
0020
,
0000
0000
0000
0000
0000
0000
0000
0030
,
0000
0000
0000
0000
0001
0010
0100
1000
0001
1000
0010
0100
0001
0010
0100
1000
,
0001
1000
0010
0100
0001
1000
0001
0100
0010
1000
0010
0100
0010
1000
0001
1000
,
0001
0010
0100
0010
0001
1000
0100
0010
0100
1000
0100
0010
0001
1000
0100
1000
,
0001
0100
0010
1000
0001
0100
0010
0100
0001
0100
0010
1000
0001
0100
0001
0100
,
0001
1000
0100
0010
0001
0010
0100
1000
0001
0010
0001
1000
0100
0010
0100
1000
,
0001
0100
0010
1000
0010
0100
0010
1000
0001
0100
0001
0100
0010
1000
0010
0100
,
0001
1000
0001
0010
0100
0010
0001
1000
0100
1000
0100
0010
0001
1000
0100
1000
,
0001
0100
0010
1000
0001
0100
0001
0100
0010
1000
0010
0100
0010
1000
0010
0100
,
0001
1000
0100
1000
0001
0010
0100
1000
0100
1000
0001
0010
0100
1000
0100
0010
,
0001
1000
0010
1000
0001
0100
0010
0100
0010
1000
0001
0100
0001
1000
0010
0100
,
0001
1000
0001
0010
0100
0010
0001
1000
0001
0010
0100
1000
0001
1000
0100
0010
,
0001
1000
0010
0100
0001
1000
0010
0100
0010
1000
0001
1000
0010
0100
0010
1000
,
0001
0010
0100
1000
0001
0010
0100
0010
0001
1000
0001
0010
0100
0010
0100
1000
,
0001
1000
0010
0100
0010
1000
0001
0100
0010
0100
0010
1000
0001
0100
0001
1000
,
0001
0010
0100
0010
0001
0010
0100
1000
0001
1000
0100
1000
0001
0010
0001
1000
,
0001
0100
0010
1000
0001
0100
0001
1000
0010
0100
0010
1000
0001
0100
0010
1000
,
0001
0010
0100
1000
0001
0010
0100
1000
0001
1000
0100
0010
0001
1000
0100
0010
,
0001
1000
0010
0100
0001
0010
0001
1000
0010
0100
0001
0010
0001
1000
0010
0100
,
0001
0010
0100
1000
0010
1000
0001
0010
0100
1000
0010
1000
0001
0010
0100
1000
,
0001
0100
0001
1000
0100
0010
0001
0100
0001
1000
0100
0010
0001
0100
0001
1000
,
0001
0010
0100
0010
0001
0100
0001
0010
0100
0010
0001
0100
0001
0010
0100
0010
,
0001
1000
0010
0100
0010
0100
0001
1000
0010
0100
0010
0100
0001
1000
0010
0100
,
0001
0010
0100
1000
0100
1000
0001
0010
0100
1000
0100
1000
0001
0010
0100
1000
,
0001
0100
0001
0100
0010
1000
0001
0100
0001
0100
0010
1000
0001
0100
0001
0100
,
0010
1000
0001
0010
0100
1000
0010
1000
0001
0010
0100
1000
0010
1000
0001
0010
,
0001
1000
0010
0100
0001
0010
0001
1000
0010
0100
0001
0010
0001
1000
0010
0100
,
0001
0010
0100
0010
0100
1000
0001
0010
0100
0010
0100
1000
0001
0010
0100
0010
,
0001
1000
0010
1000
0100
0010
0001
1000
0010
1000
0100
0010
0001
1000
0010
1000
,
0001
0010
0001
1000
0010
0100
0001
0010
0001
1000
0010
0100
0001
0010
0001
1000
,
0001
0010
0100
1000
0010
0100
0001
0010
0100
1000
0010
0100
0001
0010
0100
1000
,
0001
0100
0010
1000
0100
0010
0001
0100
0010
1000
0100
0010
0001
0100
0010
1000
,
0001
0010
0100
1000
0010
0100
0001
0010
0100
1000
0010
0100
0001
0010
0100
1000
,
0010
0100
0001
0010
0100
1000
0010
0100
0001
0010
0100
0010
0001
0100
0010
0100
,
0001
0010
0001
0100
0010
1000
0001
0010
0001
0100
0010
1000
0001
0010
0001
0100
,
0001
1000
0010
1000
0100
1000
0001
1000
0010
1000
0100
1000
0001
1000
0010
1000
,
0001
0100
0001
0010
0100
1000
0001
0100
0001
0010
0100
1000
0001
0100
0001
0010
,
0100
1000
0001
0100
0001
0010
0100
1000
0001
0100
0001
0010
0001
1000
0100
1000
,
0001
0010
0100
1000
0010
0100
0001
0010
0100
1000
0010
0100
0001
0010
0100
1000
,
0001
0100
0010
1000
0100
0010
0001
0100
0010
1000
0100
0010
0001
0100
0010
1000
,
0001
0010
0100
1000
0010
0100
0001
0010
0100
1000
0010
0100
0001
0010
0100
1000
,
0010
0100
0001
0010
0100
1000
0010
0100
0001
0010
0100
0010
0001
0100
0010
0100
,
0001
0010
0001
0100
0010
1000
0001
0010
0001
0100
0010
1000
0001
0010
0001
0100
,
0001
1000
0010
1000
0100
1000
0001
1000
0010
1000
0100
1000
0001
1000
0010
1000
,
0001
0100
0001
0010
0100
1000
0001
0100
0001
0010
0100
1000
0001
0100
0001
0010
,
0100
1000
0001
0100
0001
0010
0100
1000
0001
0100
0001
0010
0001
1000
0100
1000
,
0001
0010
0100
1000
0001
0100
0010
1000
0001
1000
0100
1000
0001
0100
0010
1000
,
0001
1000
0001
0010
0100
1000
0100
0010
0100
1000
0001
0100
0010
1000
0100
0010
,
0001
1000
0001
0100
0010
1000
0010
1000
0010
0100
0001
1000
0100
0010
0001
1000
,
0001
0100
0010
0100
0001
1000
0001
0010
0100
0010
0001
1000
0100
1000
0010
0100
,
0001
1000
0001
0010
0100
0010
0100
1000
0001
0100
0001
0100
0010
1000
0001
0010
,
0100
0010
0001
0010
0100
1000
0001
0100
0010
1000
0001
0010
0100
1000
0010
1000
,
0001
1000
0010
0100
0001
1000
0100
0010
0100
1000
0100
0010
0001
1000
0001
1000
,
0010
0100
0001
0100
0001
1000
0100
1000
0001
0010
0100
1000
0010
0100
0010
1000
,
0001
0100
0010
1000
0001
0010
0100
1000
0001
1000
0010
1000
0001
0010
0100
1000
,
0001
1000
0001
0100
0010
1000
0010
0100
0010
1000
0001
0010
0100
1000
0010
0100
,
0001
1000
0001
0010
0100
1000
0100
1000
0100
0010
0001
1000
0010
0100
0001
1000
,
0001
0010
0100
0010
0001
1000
0001
0100
0010
0100
0001
1000
0010
1000
0100
0010
,
0001
1000
0001
0100
0010
0100
0010
1000
0001
0010
0001
0010
0100
1000
0001
0100
,
0010
0100
0001
0100
0010
1000
0001
0010
0100
1000
0001
0100
0010
1000
0100
1000
,
0001
1000
0100
0010
0001
1000
0010
0100
0010
1000
0010
0100
0001
1000
0001
1000
,
0100
0010
0001
0010
0001
1000
0010
1000
0001
0100
0010
1000
0100
0010
0200
0000
,
0000
0000
0000
0000
0000
0000
0000
0300
;
