#TITLE:Rage On;
#SUBTITLE:;
#ARTIST:Oldcodex;
#TITLETRANSLIT:;
#SUBTITLETRANSLIT:;
#ARTISTTRANSLIT:;
#CREDIT:;
#BANNER:Rage On bn 1.png;
#BACKGROUND:Rage On - bg 1.png;
#LYRICSPATH:;
#CDTITLE:;
#MUSIC:Rage on.ogg;
#OFFSET:-0.286;
#SAMPLESTART:0.140;
#SAMPLELENGTH:12.000;
#SELECTABLE:YES;
#DISPLAYBPM:219.000;
#BPMS:0.000=204.500,4.000=200.080,8.000=207.800,14.000=201.000,16.000=204.500,20.000=203.000,30.000=203.540,38.000=240.000,38.500=338.250,40.000=219.000;
#STOPS:;
#BGCHANGES:;
// cache tags:
#FIRSTBEAT:0.000;
#LASTBEAT:323.000;
#SONGFILENAME:Songs/Jimmy Jawns/Rage On - [Aoreo]/Rage On.sm;
#HASMUSIC:1;
#HASBANNER:1;
#MUSICLENGTH:90.612;
// end cache tags

//---------------dance-single - HEY FUTURE FISH----------------
#NOTES:
     dance-single:
     HEY FUTURE FISH:
     Hard:
     16:
     1.000,1.000,1.000,0.784,0.993,696.000,114.000,71.000,0.000,26.000:
2002
0000
0000
0000
0000
0000
0000
3003
,
0022
0000
0000
0000
0000
0000
0000
0033
,
0220
0000
0000
0000
0000
0000
0000
0330
,
2200
0000
0000
3300
2002
0000
0000
3003
,
0202
0000
0000
0000
0000
0000
0000
0303
,
0220
0000
0000
0000
0000
0000
0000
0330
,
2020
0000
0000
0000
0000
0000
0000
3030
,
0202
0000
0000
0303
2002
0000
0000
0000
,
0000
0000
0000
0000
,
0000
0000
0000
3003
1000
0001
0000
0000
,
2000
0000
3001
0100
0001
0010
0100
0010
,
0001
0000
1000
0000
0010
0000
0100
0000
0001
0000
1000
0000
0220
0000
0000
0330
,
0002
0003
1000
0100
0010
0100
1000
0001
,
0100
0000
0110
0000
1010
0000
1001
0000
0022
0033
0000
0000
0220
0330
0000
0000
,
2200
3300
1000
0001
0100
0010
0100
0001
,
0010
0000
0100
0000
1000
0000
0010
0000
1000
0000
0001
0000
0220
0000
0000
0330
,
2000
3000
0001
0100
0001
0010
0100
1000
,
0001
0101
0110
1010
1001
0000
0101
0101
,
0101
1000
0000
1001
0000
0001
0001
0000
,
1000
0010
1000
0001
0000
0010
0100
1000
,
0001
1000
0000
1100
0000
0100
0100
0000
,
1000
0001
0100
0001
0000
0010
0100
1000
,
0000
0001
0000
1001
0000
1000
1000
0000
,
0001
1000
0001
0010
0000
0100
1000
0010
,
0100
0001
0000
0101
0000
0100
0100
0000
,
0001
0010
0100
1000
0000
0001
0100
0010
,
0000
0100
0000
1101
0000
0101
1001
0000
,
1010
0010
1001
0101
0100
0001
0011
0010
,
0100
1100
0000
1101
0000
0001
0101
0000
,
0110
0010
1001
1100
0100
1000
1010
0010
,
0100
0110
0000
1101
0000
0001
1001
0000
,
1010
0010
0100
0101
0001
0010
0110
0100
,
1000
0001
0000
0101
0000
0100
0100
0000
,
0001
0100
0001
0010
0000
0100
1000
0001
,
0000
1001
0001
1100
1000
1010
0110
0100
,
0101
0000
0001
0000
1010
0000
0100
0000
2222
3333
0000
0000
2222
3333
0000
0000
,
1000
1001
0001
0011
0110
1100
1001
0001
,
0101
0000
0100
0000
1010
0000
0010
0000
2222
3333
0000
0000
2222
3333
0000
0000
,
0000
1001
1000
0101
0001
1110
1000
0001
,
0010
0000
0001
0000
1000
0000
0010
0000
2222
3333
0000
0000
2222
3333
0000
0000
,
0000
1001
1000
0011
0010
1100
1001
0001
,
0100
0001
1000
0001
0010
0100
1000
0010
0200
0000
0000
0000
0301
1000
0001
0010
,
0100
1000
0001
0000
1000
0000
0001
0000
0100
0000
1010
0000
0100
0000
0001
0000
,
1000
0110
0010
0001
1000
0110
1000
0100
,
0010
0011
1000
0010
0100
0101
0010
0100
,
1000
0011
0100
0010
1000
0110
0001
1000
,
0010
0110
0001
1000
0100
0010
0001
1000
,
0010
1101
0100
0010
0001
1101
0010
0100
,
0001
0111
1000
0010
1000
0111
0001
1000
,
0010
1101
0010
1000
0100
0111
0001
1000
,
0010
1101
0001
0100
0001
0010
0100
1000
,
0001
1110
0100
0010
0001
1110
0100
1000
,
0001
1110
0100
1000
0010
0100
0001
0010
,
0100
0000
1000
0000
0010
0000
0100
0000
0001
1000
0100
0000
0010
0000
0001
0000
,
1000
1110
0010
0100
0001
1000
0100
0010
,
0001
0111
1000
0010
1000
1110
0010
0100
,
0001
0110
1000
0110
0001
0110
1000
0110
,
0001
1000
0100
0000
0110
0000
0011
0000
1001
0000
1010
0000
0110
0000
1001
0000
,
1000
0100
0010
0001
1000
0100
0010
0001
1000
0100
0010
0001
1000
0100
0010
0001
1000
0100
0010
0001
1000
0100
0010
0001
1000
0100
0010
0001
1000
0100
0001
0000
,
1000
0010
0100
0010
1000
0001
1000
0100
0010
0001
1000
0010
0100
0010
1000
0001
,
1000
0100
0010
0001
1000
0001
0100
0010
0100
0001
1000
0001
0010
0100
1000
0001
,
1000
0100
0010
0001
1000
0010
0100
0010
1000
0001
1000
0100
0010
0001
1000
0010
,
0100
0010
1000
0001
0010
0100
0010
0001
0100
0001
1000
0010
0100
0010
1000
0001
,
1000
0100
0010
0001
1000
0001
0100
0010
0100
0001
1000
0001
0010
0100
0010
0001
,
1000
0010
1000
0001
1000
0100
0010
0001
1000
0001
0100
0010
0100
0001
1000
0001
,
0010
0100
1000
0001
0100
0010
0100
0001
1000
0100
0010
0100
1000
0001
0100
0001
,
1000
0100
0010
0001
1000
0100
0010
0001
1000
0100
0010
0001
1000
0100
0010
0001
1000
0100
0010
0001
1000
0100
0010
0001
1000
0100
0010
0001
1000
0000
0001
0000
,
0100
0010
0100
0001
1000
0100
0010
0100
1000
0001
0100
0010
0100
0001
1000
0010
,
1000
0001
0100
0001
0010
0100
0010
0100
1000
0001
1000
0010
0100
0010
1000
0001
,
1000
0100
0010
0100
1000
0001
0100
0001
1000
0010
0100
0010
1000
0001
1000
0100
,
0010
0001
1000
0001
0100
0010
0100
0001
1000
0001
0010
0100
1000
0001
1000
0010
,
0100
0010
1000
0001
1000
0100
0010
0001
1000
0010
0100
0001
0100
0010
1000
0001
,
1000
0100
0010
0001
1000
0001
0100
0010
0100
0001
1000
0100
0010
0100
1000
0001
,
0100
0010
0100
0001
1000
0100
0010
0001
1000
0010
0100
0010
1000
0001
0010
0100
,
1000
0001
1000
0000
0000
0000
0001
0000
0100
0000
0020
0000
0030
0000
1000
0000
,
0100
0000
0000
0000
1000
0000
0001
0000
0010
0001
0100
0000
0001
0000
1000
0000
,
0010
1010
1000
0100
0010
0011
0001
1000
,
0010
0110
0100
0001
0010
0220
0000
0330
,
2222
0000
3333
0000
1000
0001
1000
0001
1000
0001
1000
0001
1000
0001
1000
0001
,
2220
0000
3330
0000
1000
0001
1000
0001
1000
0001
1000
0001
1000
0001
1000
0001
,
2220
0000
0000
3330
;

//---------------dance-single - J. Nero----------------
#NOTES:
     dance-single:
     J. Nero:
     Challenge:
     15:
     1.000,1.000,0.519,0.938,0.828,665.000,47.000,85.000,0.000,7.000:
2002
0000
0000
0000
0000
0000
0000
3003
,
0022
0000
0000
0000
0000
0000
0000
0033
,
0220
0000
0000
0000
0000
0000
0000
0330
,
2200
0000
0000
3300
2002
0000
0000
3003
,
0202
0000
0000
0000
0000
0000
0000
0303
,
0220
0000
0000
0000
0000
0000
0000
0330
,
2020
0000
0000
0000
0000
0000
0000
3030
,
0202
0000
0000
0303
2002
0000
0000
0000
,
0000
0000
0000
0000
,
0000
0000
0000
3003
1000
0001
0000
0000
,
2000
0000
3001
0100
0001
0010
0100
0010
,
0001
0000
1000
0000
0010
0000
0100
0000
0001
0000
1000
0000
0220
0000
0000
0330
,
0002
0003
1000
0100
0010
0100
1000
0001
,
0200
0300
0002
0003
0020
0030
0200
0300
2200
3300
0000
0000
2002
3003
0000
0000
,
0202
0303
0100
0001
0100
0010
0100
0001
,
0010
0000
0100
0000
1000
0000
0010
0000
1000
0000
0001
0000
0220
0000
0000
0330
,
2000
3000
0001
0100
0001
0010
0100
1000
,
0002
0003
0020
0030
0200
0300
2000
3000
2002
3003
0000
0000
0001
0000
0100
0000
,
0001
1000
0000
1001
0000
0001
0001
0000
,
1000
0010
1000
0001
0000
0010
0100
1000
,
0001
1000
0000
1100
0000
0100
0100
0000
,
1000
0001
0100
0001
0000
0010
0100
1000
,
0000
0001
0000
1001
0000
1000
1000
0000
,
0001
1000
0001
0010
0000
0100
1000
0010
,
0100
0001
0000
0101
0000
0100
0100
0000
,
0001
0010
0100
1000
0000
0001
0100
0010
,
0000
0100
0000
0001
0000
0010
0100
0000
,
1000
0010
1000
0001
0100
0001
0010
0100
,
0000
1000
0000
0001
0000
0100
0010
0000
,
1000
0100
1000
0001
0100
0010
1000
0100
,
0010
0100
0000
1000
0000
0001
1000
0000
,
0010
1000
0100
0010
0100
1000
0001
0100
,
0010
1000
0000
0101
0000
0001
0001
0000
,
1000
0100
0010
0100
0000
1000
0001
0100
,
0000
0101
0001
0010
0100
1000
0010
0100
,
0010
0000
1000
0000
0001
0000
1000
0000
2222
3333
0000
0000
2222
3333
0000
0000
,
0001
0100
0001
0010
0100
1000
0010
0100
,
0001
0000
1000
0000
0010
0000
1000
0000
2222
3333
0000
0000
2222
3333
0000
0000
,
0000
0001
1000
0100
1000
1001
0001
0100
,
0001
0000
0010
0000
0100
0000
1000
0000
2222
3333
0000
0000
2222
3333
0000
0000
,
0000
0001
1000
0010
0100
0010
1000
0001
,
0100
0001
1000
0001
0010
0100
1000
0010
0200
0000
0000
0000
0301
1000
0001
0010
,
0100
1000
0001
0000
1000
0000
0001
0000
0100
0000
0020
0000
0130
0000
0001
0000
,
1000
0200
0310
0001
1000
0020
1030
0100
,
0010
0002
1003
0010
0100
0002
0013
0100
,
1000
0020
0130
0010
1000
0200
0310
0100
,
1000
0020
0130
0001
1000
0010
0100
0001
,
0010
0110
0100
1000
0001
0101
0100
0010
,
1000
1100
0100
0010
0001
1001
1000
0010
,
0100
0101
0001
1000
0100
0110
0010
0001
,
1000
1001
0001
0100
0010
1000
0100
0010
,
0001
1001
1000
0010
0100
0101
0001
0010
,
0100
1100
1000
0010
0100
0001
1000
0100
,
0010
0001
1000
0010
0100
0001
0010
0001
,
1000
1010
0010
0100
0001
1000
0100
0010
,
0001
1001
1000
0010
0100
0101
0001
1000
,
0100
0010
0001
0100
0010
0100
0001
0010
,
0100
1000
0001
0000
1000
0000
0010
0000
0100
0000
0010
0000
1000
0000
0001
0000
,
1000
0100
0010
0001
0100
0010
1000
0100
0010
0001
0100
0010
1000
0100
0010
0001
,
1000
0010
0100
0010
1000
0001
1000
0100
0010
0001
1000
0010
0100
0010
1000
0001
,
1000
0100
0010
0001
1000
0001
0100
0010
0100
0001
1000
0001
0010
0100
1000
0001
,
1000
0100
0010
0001
1000
0010
0100
0010
1000
0001
1000
0100
0010
0001
1000
0010
,
0100
0010
1000
0001
0010
0100
0010
0001
0100
0001
1000
0010
0100
0010
1000
0001
,
1000
0100
0010
0001
1000
0001
0100
0010
0100
0001
1000
0001
0010
0100
0010
0001
,
1000
0010
1000
0001
1000
0100
0010
0001
1000
0001
0100
0010
0100
0001
1000
0001
,
0010
0100
1000
0001
0100
0010
0100
0001
1000
0100
0010
0100
1000
0001
0100
0001
,
1000
0100
1000
0010
0100
0001
0010
0001
0100
0010
1000
0100
1000
0010
0100
0001
,
0010
0100
1000
0001
1000
0100
0010
0100
1000
0001
0100
0010
0100
0001
1000
0010
,
1000
0001
0100
0001
0010
0100
0010
0100
1000
0001
1000
0010
0100
0010
1000
0001
,
1000
0100
0010
0100
1000
0001
0100
0001
1000
0010
0100
0010
1000
0001
1000
0100
,
0010
0001
1000
0001
0100
0010
0100
0001
1000
0001
0010
0100
1000
0001
1000
0010
,
0100
0010
1000
0001
1000
0100
0010
0001
1000
0010
0100
0001
0100
0010
1000
0001
,
1000
0100
0010
0001
1000
0001
0100
0010
0100
0001
1000
0100
0010
0100
1000
0001
,
0100
0010
0100
0001
1000
0100
0010
0001
1000
0010
0100
0010
1000
0001
0010
0100
,
1000
0001
1000
0000
0000
0000
0001
0000
0100
0000
0020
0000
0030
0000
1000
0000
,
0100
0000
0000
0000
1000
0000
0001
0000
0010
0001
0100
0000
0001
0000
1000
0000
,
0010
1010
1000
0100
0010
0011
0001
1000
,
0010
0110
0100
0001
0010
0220
0000
0330
,
2222
0000
3333
0000
1000
0001
1000
0001
1000
0001
1000
0001
1000
0001
1000
0001
,
0200
0000
0300
0000
0001
1000
0001
1000
0001
1000
0001
1000
0001
1000
0001
1000
,
0200
0000
0000
0300
;
