#TITLE:Xuxa;
#SUBTITLE:EXoduz Violation;
#ARTIST:☺;
#TITLETRANSLIT:;
#SUBTITLETRANSLIT:;
#ARTISTTRANSLIT:Smiley;
#CREDIT:;
#BANNER:../Banner.png;
#BACKGROUND:../Background.png;
#LYRICSPATH:;
#CDTITLE:;
#MUSIC:Xuxa.ogg;
#OFFSET:-0.009;
#SAMPLESTART:12.000;
#SAMPLELENGTH:12.920;
#SELECTABLE:YES;
#BPMS:0.000=160.000;
#STOPS:96.000=0.375
,97.000=0.375
,310.000=0.375
,311.000=0.375
;
#BGCHANGES:;
// cache tags:
#FIRSTBEAT:8.000;
#LASTBEAT:317.000;
#SONGFILENAME:Songs/EXoduz Violation/Xuxa/Xuxa.sm;
#HASMUSIC:1;
#HASBANNER:1;
#MUSICLENGTH:121.359;
// end cache tags

//---------------dance-single - C. Foy----------------
#NOTES:
     dance-single:
     C. Foy:
     Challenge:
     15:
     1.000,1.000,0.396,0.082,1.000,1127.000,48.000,10.000,0.000,4.000:

0000
0000
0000
0000
,
0000
0000
0000
0000
,
0100
0000
0000
0100
0000
0000
1000
0000
1100
0000
0000
0100
0000
0000
0010
0000
,
0001
1000
0001
1000
0001
1000
0001
1000
0001
1000
0001
1000
0001
1000
0001
1000
,
0001
0010
0100
1000
0001
0100
0010
1000
,
0100
0010
0001
0100
0010
1000
0100
0010
,
0001
1000
0100
0010
0001
0100
0010
1000
,
0001
0000
1000
0000
0000
0001
1001
0000
,
1000
0001
0100
0001
0100
0001
0010
0100
1000
0010
0100
0010
0100
0001
0010
0100
1000
0100
1000
0001
0100
0010
0000
0000
,
0000
0000
1001
0000
0000
0000
0110
0000
0010
1000
0000
0001
0110
0000
1010
0000
,
0001
0010
0100
1000
0100
0010
0001
0010
0001
0100
0010
1000
0001
0100
0010
1000
0010
1000
0100
0010
0001
0010
0000
0000
,
1100
0000
0100
0010
0000
0000
0001
0000
1000
0001
0100
0010
1000
0001
0100
0010
,
1000
0100
0010
0001
1000
0100
0010
0100
0010
0001
0010
0001
0010
0100
1000
0001
0100
0010
0100
0010
0100
0010
0000
0000
,
1100
0000
0000
0010
1000
0000
0001
0000
0110
0000
0000
0000
0110
0000
0000
0000
,
1000
0010
1000
0010
1000
0100
1000
0100
0010
0100
0010
0100
0010
0001
0010
0001
0010
0001
0100
0010
1000
0001
0000
0000
,
0110
0000
0000
1000
0100
0000
0010
0000
0001
0000
1000
0100
0000
0010
0100
0000
,
1000
0001
1000
0001
1000
0100
0010
0001
1000
0100
0010
0001
0010
0001
0010
0001
0010
0100
1000
0001
0010
0100
0000
0000
,
1000
0001
1000
0001
0010
0100
0010
0100
1000
0001
0100
0010
1000
0001
0100
0000
,
0100
0001
1000
0010
0100
0001
0010
0100
1000
0001
0010
0001
0010
0001
0010
0100
0010
0100
0010
0100
0010
0100
0000
0000
,
1000
0001
0100
0010
0100
0010
0100
0010
0100
0001
0010
0100
1000
0001
0010
0000
,
1000
0001
1000
0001
1000
0010
0100
0001
0010
0100
1000
0001
0010
0100
1000
0100
1000
0100
1000
0100
1000
0100
0000
0000
,
0001
1000
0010
1000
0010
1000
0100
0010
0001
1000
0100
1000
0100
0010
0001
0000
,
1000
0001
1000
0001
0010
0100
1000
0100
1000
0001
0010
0100
1000
0001
0100
0010
1000
0010
1000
0010
1000
0100
0000
0000
,
1000
0001
0100
0010
1000
0001
0100
0010
0100
0010
0100
1000
0001
0010
0100
0000
,
1011
0000
0000
0000
0000
0000
0000
0000
0111
0000
0000
0000
0000
0000
0000
0000
1001
0000
0000
0000
0000
0000
0000
0000
0100
0010
0100
0010
0100
0010
0100
0010
,
0100
0000
0000
0000
1100
0000
0000
0000
0001
1000
0001
1000
0001
1000
0100
0010
,
0001
0100
0010
1000
0001
1000
0001
0100
0010
1000
0100
1000
0100
0010
0100
0010
,
0001
0010
0001
1000
0001
1000
0010
0100
0001
0010
0100
1000
0001
0100
0010
1000
,
0100
0010
0001
0010
0001
0010
0001
1000
0001
1000
0100
0010
0001
1000
0100
0010
,
0001
1000
0001
1000
0010
0100
0010
0100
0001
0010
0100
1000
0001
0010
0100
1000
,
0010
0100
0001
0010
0100
1000
0001
0010
0100
1000
0100
1000
0100
0010
0100
1000
,
0100
0010
0100
1000
0100
0010
0001
0010
0001
0010
0100
1000
0001
0100
0010
0100
,
0010
0100
0001
1000
0010
0100
0001
0010
0100
1000
0001
1000
0001
0010
0100
1000
,
0100
0000
0000
0010
0000
0000
0100
0000
0000
0010
0000
0000
0001
0000
0000
1000
0000
0000
0100
0000
0000
0010
0000
0000
0001
0000
0010
0000
0100
0000
1000
0000
0100
0000
1000
0000
0010
0000
0100
0000
0001
0000
0010
0000
0001
0000
0010
0000
,
0100
0010
0100
1000
0001
0010
0100
1000
0001
1000
0001
1000
0010
1000
0010
0100
0001
0010
0100
1000
0100
1000
0100
0010
,
0100
0010
0001
1000
0100
0010
0001
1000
0001
1000
0000
0000
0110
0000
0000
1000
0001
1000
0001
0010
0100
1000
0001
0010
,
0100
1000
0100
1000
0100
0010
0100
1000
0100
0010
0001
1000
0100
0010
0001
1000
0001
1000
0001
0010
0100
1000
0010
0100
,
0001
0010
0001
0010
0100
0010
0100
1000
0100
0010
0000
0000
1100
0000
0000
1000
0001
1000
0001
1000
0001
0100
0010
1000
,
0100
0010
0001
0010
0001
0010
0100
1000
0001
0010
0100
1000
0001
0100
0010
0100
0010
0100
0010
0100
0001
0010
0100
1000
,
0001
0000
0010
0000
0100
0000
1000
0000
0100
0000
1000
0000
0100
0000
1000
0000
0100
0000
1000
0000
0000
0000
0000
0000
0220
0000
0000
0000
0000
0000
0000
0000
0000
0000
0000
0000
0000
0000
0000
0330
0000
0000
0220
0000
0000
0000
0000
0000
,
0000
0000
0000
0000
0000
0000
0000
0000
0000
0000
0000
0000
0000
0000
0000
0330
,
2200
0000
0000
3300
2200
0000
0000
3300
1001
0000
0100
0000
0010
0000
0001
0000
,
1000
0000
0000
0000
0000
0000
0100
0000
0000
1000
0000
0000
0100
0000
0000
0000
0000
0000
0000
0000
0000
0100
1000
0100
,
1000
0000
0000
0000
0000
0000
0110
0000
0000
0000
0000
0000
1000
0001
0100
0010
1000
0001
0100
0010
0100
0010
0100
0010
,
0100
0000
0000
0000
0000
0000
1000
0000
0000
0000
0000
0000
1000
0001
1000
0001
1000
0001
1000
0001
1000
0001
1000
0001
,
1000
0000
0000
0000
0110
0100
0011
0100
,
1010
0000
0000
0000
0000
0000
1001
0000
0000
1001
0000
0000
1001
0000
0000
0000
0000
0000
0000
0000
0000
0100
1000
0100
,
1000
0000
0000
0000
1100
0000
0000
0000
0001
1000
0010
0100
0001
1000
0010
0100
,
0001
1000
0010
0100
0001
1000
0010
0100
0001
1000
0010
0100
0001
1000
0010
0100
,
0001
1000
0010
0100
0001
0000
0000
0000
1001
0000
0000
0000
0110
0000
0000
0000
,
0011
0000
1100
0000
0110
0000
0000
1100
,
1100
1010
0110
1001
,
1001
0000
0000
0000
0110
0000
0000
0000
1000
0100
0010
0001
1000
0100
0010
0001
,
4000
0000
0000
0000
0000
0000
0000
0000
3001
0010
0100
1000
0001
1000
0001
1000
,
0010
0100
0001
0010
0100
1000
0100
0010
0100
1000
0100
0010
0001
1000
0001
1000
,
0010
0100
0001
0010
0001
0010
0100
0010
0100
1000
0010
0100
0010
0100
0010
0100
,
0001
0010
0001
0010
0100
1000
0001
0100
0010
1000
0001
0100
0010
1000
0100
0010
,
0001
1000
0100
1000
0100
0010
0001
1000
0001
1000
0001
0010
0100
1000
0001
0010
,
0100
0010
0100
1000
0001
0100
0010
1000
0001
1000
0001
1000
0100
0010
0001
0100
,
0001
0100
0001
0010
0100
1000
0100
1000
0100
1000
0001
0100
0010
1000
0001
0100
,
0010
0100
0010
1000
0100
0010
0001
1000
0100
0010
0001
1000
0100
0010
0001
1000
,
0001
0000
0000
1000
0000
0000
0001
0000
0000
1000
0000
0000
0001
0000
0000
0000
0000
0000
0000
0000
0000
0000
0000
0000
1000
0000
0001
0000
1000
0000
0001
0000
1000
0000
0100
0000
1000
0000
0100
0000
1000
0000
0010
0000
1000
0000
0010
0000
,
1000
0010
1000
0100
1000
0010
1000
0100
1000
0010
0000
0000
0110
0000
0000
0000
0000
0000
0010
0000
0000
1000
0000
0000
,
0010
0000
0000
0000
0000
0000
0000
0000
0000
0100
0000
0000
1000
0000
0000
0000
0000
0000
0001
0000
0000
0000
0000
0000
1000
0000
0100
0000
0010
0000
0001
0000
1000
0000
0100
0000
0010
0000
0001
0000
1000
0000
0100
0000
0010
0000
0001
0000
,
1000
0000
0100
0000
0010
0000
0001
0000
1000
0000
0100
0000
0010
0000
0001
0000
1000
0000
0100
0000
0000
0000
0000
0000
1000
0000
0000
0001
0000
0000
0100
0000
0000
0010
0000
0000
0100
0000
0000
0010
0000
0000
0100
0000
0000
0001
0000
0000
,
0010
0000
0000
0100
0000
0000
1000
0000
0000
0001
0000
0000
1000
0000
0000
0001
0000
0000
0010
0000
0000
0000
0000
0000
1000
0000
0001
0000
1000
0000
0001
0000
1000
0000
0001
0000
1000
0000
0001
0000
1000
0000
0001
0000
1000
0000
0001
0000
,
1000
0000
0001
0000
1000
0000
0001
0000
1000
0000
0001
0000
1000
0000
0001
0000
1000
0000
0001
0000
0000
0000
0000
0000
0001
0000
0000
0010
0000
0000
0100
0000
0000
0010
0000
0000
0001
0000
0000
0010
0000
0000
0100
0000
0000
0010
0000
0000
,
0001
0000
0000
0010
0000
0000
0100
0000
0000
0010
0000
0000
0001
0000
0000
0010
0000
0000
0100
0000
0000
0000
0000
0000
1000
0000
0001
0000
1000
0000
0001
0000
1000
0000
0010
0000
1000
0000
0100
0000
0010
0000
0001
0000
1000
0000
0100
0000
,
0010
0000
0001
0000
0010
0000
0001
0000
0010
0000
0001
0000
0010
0000
0001
0000
0010
0000
0001
0000
0000
0000
0000
0000
1000
0000
0000
0001
0000
0000
0100
0000
0000
0010
0000
0000
1000
0000
0000
0001
0000
0000
0100
0000
0000
0010
0000
0000
,
0100
0000
0000
0010
0000
0000
0100
0000
0000
1000
0000
0000
0100
0000
0000
0010
0000
0000
0001
0000
0000
0000
0000
0000
1000
0000
0010
0000
1000
0000
0100
0000
1000
0000
0001
0000
1000
0000
0010
0000
1000
0000
0100
0000
1000
0000
0001
0000
,
1000
0000
0010
0000
1000
0000
0100
0000
1000
0000
0001
0000
1000
0000
0010
0000
1000
0000
0100
0000
0000
0000
0000
0000
1000
0000
0000
0001
0000
0000
1000
0000
0000
0001
0000
0000
0010
0000
0000
0100
0000
0000
1000
0000
0000
0001
0000
0000
,
0010
0000
0000
0100
0000
0000
0010
0000
0000
0100
0000
0000
1000
0000
0000
0001
0000
0000
0010
0000
0000
0000
0000
0000
0100
0000
0010
0000
0100
0000
0010
0000
0100
0000
1000
0000
0001
0000
0010
0000
0100
0000
0010
0000
0100
0000
0010
0000
,
0100
0000
1000
0000
0001
0000
0010
0000
0100
0000
0010
0000
0100
0000
0010
0000
0100
0000
0010
0000
0000
0000
0000
0000
1000
0000
0000
0001
0000
0000
1000
0000
0000
0001
0000
0000
0100
0000
0000
0010
0000
0000
0100
0000
0000
1000
0000
0000
,
0001
0000
0000
0010
0000
0000
0100
0000
0000
1000
0000
0000
0001
0000
0000
0010
0000
0000
0100
0000
0000
0000
0000
0000
1000
0000
0100
0000
1000
0000
0001
0000
0010
0000
0001
0000
1000
0000
0100
0000
1000
0000
0001
0000
0010
0000
0001
0000
,
1000
0000
0100
0000
1000
0000
0001
0000
0010
0000
0001
0000
1000
0000
0100
0000
1000
0000
0001
0000
0000
0000
0000
0000
0100
0000
0000
1000
0000
0000
0100
0000
0000
0010
0000
0000
0001
0000
0000
1000
0000
0000
0001
0000
0000
1000
0000
0000
,
0010
0000
0000
0100
0000
0000
0010
0000
0000
0100
0000
0000
1000
0000
0000
0001
0000
0000
1000
0000
0000
0000
0000
0000
0001
0000
0010
0000
0100
0000
1000
0000
0001
0000
1000
0000
0001
0000
1000
0000
0100
0000
0010
0000
0100
0000
0010
0000
,
0001
0000
0010
0000
0001
0000
0010
0000
0001
0000
0010
0000
0100
0000
0010
0000
0100
0000
0010
0000
0000
0000
0000
0000
1000
0000
0000
0001
0000
0000
0100
0000
0000
0010
0000
0000
0100
0000
0000
0010
0000
0000
0100
0000
0000
0010
0000
0000
,
0001
1000
0010
0100
0001
1000
0010
0000
1100
0000
0000
0000
1110
0000
0000
0000
,
1111
0000
0000
0000
0000
0000
0000
0000
1000
0100
1000
0100
1000
0100
1000
0100
1000
0000
0000
0000
0000
0000
0000
0000
0220
0000
0000
0000
0000
0000
0000
0000
,
0000
0330
0000
0000
;

//---------------dance-double - M. Emirzian----------------
#NOTES:
     dance-double:
     M. Emirzian:
     Easy:
     4:
     0.253,0.324,0.058,0.049,0.000,202.000,7.000,6.000,0.000,0.000:
00000000
00000000
00000000
00000000
,
00000000
00000000
00000000
00000000
,
00000000
00000000
00000000
00000000
,
00000000
00000000
00000000
00000000
,
10010000
00000000
01100000
00000000
,
00101000
00000000
00010000
00000100
,
00001001
00000000
00000110
00000000
,
00001010
00000000
00000000
00000100
,
00000100
00000010
00001000
00000000
,
00000100
00000010
00000001
00000000
,
00000010
00000100
00001000
00000000
,
00000010
00010000
00001000
00000000
,
00010000
00001000
01000000
00000000
,
00100000
10000000
00010000
00000000
,
00100000
01000000
10000000
00000000
,
01000000
00100000
00010000
00100000
,
01000000
10000000
00010000
10000000
,
00010000
00100000
00001000
00000000
,
00010000
00001000
00010000
00001000
,
00000010
00000001
00000010
00000000
,
00000100
00000010
00000100
00001000
,
00000100
00010000
00001000
00000000
,
00001000
01000000
00001000
01000000
,
00010000
10000000
00100000
01000000
,
00020000
20030000
30020000
00000000
,
00000000
00030000
00010000
00000000
,
01000000
00000000
00100000
10000000
,
01000000
00000000
00010000
00000000
,
00001000
00000000
00000010
00000001
,
00001000
00000000
00000010
00000000
,
00000100
00000000
00000001
00000100
,
00001000
00000000
00010000
00000000
,
00001000
00000000
01000000
00100000
,
10000000
00000000
00010000
00000000
,
00100000
00000000
01000000
10000000
,
00010000
00000000
00100000
00000000
,
00001000
00000000
00010000
00001000
,
00010000
00000010
00001000
00000000
,
00000100
00000000
00000010
00000001
,
00000010
00000100
00001000
00000000
,
00000001
00000000
00000100
00001000
,
00010000
00001000
00000100
00000000
,
00000000
00000000
00000001
00000000
,
00000000
00000000
00001000
00000000
,
00000000
00000000
00010000
00000000
,
00000000
00000000
10000000
00000000
,
00010000
00000000
01000000
01000000
,
01000000
00000000
00100000
00000000
,
10000000
00000000
00010000
00010000
,
00010000
00000000
00100000
00001000
,
00010000
00000000
00000100
00000100
,
00000100
00000000
00000010
00000001
,
00000010
00000000
00000100
00000100
,
00001100
00000000
00010000
00000000
,
00000000
00000000
00001000
00000000
,
00000000
00000000
01000000
00000000
,
00000000
00000000
00100000
00000000
,
00000000
00000000
10000000
01000000
,
00100000
00000000
00001000
00001000
,
00001000
00000000
00010000
00000010
,
00001000
00000000
00000100
00000100
,
00000100
00000000
00000010
00000001
,
00000010
00000000
00000100
00001000
,
00000100
00000000
00000010
00000001
,
00000100
00000000
00000010
00010000
,
00001000
00000000
00001000
01000000
,
00100000
00000000
01000000
00010000
,
00100000
00000000
01000000
10000000
,
01000000
00000000
00100000
00010000
,
00100000
00000000
00001000
00000000
,
00010000
00000000
00000100
00001000
,
00000010
00000100
00000001
00000000
,
00001000
00000000
00000100
00000010
,
00000001
00000010
00000100
00000000
,
00010000
00000000
00001000
01000000
,
00010000
01000000
00100000
00000000
,
10000000
00000000
00100000
01000000
,
00010000
01000000
00002000
00023000
,
00032000
00000000
00000000
00003000
;

//---------------dance-double - M. Emirzian----------------
#NOTES:
     dance-double:
     M. Emirzian:
     Medium:
     5:
     0.370,0.422,0.107,0.297,0.000,265.000,13.000,36.000,0.000,0.000:
00000000
00000000
00000000
00000000
,
00000000
00000000
00000000
00000000
,
00000000
00000000
00000000
00000000
,
00000000
00000000
00000000
00000000
,
01000000
00100000
10000000
00100000
,
01000000
00001000
00010000
00000010
,
00001000
00000010
00000100
00000001
,
00000010
00000200
00000000
00000000
,
00001300
00000000
00000010
00001000
00000010
00000000
00000100
00000000
,
00001000
00010000
00002000
00000000
,
00013000
00000000
01000000
00100000
01000000
00000000
10000000
00000000
,
00010000
01000000
00200000
00000000
,
10300000
00000000
01000000
00100000
01000000
00000000
10000000
00000000
,
00010000
01000000
00002000
00000000
,
00013000
00000000
00000100
00001000
00000100
00000000
00000010
00000000
,
00000001
00000100
00000020
00000000
,
00010030
00000000
00001000
00000000
01000000
00010000
01000000
00000000
,
00100000
10000000
00100000
00000000
02000000
00000000
00000000
00000000
,
03010000
00000000
00100000
00000000
01000000
10000000
01000000
00000000
,
00100000
00010000
00100000
00000000
00002000
00000000
00000000
00000000
,
00013000
00000000
00000100
00000000
00001000
00000010
00001000
00000000
,
00000001
00000100
00000001
00000000
00000020
00000000
00000000
00000000
,
00000130
00000000
00001000
00000000
00000001
00000010
00000001
00000000
,
00001000
00000100
00001000
00000000
00000020
00000000
00000000
00000000
,
00020030
00032000
02003000
00000000
,
00000000
03000000
00010000
10000000
,
01000000
00000000
00100000
00010000
02000000
00000000
00000000
00000000
,
03100000
10000000
00100000
00010000
,
00001000
00000000
00010000
00000100
00002000
00000000
00000000
00000000
,
00003010
00000100
00000001
00000010
,
00000100
00000000
00001000
00000001
00000200
00000000
00000000
00000000
,
00001300
00010000
00001000
00000100
,
00001000
00000000
00010000
00001000
02000000
00000000
00000000
00000000
,
03200000
00000000
10300000
00010000
,
10000000
00000000
00010000
00000000
00100000
00001000
00010000
00000000
,
00020020
00030030
00000010
00001000
,
00000010
00000000
00000100
00000000
00000001
00000010
00000100
00000000
,
00002002
00003003
00000100
00000010
,
00001000
00000000
00000100
00000000
00010000
00001000
01000000
00000000
,
02020000
03030000
00100000
10000000
,
00100000
00000000
01000000
00000000
00010000
00100000
01000000
00000000
,
22000000
33000000
10010000
00000000
,
00000000
00000000
00010000
00000000
,
00000000
00000000
00001000
00000000
,
00000000
00000000
00000010
00000000
,
00000000
00000000
00000100
00000010
,
00000001
00000000
00000010
00000000
,
00000100
00000000
00010000
00001000
,
01000000
00000000
00100000
00000000
,
10000000
00000000
01010000
01000000
,
00010000
00000000
00101000
00100000
,
00001000
00000000
00010010
00010000
,
00000010
00000000
00001000
00000000
00000100
00000010
00000000
00000001
,
00001001
00000000
00000100
00000000
,
00000000
00000000
00001000
00000000
,
00000000
00000000
00010000
00000000
,
00000000
00000000
01000000
00000000
,
00000000
00000000
10000000
00100000
,
01000000
00010000
00100000
01000000
,
10000000
00000000
00100000
01000000
00001000
00000000
00000000
00000000
,
00011000
00000000
00010010
00000000
,
00000110
00000000
00001001
00000000
00000010
00000000
00000100
00001000
,
00000100
00000010
00000001
00000010
,
00000200
00000000
00000000
00000000
00010300
00000000
00001000
00010000
,
00001000
01000000
00100000
10000000
,
02000000
00000000
00000000
00000000
03100000
00000000
00010000
01000000
,
00010000
10000000
01000000
00010000
,
00002000
00000000
00000000
00000000
00013000
00000000
00000010
00001000
,
00000010
00000100
00000001
00000010
,
00000200
00000000
00001300
00000010
,
00000100
00000001
00000100
00000000
00000010
00001000
00000010
00000000
,
00020000
00000000
00031000
01000000
,
00010000
01000000
00010000
00000000
10000000
00100000
10000000
00000000
,
02000000
00000000
03100000
00001000
,
00010000
00001000
00010000
00000000
00000100
00001000
00000100
00000000
,
00000020
00000000
00000031
00000100
,
00000010
00001000
00000010
00000000
00000100
00000001
00000100
00000000
,
00000020
00000000
00020030
00032000
,
02003000
00000000
00000000
03000000
;

//---------------dance-double - M. Emirzian----------------
#NOTES:
     dance-double:
     M. Emirzian:
     Hard:
     9:
     0.572,0.552,0.354,0.165,0.062,423.000,43.000,20.000,8.000,0.000:
00000000
00000000
00000000
00000000
,
00000000
00000000
00000000
00000000
,
00000000
00000000
00000000
00000000
,
00000000
00000000
00000000
00000000
,
00001000
00000100
00000010
00001000
,
00000010
00000000
00000100
00000000
00000001
00000000
00001000
00000100
,
00010100
00001000
01000000
00010000
,
01001000
00000000
00000000
00000000
10010000
00000000
00000000
00000000
M00M0000
00000000
01000000
10000000
01000000
00000000
01000000
10000000
,
01000000
00100000
00010000
00000000
01000000
00100000
10000000
00100000
,
01000000
00010000
00100000
00001000
00000000
00010000
00000010
00001000
,
00000010
00000100
00000001
00000000
00000010
00000100
00001000
00000100
,
00000010
00000001
00000000
00000100
00000010
00010000
00000010
00001000
,
00000100
00010000
01000000
00000000
10000000
00100000
10000000
00010000
,
01000000
00100000
10000000
01000000
00100000
00000000
00010000
00100000
,
01000000
00010000
00001000
00000000
00010000
00000100
00001000
00000010
,
00010000
00000010
00001000
00000100
00000010
00000001
00000010
00000000
,
00000100
00001000
00001001
00000000
00000010
00010000
00001000
01000000
,
00100000
10000000
01100000
00000000
00010000
01000000
01001000
00000000
,
00100000
00010000
10010000
00000000
00100000
01000000
00010000
01000000
,
00001000
00010000
00011000
00000000
00010000
00000100
00001100
00000000
,
00001000
00000010
00000110
00000000
00000001
00000100
00000010
00001000
,
00000010
00000100
00000101
00000000
00000010
00001000
00010010
00000000
,
00001000
00010000
01001000
00000000
00010000
01000000
00100000
10000000
,
00100000
01000000
10010000
00000000
10000000
01000000
00200000
00000000
,
00302000
00003020
00000032
00000000
,
00000000
00000000
00000003
00000000
00000100
00000010
00001000
00000000
,
00001100
00000000
00010000
00020000
00000000
00031000
01000000
00010000
,
00100000
01000000
10000000
00000000
01000000
00100000
00010000
00000000
,
01010000
00000000
00001000
00002000
00000000
00013000
00000010
00000100
,
00000001
00000100
00000010
00000000
00001000
00000100
00000010
00000000
,
00001001
00000000
00000100
00000200
00000000
00001300
00010000
00100000
,
10000000
00100000
01000000
00000000
00010000
01000000
00100000
00000000
,
10100000
00000000
01000000
02000000
00000000
03100000
00010000
00100000
,
01000000
00000000
10000000
00000000
00010000
00000000
00000000
00000000
00011000
00000000
00000000
00000000
00010000
00000010
00000000
00000000
,
00000010
00000100
00000000
00000000
00000100
00000001
00000000
00000000
00000010
00000000
00000010
00000000
00000010
00000000
00000000
00000000
,
00000100
00000000
00001000
00000000
00000010
00000000
00001000
00000000
00001001
00000000
00000000
00000000
00000010
00010000
00000000
00000000
,
00010000
00001000
00000000
00000000
00001000
01000000
00000000
00000000
00010000
00000000
00010000
00000000
00010000
00000000
00000000
00000000
,
01000000
00000000
00100000
00000000
10000000
00000000
00100000
00000000
10010000
00000000
00000000
00000000
00100000
00001000
00000000
00000000
,
00001000
00010000
00000000
00000000
00010000
00000100
00000000
00000000
00001000
00000000
00001000
00000000
00001000
00000000
00000000
00000000
,
00000010
00000000
00001000
00000000
00000100
00000000
00000010
00000000
00000011
00000000
00000000
00000000
00000100
00000010
00000000
00000000
,
00000010
00010000
00000000
00000000
00010000
00001000
00000000
00000000
01000000
00000000
01000000
00000000
01000000
00000000
00000000
00000000
,
00010000
01000000
00100000
10000000
01100000
00000000
00000000
00000000
,
00020000
00000000
00000000
00000000
00230000
000M0000
00000000
00000000
,
00300000
00000000
00002000
00000000
,
00003200
0000M000
00000000
00000000
00000302
00000M00
00000000
00000000
,
00000003
000000M0
00000010
00000100
,
00001000
00000100
00000010
00000001
,
00000100
00000000
00000010
00010000
00001010
00000000
00000100
00000000
,
00010000
00000000
00000000
00001000
00000000
00000000
01000000
00000000
00010000
00000000
00000000
00000000
00010000
00000000
00100000
00000000
,
01000000
10000000
01000000
00000000
00110000
00000000
01000000
00100000
,
10000000
00000000
10000000
00100000
01000000
00000000
00010000
01000000
,
00001000
00010000
00000010
00000000
00001100
00000000
00000010
00000001
,
00000010
00000000
00000100
00001000
00000100
00000110
00000000
00001001
,
00000200
00000000
00010300
00010000
,
00001000
00001000
02000000
00000000
,
03100000
0M000000
10000000
10000000
,
01000000
01000000
00200000
00000000
,
00310000
00M00000
00100000
01000000
,
10000000
01000000
00100000
00001000
,
00010000
00000000
00000100
00001000
00010100
00000000
00000000
00000000
,
00001001
00000000
00011000
10010000
,
10000000
00100000
10000000
01000000
10000000
00100000
01000000
00000000
,
00010000
00100000
01000000
10000000
01000000
00100000
00001000
00010000
,
00000000
00000010
00001000
00000010
00000100
00000001
00000010
00000000
,
00000100
00001000
00000100
00000010
00000001
00000100
00000000
00000010
,
00010000
00001000
00000100
00001000
00010000
00100000
01000000
00000000
,
00010000
01000000
00100000
10000000
00100000
01000000
00010000
00100000
,
01000000
00000000
10000000
00100000
01000000
00001000
00010000
00000000
,
00000010
00001000
00000010
00000100
00000001
00000010
00000000
00000100
,
00001000
00000100
00000010
00000001
00000100
00000010
00001010
00000000
,
00010000
00001000
00100000
01000000
10000000
00100000
01100000
00000000
,
00010000
01000000
01001000
00000000
00010000
00001000
00010010
00000000
,
00001000
00000100
00000010
00000001
00000010
00000100
00001001
00000000
,
00000010
00001000
00010010
00000000
00001000
01000000
01010000
00000000
,
00100000
01000000
00010000
00100000
01000000
10000000
10010000
00000000
,
00100000
01000000
01001000
00000000
00010000
00001000
00010100
00000000
,
00001000
00000100
00000010
00000001
00000100
00000010
00001001
00000000
,
00000010
00000100
00020000
00000000
00230000
00000000
20300000
00000000
,
32000000
00000000
00000000
03000000
;

//---------------dance-double - M. Emirzian----------------
#NOTES:
     dance-double:
     M. Emirzian:
     Challenge:
     9:
     0.685,0.682,0.865,0.173,0.144,456.000,105.000,21.000,34.000,3.000:
00000000
00000000
00000000
00000000
,
00000000
00000000
00000000
00000000
,
00000000
00000000
00000000
00000000
,
00000000
00000000
00000000
00000000
,
00010000
00000000
00001000
00000000
01000000
00100000
10000000
00100000
,
01000000
00000000
00010000
00000000
00100000
00000000
01100000
00110000
,
10010000
00000000
10000000
01000000
00100000
00000000
00001000
00010000
,
00011000
00000000
00000000
00000000
00001001
00000000
00000000
00000000
0000M00M
00000000
00000010
00000001
00000010
00000000
00000010
00000001
,
00000010
00000000
00000100
00001000
00000100
00000000
00000010
00000001
00000010
00000000
00000001
00000000
00000100
00000000
00001000
00000000
,
00100000
00010000
01000000
10010000
00000000
11000000
00110000
00000000
,
01000000
00000000
00100000
10000000
00100000
00000000
01000000
00010000
01000000
00000000
00010000
00000000
00100000
00000000
00101000
00000000
,
00000000
00010010
00000000
00001100
00000010
00000100
00000001
00000100
,
00000010
00000000
00001000
00000100
00001000
00000000
00000010
00000100
00000010
00000000
00010000
00000000
00100000
00000000
01100000
00000000
,
00000000
01001000
00000000
00110000
11000000
00000000
10010000
00100000
,
00010000
00000000
01000000
00100000
01000000
00000000
00010000
10000000
00010000
00000000
00100000
00000000
00001000
00000000
01001000
00000000
,
00000000
00000000
00110000
00000000
00000000
00010100
00000000
00000000
00001000
00000000
00000100
00000000
00000010
00000000
00000001
00000000
,
00000010
00000100
00010000
00000010
00000100
00000010
00001000
00000001
,
00000100
00000010
00001010
00000000
00010100
00000000
00011000
01001000
,
01010000
00100000
01000000
10000000
01000000
00100000
00001000
00010000
,
00100000
01000000
01001000
00000000
00110000
00000000
11000000
10010000
,
00110000
01000000
00100000
00010000
00100000
00001000
00000100
00000010
,
00001000
00000010
00000110
00000000
00001001
00000000
00000011
00001001
,
00000110
00000100
00001000
00000100
00000010
00000001
00000100
00001000
,
00100000
00010000
01100000
00000000
10010000
00000000
01100000
11000000
,
10010000
M00M0000
00011000
000MM000
00001001
0000M00M
00000001
00000100
,
00000020
00000000
00000030
000000M0
00001000
00000100
00000010
00000001
,
00000010
00000000
00000100
00001100
00000000
00000010
00000100
00000001
,
00000010
00000100
00001000
00000100
00010000
00100000
00010000
00001000
,
01000000
00100000
10000000
10010000
00000000
01000000
00100000
00010000
,
00100000
01000000
10000000
00100000
01000000
00001000
00100000
00010000
,
00100000
01000000
10000000
01100000
00000000
01000000
00100000
00010000
,
00100000
00001000
00000010
00001000
00010000
00000000
00000010
00000100
,
00001001
00000000
00000010
00000100
00001001
00000000
00000100
00000010
,
00001000
00000000
00000010
00000000
00000100
00000000
00000001
00000000
00000010
00000000
00000000
00000000
00000100
00001000
00000000
00000000
,
00000010
00010000
00000000
00000000
00001000
01000000
00000000
00000000
00010000
00000000
00100000
00000000
01000000
00000000
10000000
00000000
,
01000000
00000000
00100000
00000000
10010000
00000000
00000000
00000000
01010000
00000000
00000000
00000000
00100000
01000000
00000000
00000000
,
00001000
00010000
00000000
00000000
00000010
00000100
00000000
00000000
00000001
00000000
00000010
00000000
00000100
00000000
00001000
00000000
,
00000100
00000000
00000010
00000000
00001001
00000000
00000000
00000000
00000011
00000000
00000000
00000000
00000100
00000010
00000000
00000000
,
00010000
00001000
00000000
00000000
00100000
01000000
00000000
00000000
10000000
00000000
00100000
00000000
01000000
00000000
00100000
00000000
,
10000000
00000000
00010000
00000000
01100000
00000000
00000000
00000000
11000000
00000000
00000000
00000000
00100000
01000000
00000000
00000000
,
00001000
00010000
00000000
00000000
00000010
00000100
00000000
00000000
00000001
00000000
00000100
00000000
00000010
00000000
00001000
00000000
,
00000010
00000100
00000001
00000101
00000200
00000000
00000000
00000000
,
00000302
00000M00
00000000
00000000
00000023
0000000M
00000000
00000000
,
00000130
00001000
00000020
00000000
,
00020030
000000M0
00000000
00000000
00031000
00000000
00100000
00000000
,
10010000
M00M0000
01000000
20000000
,
00200000
00000000
00000000
00000000
00000000
00000000
00000000
00000000
00010000
00000000
00000000
30300000
00000000
00000000
00000000
00000000
00010000
00000000
00000000
00000000
00000000
00000000
00000000
00000000
00001000
00000000
00000000
00000000
00000000
00000000
00000000
00000000
,
00000100
00000000
00000001
00001100
00001001
00000000
00000002
00000000
,
00000200
00000000
00000000
00000000
00000000
00000000
00000000
00000000
00001000
00000000
00000000
00000303
00000000
00000000
00000000
00000000
00001000
00000000
00000000
00000000
00000000
00000000
00000000
00000000
00010000
00000000
00000000
00000000
00000000
00000000
00000000
00000000
,
00100000
00000000
10000000
10100000
10010000
00000000
00100000
00000000
,
01010000
00001000
00011000
00000100
,
00001000
00000001
00001001
00011000
,
10010000
00000000
00100000
00000000
01010000
00100000
00000000
01000000
,
10100000
00000000
02000000
00000000
,
03002000
0M000000
00000000
00000000
00023000
0000M000
00000000
00000000
,
00030020
000M0000
00000000
00000000
00002030
000000M0
00000000
00000000
,
00003200
0000M000
00000000
00000000
00000320
00000M00
00000000
00000000
,
00000032
000000M0
00000000
00000000
00000203
00000000
00002000
00000000
,
00010000
00000000
00000000
00003300
00000000
00000000
00000000
00000000
00010000
00000000
00000000
00000000
00000000
00000000
00000000
00000000
01000000
00000000
00000000
00000000
00000000
00000000
00000000
00000000
10000000
00000000
00000000
00000000
00000000
00000000
00000000
00000000
,
00100000
00000000
00000000
00000000
01000000
00000000
01010000
00000000
10010000
00000000
00000000
M00M0000
00000000
00000000
00000000
00000000
,
00001010
00000000
00000000
0000M0M0
00000000
00000000
00000000
00000000
01010000
00000000
00000000
0M0M0000
00000000
00000000
00000000
00000000
,
00010000
00001000
00010000
00001000
00010000
00000000
00000100
00000000
00001000
00000000
00000100
00000010
00000100
00000000
00000010
00000001
,
00000010
00000100
00010000
00000100
00000010
00000001
00000100
00001001
,
00000000
00000000
00001100
00000000
00010100
00000000
00000000
00000000
00001000
00000000
01000000
00010000
01000000
00000000
00100000
01000000
,
00100000
10000000
01000000
10010000
00000000
01100000
00000000
00101000
,
00010000
01000000
00100000
00010000
00100000
00001000
00000100
00001000
,
00010000
00000010
00001000
00000110
00000000
00000011
00000000
00001100
,
00010100
00000000
00000000
00000000
00001010
00000000
00000100
00000000
00000010
00000000
00000001
00000100
00000001
00000000
00001000
00000010
,
00001000
00000000
00000100
00000000
00010000
00000000
00011000
00000000
00000000
00000000
00101000
00000000
00000000
01100000
00000000
00000000
,
01000000
10000000
01000000
00100000
00010000
01000000
00001000
00100000
,
00010000
10000000
01000000
00100000
00001000
00010000
00101000
00000000
,
00011000
00000000
00010010
00001010
00001001
00000010
00000100
00000001
,
00000100
00000010
00001000
00000100
00000010
00000100
00001001
00000000
,
00010100
00000000
00011000
00101000
01010000
00100000
01000000
10000000
,
01000000
00100000
00010000
01000000
00100000
10000000
01100000
00000000
,
10010000
00000000
00110000
00101000
00011000
00010000
00000010
00001000
,
00000100
00000010
00000100
00010000
00000010
00001000
00001001
00000000
,
00000110
00000000
00000011
00000110
00001001
0000M00M
00011000
000MM000
,
10010000
M00M0000
01000000
00010000
00002000
00000000
00003000
0000M000
;

//---------------lights-cabinet - ----------------
#NOTES:
     lights-cabinet:
     :
     Easy:
     1:
     0.643,0.649,0.799,0.025,0.070,432.000,97.000,3.000,0.000,7.000:

000000
000000
000000
000000
,
000000
000000
000000
000000
,
000000
000000
000000
000000
,
000000
000000
000000
000000
,
100000
000000
000100
000000
010000
001000
100000
000000
,
000100
000000
010000
000000
001000
010000
000100
100000
,
000100
000000
100000
000000
000100
010000
001000
000000
,
100100
111100
000000
111100
,
000000
100100
000000
011000
000000
100100
000000
011000
,
000000
100100
000000
011000
000000
100100
000000
011000
,
000000
100100
000000
011000
000000
100100
000000
011000
,
000000
100100
000000
100100
000000
011000
000000
100100
,
000000
110000
000000
001100
000000
110000
000000
001100
,
000000
101000
000000
010100
000000
101000
000000
010100
,
000000
011000
000000
100100
000000
011000
000000
100100
,
011000
000000
111100
000000
100000
010000
001000
000100
,
100000
000100
010000
001000
100000
000100
001000
010000
,
100000
000100
100000
001000
010000
001000
100000
000000
,
010000
000100
100000
000100
001000
010000
100000
000100
,
010000
000000
001000
000000
100000
000100
010000
000000
,
000100
001000
010000
100000
001000
010000
000100
001000
,
010000
100000
001000
010000
000000
010000
001000
000000
,
100000
000100
010000
000100
001000
000100
100000
001000
,
010000
000000
001000
000000
100000
000100
100000
000100
,
110000
000000
001100
000000
100100
000000
011000
100100
,
111100
000000
000011
000000
100000
001000
010000
000000
,
000100
010000
001000
000000
100000
001000
010000
000100
,
010000
001000
100000
000000
000100
010000
001000
000000
,
100000
001000
010000
000000
000100
100000
001000
010000
,
000100
010000
000100
000100
100000
001000
010000
000000
,
000100
010000
001000
000000
100000
001000
010000
000100
,
010000
001000
100000
000000
000100
010000
001000
000000
,
100000
001000
010000
000000
000100
100000
001000
010000
,
000100
000000
010000
000000
000100
000000
000000
000000
100000
001000
100000
000000
000100
000000
000000
000000
,
100000
001000
100000
000000
000100
000000
000000
000000
100000
000000
001000
000000
010000
000000
000100
000000
,
010000
000000
001000
000000
100000
000000
000000
000000
000100
010000
000100
000000
100000
000000
000000
000000
,
000100
010000
000100
000000
100000
000000
000000
000000
000100
000000
010000
000000
001000
000000
100000
000000
,
001000
000000
010000
000000
000100
000000
000100
000000
100000
010000
100000
000000
001000
000000
000000
000000
,
100000
010000
100000
000000
001000
000000
000000
000000
010000
000000
001000
000000
100000
000000
000100
000000
,
010000
001000
010000
000000
000100
000000
000000
010000
,
000000
000000
000000
000000
000100
100000
001000
010000
,
011000
011000
100000
001100
,
100000
011000
100000
001100
,
001100
000000
000100
110000
,
001000
110000
000100
110000
,
220000
000000
000000
000000
330100
001000
010000
100000
,
010000
001000
000100
000100
001000
010000
100000
010000
,
200000
000000
300100
000000
100000
010000
001000
000100
,
001000
010000
100000
010000
001000
000100
001000
010000
,
100100
011000
100000
001100
,
000100
110000
100000
011000
,
011000
000000
000000
000000
100000
000100
001100
000000
,
000100
100000
110000
000000
100000
001000
000000
011000
,
100100
000000
000000
000000
000000
000000
000000
000000
100000
000000
000000
000100
000000
000000
010000
000000
,
001000
000000
000000
100000
000000
000000
000100
000000
010000
000000
000000
001000
000000
000000
100000
000000
,
000100
000000
010000
000000
001000
000000
100000
000000
000100
000000
000000
010000
000000
000000
001000
000000
,
100000
000000
000000
001000
000000
000000
010000
000000
000100
000000
000000
100000
000000
000000
001000
000000
,
100000
010000
100000
000100
100000
000000
000100
000000
,
010000
001000
100000
000000
000100
000000
010000
000000
,
001000
010000
000100
100000
110000
000000
000000
000000
,
001100
000000
100100
000000
,
100000
010000
001000
000100
001000
010000
100000
000000
000000
000000
100100
000000
000000
000000
011000
000000
,
000000
100100
000000
011000
000000
100100
000000
011000
,
000000
100100
000000
011000
000000
100100
000000
011000
,
000000
100100
000000
011000
000000
100100
000000
100100
,
000000
011000
000000
100100
000000
110000
000000
001100
,
000000
110000
000000
001100
000000
101000
000000
010100
,
000000
101000
000000
010100
000000
011000
000000
100100
,
000000
011000
000000
100100
011000
000000
111100
000000
,
100000
010000
001000
000100
000100
100000
001000
010000
,
000100
100000
010000
001000
000100
100000
000100
010000
,
001000
010000
100000
010000
001000
100000
000100
100000
,
010000
001000
000100
100000
001000
000000
010000
000000
,
000100
100000
001000
100000
000100
001000
010000
100000
,
001000
010000
000100
001000
010000
100000
001000
010000
,
001000
010000
001000
100000
000100
100000
001000
100000
,
010000
100000
000100
010000
001000
000000
100000
000000
,
000100
010000
001000
100000
110000
000000
001100
000000
,
100100
000000
000000
000000
100000
000100
100000
000100
100000
000000
000000
000000
111111
000000
000000
000000
;
