#TITLE:Koi Wa Sensou;
#SUBTITLE:;
#ARTIST:Yuni-P;
#TITLETRANSLIT:;
#SUBTITLETRANSLIT:;
#ARTISTTRANSLIT:;
#CREDIT:;
#BANNER:koi-bn.jpg;
#BACKGROUND:koi-bg.jpg;
#LYRICSPATH:;
#CDTITLE:;
#MUSIC:koi wa sensou.ogg;
#OFFSET:0.020;
#SAMPLESTART:98.037;
#SAMPLELENGTH:12.000;
#SELECTABLE:YES;
#BPMS:0.000=206.000;
#STOPS:;
#BGCHANGES:;
// cache tags:
#FIRSTBEAT:30.000;
#LASTBEAT:479.000;
#SONGFILENAME:Songs/Speedcore Rejects/Koi Wa Sensou- [Cave]/koi wa sensou.sm;
#HASMUSIC:1;
#HASBANNER:1;
#MUSICLENGTH:140.898;
// end cache tags

//---------------dance-single - Cave----------------
#NOTES:
     dance-single:
     Cave:
     Challenge:
     13:
     1.000,1.000,0.291,0.064,0.749,944.000,41.000,9.000,0.000,0.000:

0000
0000
0000
0000
,
0000
0000
0000
0000
,
0000
0000
0000
0000
,
0000
0000
0000
0000
,
0000
0000
0000
0000
,
0000
0000
0000
0000
,
0000
0000
0000
0000
,
0000
0000
1001
0000
,
1000
0010
0100
0001
1000
0010
0100
0010
,
1000
0000
0001
0000
0010
0000
0100
0000
0010
0000
0001
0000
1000
0100
1000
0100
,
0010
0001
1000
0010
0100
0001
1000
0100
,
1000
0000
0001
0000
0010
0000
0100
0000
0010
0000
0001
0000
0100
0010
0100
0010
,
1000
0001
1000
0010
0100
0001
0010
0100
,
0010
0000
0001
0000
1000
0000
0010
0000
0100
0000
0010
0000
1000
0001
1000
0001
,
0100
0000
0010
0000
0100
0000
0001
0000
1000
0001
0100
0010
1000
0100
0010
0001
,
0100
0010
1000
0001
1000
0010
1000
0010
0100
0000
0000
0000
0000
0000
0000
0000
,
0001
1000
0100
0010
0001
1000
0010
0010
,
0001
0000
1000
0000
0001
0000
0010
0000
0100
0000
1000
0000
0010
0100
0010
0100
,
0001
1000
0010
0100
0001
1000
0010
0010
,
0001
0000
1000
0000
0100
0000
0010
0000
0001
0000
0100
0000
0010
1000
0001
1000
,
0001
1000
0010
0100
0001
0010
0100
0100
,
0001
0000
1000
0000
0100
0000
0010
0000
0001
0000
1000
0000
0001
0100
0001
0100
,
0010
0000
0100
0000
0001
0000
1000
0000
0010
0000
1000
0001
1000
0001
0100
0000
,
0001
0010
0001
0010
0100
0000
1000
0010
1000
0010
0200
0000
0301
0010
0001
0010
,
0100
1000
0010
0100
0001
1000
0010
0010
,
0001
0000
0100
0000
0010
0000
0100
0000
0001
0000
1000
0000
0100
0010
0100
0010
,
0001
1000
0100
1000
0001
0100
0010
0010
,
0001
0000
1000
0000
0100
0000
0010
0000
0100
0000
2000
0000
3001
0100
0010
0100
,
0001
1000
0010
0100
0001
1000
0100
0010
0001
0100
0010
0100
0010
1000
0001
0010
,
0001
1000
0100
1000
0001
0010
0100
0010
0001
1000
0010
0100
0001
1000
0100
0010
,
0001
1000
0100
0010
0001
1000
0001
0100
0010
1000
0100
1000
0100
0010
0001
0100
,
0010
0100
0001
1000
0100
1000
0001
0010
0001
0000
1000
0000
0010
0000
0100
0000
,
0101
0001
1000
0100
,
0010
0000
0001
0000
0100
0000
0010
0100
,
0010
1000
0001
0100
,
0010
0000
1000
0000
0001
0000
1000
0001
,
1000
0010
0100
0010
,
1000
0000
0100
0000
1000
0000
0001
1000
,
0001
0100
0010
1000
,
0001
0000
0000
0000
1000
0000
0000
0000
0010
0000
0000
0000
1000
0001
1000
0001
,
0100
0100
0001
0001
,
0100
0010
1000
0100
0010
0001
1000
0100
1000
0010
0100
0001
1000
0001
0100
0010
,
1000
1100
1001
0101
,
0001
0100
0010
1000
0100
0010
0001
0100
0010
1000
0001
1000
0001
0100
0001
1000
,
0001
0101
1001
1100
,
1000
0001
0100
0010
1000
0001
0100
0001
1000
0100
0010
0001
1000
0010
0100
0001
,
1000
1100
1001
0101
,
0001
1000
0010
1000
0100
1000
0010
0100
0010
1000
0001
1000
0010
0100
0001
1000
,
0010
1000
0100
0010
0001
1000
0010
0010
,
0001
0000
1000
0000
0001
0000
0010
0000
0100
0000
1000
0000
0010
1000
0010
1000
,
0100
1000
0010
0100
0001
1000
0010
0010
,
0001
0000
1000
0000
0100
0000
0010
0000
0001
0000
0100
0000
0010
1000
0001
1000
,
0001
1000
0010
0100
0001
0010
0100
0100
,
0001
0000
1000
0000
0100
0000
0010
0000
0001
0000
1000
0000
0100
0010
0100
0010
,
0001
0100
0010
1000
0001
1000
0100
0100
,
0001
0000
0010
0000
0100
0000
1000
0000
0010
0000
0200
0000
0301
1000
0001
1000
,
0100
1000
0010
0100
0001
1000
0010
0010
,
0001
0100
0010
0100
0001
1000
0010
0010
,
0001
1000
0100
1000
0001
0100
0010
0010
,
0001
0000
1000
0000
0100
0000
1000
0000
0010
0000
0200
0000
0301
0100
0010
0100
,
0001
1000
0010
0100
0001
1000
0100
0010
0001
0100
0010
0100
0010
1000
0001
0010
,
0001
1000
0100
1000
0001
0010
0100
0010
0001
1000
0010
0100
0001
1000
0100
0010
,
0001
1000
0100
0010
0001
1000
0001
0100
0010
1000
0100
1000
0100
0010
0001
0100
,
0010
0100
0001
1000
0100
1000
0001
0010
0002
0000
0000
0000
0000
0000
0003
0000
,
1001
0000
1100
0000
,
0101
0000
0101
0110
,
1010
0000
0011
0000
,
0110
0000
0110
0011
,
1001
0000
1100
0000
,
1010
0000
1010
1100
,
1001
0000
0101
0000
,
1100
0000
0000
0000
0000
0000
0000
0000
1100
0000
0000
0000
0001
1000
0001
1000
,
0010
0110
0101
1100
,
1001
0000
0000
0000
1001
0000
0000
0000
1010
0000
0000
0000
0101
0000
0100
0010
,
0100
0001
1000
0010
0100
0001
1000
0100
,
0010
0001
1000
0010
0100
0001
0100
0100
,
0010
1000
0001
0100
0010
0010
1000
1000
,
1001
0000
0110
0000
0101
0000
0001
0001
,
1000
0010
0100
0001
1000
0100
1000
0100
0010
0001
0010
0001
1000
0010
0100
0001
,
2000
3000
0002
0003
,
0001
0000
1000
0100
1000
0000
1000
0001
,
0100
0010
1000
0001
1000
0000
1000
0100
,
0010
0001
0100
0010
0100
0000
0100
0001
,
1000
0100
0010
0001
0010
0000
0010
0001
,
1000
0010
0100
0001
0100
0000
0100
0010
,
1000
0001
0010
0100
0010
0000
0010
0001
,
1000
0010
0100
0001
0100
0000
0100
0010
,
1000
0000
0001
0000
0100
0000
0010
0000
0100
0000
0000
0000
0001
0010
0001
0010
,
0100
0000
1000
0000
0010
0000
0100
0001
0100
0010
1000
0000
0010
0000
0100
0001
,
0010
0100
0010
0000
0100
0000
1000
0001
1000
0010
0100
0000
0010
0000
0100
0001
,
1000
0100
1000
0000
0100
0000
0010
0001
1000
0010
0100
0000
0010
0000
1000
0010
,
1000
0001
0010
0000
0001
0000
1000
0010
0100
0001
0100
0000
0010
1000
0010
1000
,
0001
0000
0000
0000
1001
0000
1000
0010
0100
0000
0001
0100
0010
0000
1000
0001
,
0010
0000
0100
0010
0001
0000
1000
0010
0100
0000
0001
1000
0100
0000
0010
0001
,
0100
0000
0001
1000
0010
0000
1000
0100
0010
0000
0001
1000
0100
0000
1000
0010
,
0100
0000
0001
1000
0010
0000
1000
0001
0010
0000
0001
1000
0010
0100
0010
0100
,
0001
1000
0100
0010
0001
1000
0010
0010
,
0001
1000
0001
0010
0100
1000
0010
0010
,
0100
1000
0010
0100
0001
1000
0010
0010
,
0001
0000
1000
0000
0100
0000
0010
0000
0001
0000
0100
0000
0010
1000
0001
1000
,
0001
1000
0010
0100
0001
0010
0100
0100
,
0001
0000
1000
0000
0100
0000
0010
0000
0001
0000
1000
0000
0100
0010
0100
0010
,
0001
0100
0010
1000
0001
1000
0100
0100
,
0001
0000
0010
0000
0100
0000
1000
0000
0010
0000
0200
0000
0301
0010
0001
0010
,
0100
1000
0010
0100
0001
1000
0010
0010
,
0001
0000
0100
0000
0010
0000
0100
0000
0001
1000
0010
0100
0001
0010
0001
0010
,
0100
1000
0010
1000
0001
0100
0100
1000
,
0001
1000
0100
0010
0001
0200
0300
0010
,
1000
0010
0100
0010
1000
0001
0100
0100
,
1000
0001
0010
0100
1000
0100
1000
0001
0100
0010
0100
0001
1000
0100
0010
0100
,
1000
0010
0100
0001
1000
0100
1000
0001
0010
0001
1000
0100
0010
0001
0010
0001
,
0100
0010
1000
0001
0010
0100
1000
0100
1000
0001
0010
0001
1000
0010
0100
0001
,
1000
0000
0001
0000
,
0010
0000
0100
0100
,
1000
0000
0001
0000
,
0100
0000
0010
0010
,
1000
0000
0001
0000
,
0010
0000
0100
0100
,
1000
0000
0010
0000
,
0100
0000
0001
0001
;
