#TITLE:Fascination Maxx;
#SUBTITLE:;
#ARTIST:Calli & Juice's MaxX Overdrive Mix;
#TITLETRANSLIT:;
#SUBTITLETRANSLIT:;
#ARTISTTRANSLIT:;
#CREDIT:;
#BANNER:FaxxCJlogo.png;
#BACKGROUND:FaxxCJbg.png;
#LYRICSPATH:;
#CDTITLE:;
#MUSIC:FaxxCJ.mp3;
#OFFSET:-0.024;
#SAMPLESTART:36.312;
#SAMPLELENGTH:11.920;
#SELECTABLE:YES;
#BPMS:0.000=150.000,32.000=600.000,52.000=150.000,89.000=300.000,97.000=150.000,101.000=600.000,111.000=150.000,115.000=300.000,123.000=150.000,145.000=300.000,149.000=150.000,161.000=75.000,163.000=150.000,177.000=300.000,181.000=150.000,193.000=300.000,201.000=150.000,229.000=300.000,235.000=600.000,239.333=150.000;
#STOPS:32.500=0.100
,33.500=0.100
,34.500=0.100
,35.500=0.100
,36.500=0.100
,37.500=0.300
,40.500=0.300
,45.500=0.100
,84.000=2.688
,101.500=0.100
,102.500=0.100
,103.500=0.100
,104.500=0.100
,105.500=0.100
,107.500=0.100
,239.000=0.006
;
#BGCHANGES:;
// cache tags:
#FIRSTBEAT:8.000;
#LASTBEAT:278.000;
#SONGFILENAME:Songs/dragon force/FaxxCJ/FaxxCJ.sm;
#HASMUSIC:1;
#HASBANNER:1;
#MUSICLENGTH:104.777;
// end cache tags

//---------------dance-single - Blank----------------
#NOTES:
     dance-single:
     Blank:
     Hard:
     10:
     0.687,0.829,0.286,0.019,0.663,472.000,30.000,2.000,0.000,0.000:

0000
0000
0000
0000
,
0000
0000
0000
0000
,
1000
0000
0000
0000
0010
0000
0100
0000
0000
0001
0000
0000
0010
0000
0000
0000
,
0100
0000
0000
0000
1000
0000
0010
0000
0000
0100
0000
0000
0001
0000
0000
0000
,
0010
0000
0000
0000
0100
0000
1000
0000
0000
0001
0000
0000
0100
0000
0000
0000
,
1000
0000
0100
0100
0001
0001
1000
0000
,
0100
0000
0000
0000
0011
0000
0011
0000
0000
1000
0000
0000
0010
0000
0000
0000
,
0100
0000
0000
0000
0001
0000
0001
0000
0000
0010
0000
0000
0100
0000
0000
0000
,
1001
0011
0110
1100
,
1001
1100
0011
0000
,
1001
0100
0010
0100
,
0010
0100
0010
0100
,
0010
0000
0000
0000
,
0000
0000
1000
0100
0000
0010
0000
0001
,
0000
0110
1001
0110
,
1000
0000
0001
0010
0000
0100
0000
1000
,
0000
0000
0000
0000
0010
0000
0100
0000
0000
0000
0100
0000
0010
1000
0010
1000
,
0100
0000
0010
0001
0000
0010
0000
0001
,
0000
0011
1100
0011
,
1000
0100
1000
0000
0001
0010
0001
0000
,
1000
0010
0100
0001
1000
0100
0001
0100
,
1000
0000
0000
0000
1000
0000
0000
0000
0100
0000
0010
0001
0000
0100
0000
0000
,
0010
0000
0100
1000
0001
0000
1000
0000
0001
0000
1000
0000
0001
0000
1000
0000
,
0001
1000
0100
0010
0100
0010
0100
0010
,
0100
0000
0010
0000
1000
0000
1000
0000
1000
0000
0010
0100
0000
0001
0000
0000
,
1000
0000
0100
0010
0001
0000
0000
0000
0101
0000
0000
0000
1001
0000
0000
0000
,
1010
0110
0101
0101
,
1001
1001
0000
1000
,
0010
0000
0100
0001
0000
0010
0000
0000
1000
0000
0100
0010
0001
0000
0100
0000
,
0001
0100
0001
0100
0001
0100
0001
1000
,
0001
1000
0001
1000
0001
1000
0010
0010
,
0010
0000
1000
0001
0000
0100
0000
0000
0010
0000
1000
0001
0000
0100
0000
0000
,
0010
0000
1000
0001
0000
0100
0010
0100
0010
0000
0000
0001
0000
0000
1000
0000
,
0100
0000
0100
1000
0000
0000
1000
0000
1000
0000
0010
1000
0000
0000
0010
0000
,
0010
0000
0001
0010
0000
1000
0010
1000
0010
0000
0000
1000
0000
0000
0001
0000
,
0010
0000
0010
0100
0000
0000
0100
0000
1000
0000
1000
0010
0000
0000
0100
0000
,
0100
0000
0001
1000
0100
0000
0000
0000
1000
0000
0001
0000
0000
0000
0001
0000
,
1000
0000
0000
0000
0000
0000
0001
0000
0001
0000
0100
0001
0000
0000
0100
0000
,
0100
0000
1000
0100
0000
0000
1000
0000
1000
0000
0100
1000
0000
0100
0001
0100
,
0001
0000
0000
0010
0000
0000
0100
0000
1000
0000
0100
1000
0000
0000
0010
0000
,
0100
0000
0010
0100
1001
0000
1100
0000
1001
0011
0000
1001
0000
0000
0100
0000
,
1000
0000
0010
0100
0000
0000
0001
0000
0010
0000
0100
1000
0000
0000
0010
0000
,
0100
0000
0001
0010
0000
0100
1000
0100
1000
0000
0000
0010
0000
0000
0100
0000
,
0001
0000
0010
0001
0000
0000
1000
0000
0100
0000
1000
0010
0000
0000
0100
0000
,
0001
0000
0010
0001
0000
0000
1000
0000
0000
0000
0001
0000
0100
0000
0000
0000
,
0010
0000
1000
0000
0000
0000
0001
0000
0001
0000
0010
0100
0000
0000
0010
0000
,
0010
0000
0100
1000
0000
0000
0100
0000
0100
0000
1000
0010
0000
0100
0010
0100
,
0010
0000
0000
0100
0000
0000
0001
0000
0001
0000
1000
0100
0000
0000
0100
0000
,
0100
0000
0010
0001
1000
0000
0010
0000
0100
0000
0001
0000
1000
0000
0010
0000
,
0100
0001
1000
0010
0100
0001
0010
0000
,
0010
0000
0000
0000
0000
0000
1000
0000
0100
0000
1000
0001
0000
0000
0010
0000
,
0100
0000
0010
0100
0000
0000
1000
0000
0001
0000
0100
0010
0000
1000
0100
0010
,
0001
0000
0000
1000
0000
0000
0010
0000
0100
0000
0001
0010
0000
0000
0100
0000
,
1000
0000
0010
0100
0000
0000
0001
0000
0010
0000
0001
1000
0000
0100
0010
0001
,
1000
0000
0000
1000
0000
0000
0010
0000
0100
0000
0001
1000
0000
0000
0010
0000
,
0100
0000
1000
0010
0000
0000
0100
0000
0001
0000
1000
0010
0000
0000
1000
0000
,
0001
0000
0010
0001
0010
0000
0100
0000
0010
0000
1000
0000
0001
0000
1000
0000
,
0010
0100
0001
0000
1000
0000
0001
0000
,
1000
0001
1000
0001
,
0100
0000
0000
0010
0000
0000
0100
0000
0000
0000
1000
0010
,
0100
0001
1000
0100
0010
0001
1000
0100
1000
0001
0010
0001
,
1000
0010
0100
0001
1000
0100
0010
0001
1000
0100
1000
0010
,
0100
0001
0010
0001
1000
0100
0001
0100
0010
1000
0010
0001
,
0100
0010
1000
0010
0100
0001
1000
0100
0001
0100
1000
1000
,
0001
0010
1000
0010
0001
0100
0010
0100
0001
1000
0010
0100
,
0010
1000
0100
0001
0100
0010
1000
0010
0100
0001
0100
1000
,
0010
0100
0001
0100
1000
0100
0010
0001
0010
0100
1000
0100
,
0001
0010
0100
1000
0010
0100
0010
0220
0000
0000
0000
0000
,
0000
0000
0000
0000
,
0000
0000
0330
0000
;

//---------------dance-single - Blank----------------
#NOTES:
     dance-single:
     Blank:
     Medium:
     7:
     0.440,0.531,0.067,0.048,0.382,311.000,7.000,5.000,0.000,0.000:







0000
0000
0000
0000
,
0000
0000
0000
0000
,
1000
0000
0001
0000
0100
0001
0010
0000
,
0100
0000
1000
0000
1000
0010
0100
0000
,
0001
0000
0010
0000
0100
1000
0100
0000
,
0010
0000
0100
0001
0100
0010
0010
0000
,
1100
0000
0001
0000
0100
0010
1000
0000
,
0100
0000
0010
0000
0001
1000
0001
0000
,
1000
0001
1000
0001
,
1000
0010
1000
0000
,
0010
0100
0000
0001
,
0000
0010
0100
0000
,
1000
0000
0000
0000
,
0000
0000
0000
0110
0000
1000
0000
0001
,
0000
0100
0010
0100
,
0000
0000
0000
0011
0000
0010
0000
1000
,
0000
0101
0100
1000
,
0001
0000
0100
0010
0000
1000
0000
0001
,
0000
0100
0010
1000
,
0002
0000
0203
0000
,
0320
0000
2030
0000
,
3000
1000
0010
0100
,
0001
1000
0010
1000
,
0100
0010
0001
0100
,
0010
1000
0001
0100
,
0010
1000
1000
0010
,
0010
0100
0100
0000
,
0001
0000
0000
0010
,
0100
1100
1001
1000
,
0100
0010
0001
0100
,
0010
1000
0001
0100
,
1000
0000
1000
0000
0010
0000
0100
0001
,
0100
0000
0010
0000
0100
0000
1000
0000
0100
0000
0000
0001
0000
0000
0010
0000
,
0100
0000
0000
0100
0000
0000
1000
0000
0001
0000
0000
0001
0000
0000
0010
0000
,
0100
0000
0000
1000
0000
0000
1000
0000
0100
0000
0000
0010
0000
0000
0001
0000
,
0100
0000
0000
0100
0000
0000
0010
0000
1000
0000
0000
0001
0000
0000
0100
0000
,
0010
0000
0000
0100
0000
0000
0000
0000
0001
0000
0000
0000
0010
0000
0000
0000
,
0000
0000
0001
0000
0000
0000
1000
0000
0001
0000
0000
0100
0000
0000
0010
0000
,
1000
0000
0000
0001
0000
0000
0001
0000
1000
0000
0000
1000
0000
0000
1000
0000
,
0010
0000
0000
0010
0000
0000
0010
0000
0100
0000
0000
0001
0000
0000
0001
0000
,
0100
0000
0000
0000
1000
0000
0001
0000
0100
0000
0000
0110
0000
0000
1000
0000
,
0001
0000
0000
0100
0000
0000
0010
0000
0100
0000
0000
1000
0000
0000
0001
0000
,
1000
0000
0000
0010
0000
0000
0100
0000
0001
0000
0000
0100
0000
0000
0010
0000
,
1000
0000
0000
0100
0000
0000
1000
0000
0010
0000
0000
1000
0000
0000
0001
0000
,
0100
0010
1000
0000
0001
0000
0010
0000
,
0001
0000
0000
0000
0000
0000
1000
0000
0001
0000
0000
0010
0000
0000
0100
0000
,
0100
0000
0000
1000
0000
0000
0010
0000
0010
0000
0000
0100
0000
0000
0001
0000
,
1000
0000
0000
0100
0000
0000
0010
0000
0010
0000
0000
0100
0000
0000
1000
0000
,
1000
0000
0001
1000
0001
0000
1000
0100
,
1000
0000
0010
0100
0010
0000
1000
0001
,
1000
0000
0000
0000
0000
0000
0001
0000
0010
0000
0000
0001
0000
0000
1000
0000
,
0100
0000
0000
0010
0000
0000
0001
0000
1000
0000
0000
0010
0000
0000
0100
0000
,
0001
0000
0000
1000
0000
0000
0001
0000
1000
0000
0000
0010
0000
0000
1000
0000
,
0100
0000
0000
0010
0000
0000
0001
0000
0100
0000
0000
0001
0000
0000
1000
0000
,
0100
0000
0000
1000
0000
0000
0001
0000
0010
0000
0000
0100
0000
0000
0010
0000
,
0001
0000
0000
1000
0000
0000
0010
0000
0100
0000
0000
0010
0000
0000
1000
0000
,
0001
0000
0100
0010
0100
0001
1000
0010
,
0100
0001
1000
0000
0000
0000
0001
0000
,
0000
0100
0000
0010
,
0000
1000
0000
0001
,
0000
0000
0000
0000
0000
0000
0000
0000
0100
0000
0000
0010
0000
0000
0100
0000
0000
0000
0000
0000
0000
0000
0000
1000
,
0000
0000
0100
0000
0000
0000
0000
0000
0010
0000
0000
0001
0000
0000
0010
0000
0000
0000
0000
0000
0000
0000
0000
0010
,
0000
0000
1000
0000
0000
0000
0000
0000
0100
0000
0000
0010
0000
0000
0001
0000
0000
0000
0000
0000
0100
0000
0000
1000
,
0000
0000
0010
0000
0000
0100
0000
0000
0001
0000
0000
0010
0000
0000
0001
0000
0000
0000
0000
0000
1000
0000
0000
0100
,
0000
0000
0010
0000
0000
0000
0000
0000
0000
0000
0000
1000
0000
0000
0100
0000
0000
0000
0000
0000
0000
0000
0000
0001
,
0000
0000
0010
0000
0000
0000
0000
0000
0000
0000
0000
0100
0000
0000
1000
0000
0000
0010
0000
0000
0100
0000
0000
0001
,
0000
0000
0010
0000
0000
1000
0000
0000
0100
0000
0000
0000
0000
0000
0010
0000
0100
0000
1000
0000
0010
0000
0100
0000
,
0001
0010
0001
1000
0001
1000
0100
0020
0000
0000
0000
0000
,
0000
0000
0000
0000
,
0000
0000
0030
0000
;

//---------------dance-single - Blank----------------
#NOTES:
     dance-single:
     Blank:
     Easy:
     5:
     0.333,0.431,0.086,0.095,0.110,225.000,9.000,10.000,0.000,0.000:





0000
0000
0000
0000
,
0000
0000
0000
0000
,
1000
0100
0010
0010
,
0100
0001
1000
1000
,
0010
0100
0001
0001
,
0010
0100
0100
1001
,
0010
0001
0001
0100
,
0010
1000
1000
0010
,
2000
0000
0000
3000
,
0020
0000
0000
0030
,
0200
0000
0000
0300
,
0000
0002
0000
0000
,
0000
0000
0000
0003
,
0000
0000
0000
1000
0000
0100
0000
0010
,
0000
0001
0100
0010
,
0000
0000
0000
1000
0000
0010
0000
0100
,
0000
0001
0010
0100
,
0000
0000
0000
0010
0000
0100
0000
1000
,
0000
0100
1000
0100
,
0010
0001
0010
0000
1000
0001
1000
0000
,
0010
0100
0001
1000
0100
0010
0001
0000
,
0110
0010
0010
0100
,
0001
1000
0001
1000
,
0010
0100
0010
1000
,
0001
1000
0100
0010
,
0001
1000
0000
0100
,
0000
0020
0000
0000
,
0000
0000
0030
0001
,
0100
0010
1000
0010
,
0100
0001
1000
0010
,
0100
0001
1000
0010
,
0010
0000
0010
0000
0010
0000
1000
0001
,
1000
0000
0010
0100
0010
0000
1000
0000
,
0100
0010
0110
0100
,
0001
0010
0011
0100
,
0010
1000
1100
0010
,
0100
0002
0000
0000
,
0000
0103
0100
0010
,
0110
1000
0001
0100
,
0101
0100
0010
1000
,
1001
0200
0000
0310
,
1000
0100
0001
0100
,
0001
0010
0001
0100
,
1000
0010
0100
0001
,
1000
0200
0000
0000
,
0000
0310
0001
0100
,
1000
0100
1000
0010
,
1000
0100
0001
0010
,
0100
1000
0010
0100
,
0001
1000
0100
0001
,
0100
1000
0001
0100
,
0010
1000
0100
0010
,
0001
0010
0001
0100
,
0010
0100
0001
1000
,
0100
0010
0100
1000
,
0010
0100
0001
1000
,
0010
0000
0100
0001
1000
0010
0100
0001
,
0010
0100
1000
0000
0000
0000
0010
0000
,
0000
0100
0000
0001
,
0000
0000
0000
0100
,
0000
0000
0000
0000
,
0000
0001
0000
0000
0000
0000
0000
1000
0000
0000
0000
0000
,
0000
0010
0000
0000
0000
0000
0000
0100
0000
0000
0000
0000
,
0000
0000
0001
0000
0000
0000
0000
0000
0000
0000
0000
0000
0000
0000
0100
0000
0000
0000
0000
0000
0000
0000
0000
1000
,
0000
0000
0010
0000
0000
0000
0000
0000
0000
0000
0000
0100
0000
0000
0001
0000
0000
0000
0000
0000
0000
0000
0000
0100
,
0000
0000
1000
0000
0000
0000
0000
0000
0000
0000
0000
0010
0000
0000
0100
0000
0000
0000
0000
0000
0000
0000
0000
0001
,
0000
0010
0000
0000
0100
0000
0000
1000
0000
0000
0010
0000
,
0000
0100
0000
0000
0001
1000
0001
2002
0000
0000
0000
0000
,
0000
0000
0000
0000
,
0000
0000
3003
0000
;

//---------------dance-single - Blank----------------
#NOTES:
     dance-single:
     Blank:
     Challenge:
     10:
     0.770,0.829,0.315,0.029,0.806,529.000,33.000,3.000,0.000,0.000:



0000
0000
0000
0000
,
0000
0000
0000
0000
,
1000
0000
0010
0000
0100
0000
0001
0000
0000
0100
0000
0000
0010
0000
1000
0000
,
0100
0000
0010
0000
0001
0000
0100
0000
0000
0010
0000
0000
1000
0000
0100
0000
,
0010
0000
0001
0000
0100
0000
1000
0000
0000
0100
0000
0000
0001
0000
0010
0000
,
0100
0000
0010
0000
0001
0000
0001
0000
0010
0000
0010
0000
0100
1000
0100
1000
,
0100
0000
0010
0000
0001
0000
0010
0000
0000
1000
0000
0000
0010
0000
0001
0000
,
0100
0000
0001
0000
1000
0000
0100
0000
0000
0010
0000
0000
0001
0000
0000
0000
,
1100
0110
0011
1001
,
1100
0101
1000
0001
,
1000
0010
0100
0001
,
1000
0010
0100
0010
,
0001
0000
0100
0000
,
0010
0000
0000
1100
0000
0110
0000
0011
,
0010
0100
0110
0000
0011
0000
0110
0000
,
1000
0100
0010
0011
0000
1010
0000
0110
,
0000
0000
0010
0010
0110
0100
0100
0000
,
1001
0010
0100
0010
0000
1100
0000
0101
,
0000
0000
0010
0100
0001
1000
0100
0000
,
0010
0001
0010
0000
0100
1000
0100
0000
,
0010
0001
0010
0000
0100
0010
0100
0000
0001
1000
0001
1000
0001
0010
0001
0010
,
0002
0000
0003
0000
1100
0000
0000
0000
0011
0000
1000
0100
0000
0010
0000
0000
,
0001
0000
0010
0100
1000
0000
0100
0000
1000
0000
0010
0000
0100
0000
0001
0000
,
0010
0001
1000
0100
0010
0100
1000
0001
,
0100
0000
0010
0000
1000
0000
1000
0000
0010
0000
0100
0001
0000
1000
0000
0000
,
0001
0000
0100
0010
0110
0000
0000
0000
1001
0000
0000
0000
0110
0000
0000
0000
,
0011
1100
1000
0001
,
1000
0010
0000
0010
,
0110
0000
0001
0010
0000
0100
0000
0000
1000
0000
0100
0010
0001
0000
0100
0000
,
1000
0100
1000
0100
0010
0100
0001
0100
,
0001
0010
0100
1000
0010
0100
0001
0000
,
0010
0000
0000
0000
0100
0000
0000
0000
1000
0000
0000
0000
0001
0010
0100
0010
,
0100
1000
0001
1000
0010
0100
0001
0010
0100
0000
0000
1000
0000
0000
0100
0000
,
0010
0001
0010
0001
0000
0000
0100
0000
0010
0100
0010
0100
0000
0000
1000
0000
,
0100
1000
0100
1000
0000
0000
0010
0000
0101
0000
0000
0101
0000
0000
0010
0000
,
0100
1000
0100
1000
0000
0000
0010
0000
0100
0001
0100
0001
0000
0000
0010
0000
,
1000
0100
1000
0000
0100
0000
0000
0000
0001
0000
1000
0000
0000
0000
0100
0000
,
0001
0000
0000
0000
0000
0000
1000
0000
0010
0100
0010
1000
0000
0000
0100
0000
,
0010
0100
0010
0001
0000
0000
1000
0000
0010
1000
0010
0100
0000
0000
0001
0000
,
1010
0000
0000
1001
0000
0000
0010
0000
0100
0001
0100
0010
0000
0000
0100
0000
,
1000
0000
0001
0000
1000
0000
0100
0000
0010
0000
0000
0000
0001
0000
0000
0000
0100
0010
0100
0000
0010
0100
0010
0000
0000
0000
0000
0000
1000
0000
0000
0000
,
0100
0010
0001
0100
0000
0000
0010
0000
1000
0100
1000
0001
0000
0000
0010
0000
,
0001
0100
0010
0100
0000
0000
0001
1000
0001
0000
0000
1100
0000
0000
0010
0000
,
0100
0001
1000
0010
0000
0000
0100
0000
0001
0010
0100
1000
0000
0000
0010
0000
,
0100
0001
0100
0010
1000
0000
0000
0000
0000
0000
1000
0000
0010
0000
0000
0000
,
0100
0000
0001
0000
0000
0000
1000
0000
0010
0100
0001
0010
0000
0000
0010
0000
,
0100
0010
1000
0100
0000
0000
0010
0000
0001
0100
0010
0100
0001
0000
1000
0010
,
0100
0000
0000
0001
0000
0000
0010
0000
0100
1000
0010
0100
0000
0000
0001
0000
,
0010
0001
1000
0100
0010
0000
0001
0000
0010
0000
1000
0000
0010
0000
1000
0000
,
0010
0100
0010
0100
0010
0001
1000
0000
,
0001
0000
0000
0000
0000
0000
0010
0000
1000
0100
0010
0001
0000
0000
0100
0000
,
0010
1000
0001
0100
0000
0000
0010
0000
1000
0100
1000
0001
0000
0000
0010
0100
,
1000
0000
0000
0010
0000
0000
0100
0000
0001
0010
0100
0010
0000
0000
0001
0000
,
1000
0010
0100
0010
0000
0000
1000
0000
0001
1000
0010
1000
0000
0000
0001
0010
,
0001
0000
0000
1000
0000
0000
0100
0000
0001
0010
0100
1000
0000
0000
0010
0000
,
0100
0001
1000
0010
0000
0000
0100
0000
0001
0010
0001
1000
0000
0000
0010
0000
,
1000
0100
0010
0100
0000
0000
1000
0000
0001
0000
0010
0000
0010
0000
0001
0000
,
1000
0100
0010
0100
1000
0010
0100
0001
,
1000
0010
1000
0001
0100
0001
0010
0000
,
0100
0000
0000
0010
0000
0000
1000
0000
0000
0000
0001
0010
,
0100
1000
0010
0100
0001
0010
0001
1000
0100
1000
0001
0100
,
0001
1000
0010
1000
0001
0100
0010
1000
0010
0100
0010
1000
,
0001
0100
0010
0100
0001
1000
0100
0010
0100
0010
0001
0010
,
1000
0100
0010
0100
1000
0001
0100
1000
0100
0010
0100
1000
,
0100
0001
0100
0010
1000
0010
0100
0001
1000
0001
0100
0010
,
0100
0001
1000
0001
1000
0010
0100
0010
0100
0001
1000
0001
,
1000
0010
0100
0001
1000
0100
0010
0001
0010
0100
1000
0001
,
0100
0010
1000
0010
0100
0001
1000
0220
0000
0000
0000
0000
,
0000
0000
0000
0000
,
0000
0000
0330
0000
;
