#TITLE:Oo-edo Solder Tonosaman;
#SUBTITLE:Steel Samurai Theme;
#ARTIST:Sugimori Masakazu;
#TITLETRANSLIT:;
#SUBTITLETRANSLIT:;
#ARTISTTRANSLIT:;
#CREDIT:;
#BANNER:steelsamuraibn.png;
#BACKGROUND:steelsamuraibg.png;
#LYRICSPATH:;
#CDTITLE:xuxa.png;
#MUSIC:21 - Oo-edo Soldier Tonosaman.mp3;
#OFFSET:-0.160;
#SAMPLESTART:100.000;
#SAMPLELENGTH:11.920;
#SELECTABLE:YES;
#BPMS:0.000=139.920;
#STOPS:;
#BGCHANGES:;
// cache tags:
#FIRSTBEAT:4.000;
#LASTBEAT:264.000;
#SONGFILENAME:Songs/toune 3/Oo-edo Soldier Tonosaman/Oo-edo Soldier Tonosaman.sm;
#HASMUSIC:1;
#HASBANNER:1;
#MUSICLENGTH:120.639;
// end cache tags

//---------------dance-single - ----------------
#NOTES:
     dance-single:
     :
     Hard:
     10:
     0.818,0.903,0.862,0.456,0.497,532.000,104.000,55.000,0.000,8.000:
0000
0000
0000
0000
,
0011
1001
0000
0102
0000
1003
1100
0000
,
0010
0001
0100
2000
0000
0000
0000
0000
,
0000
0000
0001
0000
3001
0000
0000
0000
1100
0000
0000
0110
0000
0000
0010
0000
,
0011
0000
1000
0100
1000
0000
0010
0000
1000
0000
2002
0000
3003
0000
0001
0010
,
0001
0000
1000
0100
1000
0000
0110
0000
0000
0000
0022
0000
0033
0000
1100
0000
,
0010
0100
0001
1000
0100
0000
0010
0000
0001
0000
1100
0000
0000
0000
1000
0000
,
0100
0000
1000
0000
0010
0000
0100
0000
0001
0000
1000
0100
1000
0000
0001
0000
,
2200
3300
1100
0000
0022
0033
0011
1000
,
0100
0010
0001
0100
0010
0000
1000
0000
0002
0000
0100
0000
0100
0000
0103
0000
,
1000
0000
0001
0100
0001
0000
1000
0000
0001
0000
0101
0000
0000
0000
1000
0000
,
0010
0100
0010
0000
2002
0000
0000
3003
,
1100
0000
0000
0000
0110
0000
0000
0000
0011
0000
0000
1000
0001
0000
0100
0000
,
0110
0000
0000
0000
0101
0000
0000
0000
1010
0000
0000
0001
1000
0000
0010
0000
,
0002
0000
0000
0003
0020
0000
0000
0030
0200
0000
0000
0300
0020
0000
0000
0030
,
0001
0100
0001
0000
1000
0010
1000
0000
0001
1000
0001
0100
0000
0010
1000
0000
,
0110
0000
0000
0000
0101
0000
0000
0000
1001
0000
0000
1000
0100
0000
0010
0000
,
0011
0000
0000
0000
0110
0000
0000
0000
1100
0000
0000
0100
1000
0000
0001
0000
,
2000
3012
1203
0321
,
1030
0000
0001
1000
0001
0000
1001
0000
1100
0000
0110
0000
0011
0000
1001
0000
,
1000
0100
0010
0001
0010
0100
1000
0100
0010
0001
0100
0010
1000
0001
0100
0010
,
1000
0001
0100
0010
1000
0100
1000
0010
1000
0100
1000
0001
0100
0001
0010
0001
,
0100
0001
1000
0100
0010
0001
0100
0010
1000
0100
0010
0001
0100
0010
1000
0001
,
0010
0100
1000
0010
0100
0001
0010
0100
1000
0100
1000
0010
0100
0010
0100
0000
,
0002
0000
0000
0003
1010
0000
0000
0000
2000
0000
0000
3000
0011
0000
0000
0000
,
0001
0000
0100
0010
0100
0000
0110
0000
0000
0000
2002
0000
0000
0000
3113
0000
,
1000
0000
1000
0000
0001
0100
0001
0000
1000
0000
0001
0000
0101
0000
0000
0000
,
0200
0001
0301
1001
,
1000
0000
1100
0000
0100
0000
0110
0000
0010
0000
0001
0100
0001
0000
1000
0000
,
0001
0000
0101
0000
0100
0000
0110
0000
0010
0000
1000
0100
1000
0000
0001
0000
,
2000
0000
3000
0000
1000
0000
0001
0000
0100
0010
0200
0000
0300
0000
0100
0000
,
0001
0000
1000
0010
1000
0000
0001
0000
1000
0000
0010
0000
0100
0000
0001
0000
,
0011
1001
0000
0102
0000
1003
0011
0000
,
0100
1000
0010
0002
0000
0000
0000
0000
,
0000
0000
1000
0000
1003
0000
0000
0000
0011
0000
0000
1001
0000
0000
0100
0000
,
1100
0000
0001
0100
0001
0000
0100
0000
0001
0000
2002
0000
3003
0000
0001
0010
,
0001
0000
1000
0100
1000
0000
0110
0000
0000
0000
0022
0000
0033
0000
1100
0000
,
0010
0100
0010
1000
0001
0000
1000
0000
0001
0000
1100
0000
0000
0000
1000
0000
,
0100
0000
1000
0000
0010
0000
0100
0000
0001
0000
1000
0100
1000
0000
0001
0000
,
2200
3301
1100
0000
0022
1033
0011
0100
,
0010
1000
0001
0100
0010
0000
1000
0000
2000
0000
0001
0000
0001
0000
3001
0000
,
1000
0000
0001
0100
0001
0000
1000
0000
0001
0000
0100
0000
0110
0000
1000
0000
,
0010
0100
0010
0110
2002
0000
0000
3003
,
1100
0000
0000
0000
0110
0000
0000
0000
0011
0000
1000
0001
1000
0000
0101
0000
,
1010
0000
0000
0000
0110
0000
0000
0000
0101
0000
0001
0100
0001
0000
1000
0000
,
0010
0000
1000
0100
1000
0000
1000
0001
1000
0000
0001
0010
0001
0000
0001
1000
,
0001
0100
0001
0000
1000
0010
1000
0000
0001
1000
0001
0100
0000
0010
1000
0000
,
0110
0000
0000
0000
0101
0000
0000
0000
1001
0000
0100
1000
0100
0000
0010
0000
,
0011
0000
0000
0000
0110
0000
0000
0000
0101
0000
1000
0100
1000
0000
0001
0000
,
2000
0000
0100
3000
0020
0000
0001
0030
0200
0000
0010
0300
2000
0000
0001
3000
,
1000
0000
0001
1000
0001
0000
1001
0000
1100
0000
0101
0000
1010
0000
0110
0000
,
1000
0100
0010
0001
1000
0100
0010
0001
1000
0100
0010
0001
0100
0001
0010
0100
,
1000
0001
0010
0100
1000
0001
0010
0100
1000
0010
0100
0010
0100
0001
1000
0001
,
1000
0100
1000
0100
1000
0010
0100
0010
0100
0001
0100
0001
0100
0010
1000
0010
,
1000
0100
0010
0001
1000
0100
0010
0001
0100
0010
1000
0100
0010
0001
0100
0010
,
2000
3000
1010
0000
2000
3000
1100
0000
,
0001
0000
0100
0010
0100
0000
0110
0000
0000
0000
2002
0000
0000
0000
3113
0000
,
1000
0000
1000
0000
0001
0100
0001
0000
1000
0000
0001
0000
0101
0000
0000
0000
,
0200
0001
0301
1001
,
1000
0000
1100
0000
0100
0000
0110
0000
0010
0000
0001
0100
0001
0000
1000
0000
,
0001
0000
0101
0000
0100
0000
0110
0000
0010
0000
1000
0100
1000
0000
0001
0000
,
2000
0000
3000
0000
1000
0000
0001
0000
0100
0010
0200
0000
0300
0000
0100
0000
,
0001
0000
1000
0010
1000
0000
0001
0000
1000
0000
0010
0000
0100
0000
0001
0000
,
1000
1100
0000
0022
0033
1000
0101
0000
,
1010
0110
0101
0002
0000
0000
0000
0000
,
0000
0000
1000
0000
1000
0000
0000
0000
1000
0000
0000
1000
0000
0000
1000
0000
,
1013
0000
0000
0000
;
