#TITLE:DjEuroJamz Glorious Morning Remix;
#SUBTITLE:EXoduz Violation;
#ARTIST:DJEuroJamz;
#TITLETRANSLIT:;
#SUBTITLETRANSLIT:;
#ARTISTTRANSLIT:;
#CREDIT:;
#BANNER:../Banner.png;
#BACKGROUND:../Background.png;
#LYRICSPATH:;
#CDTITLE:;
#MUSIC:music.ogg;
#OFFSET:-0.361;
#SAMPLESTART:32.140;
#SAMPLELENGTH:12.000;
#SELECTABLE:YES;
#DISPLAYBPM:150.000;
#BPMS:0.000=150.000,705.000=150.750,705.500=160.000,706.000=150.000,1184.000=150.750,1253.000=160.000,1253.500=150.000;
#STOPS:;
#BGCHANGES:;
// cache tags:
#FIRSTBEAT:4.000;
#LASTBEAT:1544.000;
#SONGFILENAME:Songs/EXoduz Violation/DjEuroJamz Glorious Morning Remix/DjEuroJamz Glorious Morning Remix.sm;
#HASMUSIC:1;
#HASBANNER:1;
#MUSICLENGTH:618.773;
// end cache tags

//---------------dance-single - ----------------
#NOTES:
     dance-single:
     :
     Challenge:
     18:
     1.000,1.000,0.196,0.942,1.000,4689.000,121.000,583.000,537.000,6.000:

0000
0000
0000
0000
,
1000
0000
0000
0010
0000
1000
0000
0000
0100
1000
0000
0000
,
0100
0000
0000
1000
0000
0100
0000
0000
1000
0100
0000
0000
,
1000
0000
0000
1000
0000
1000
0000
0000
0000
1010
0000
0000
,
0011
0000
0000
0110
0000
2200
0000
0000
0000
0000
3300
0000
,
1000
0000
0000
1100
0000
1100
0000
0000
0001
1000
0000
0000
,
1100
0000
0000
1100
0000
0110
0000
0000
1000
0100
0000
0000
,
0110
0000
0000
0011
0000
1100
0000
0000
0000
2000
0000
0000
,
0000
0000
0000
3100
0000
1000
0100
0010
0001
1000
0000
0100
,
0010
0000
0001
0100
0000
0010
1000
0000
0100
0010
0001
1000
,
0100
0000
0010
0001
0000
1000
0010
0000
0100
0001
0000
0010
,
0100
1000
0010
0100
0000
0001
0010
0000
0100
1000
0000
0001
,
0010
0000
0000
1100
0000
0202
0000
0000
0000
0000
0000
0303
,
1001
0000
0000
0110
0000
1100
0000
0000
1000
0100
0000
0000
,
0011
0000
0000
1010
0000
1100
0000
0000
0010
0001
0000
0000
,
1000
0000
0000
1001
0000
1001
0000
0000
0000
2200
0000
0000
,
0000
0000
3300
1100
0000
2200
0000
0000
0000
0000
3300
0000
,
0100
0000
0000
1010
0000
1010
0000
0000
0100
0010
0000
0000
,
1001
0000
0000
0100
0000
0010
0001
0000
1000
0100
0000
0010
,
0001
0100
0010
1000
0000
0100
0010
0000
0001
0010
0000
0100
,
1000
0000
0001
0010
0000
2200
0000
0000
0000
0000
0000
3300
,
0100
1000
0010
0100
0000
0001
1000
0000
0010
0100
0000
1000
,
0001
0100
0010
1000
0000
0100
0010
0000
0001
1000
0100
0010
,
0001
0000
0100
0010
1000
0100
0010
0001
0010
0100
1000
0010
,
0100
0000
0001
0010
0000
1000
0000
0000
0010
0001
0000
0100
,
0010
0000
1000
0100
0000
0010
0001
0000
1000
0010
0000
0100
,
0001
0000
0010
0100
0000
1000
0001
0000
1000
0100
0000
0010
,
0100
1000
0001
0010
0100
1000
0010
1000
0010
1000
0010
1000
,
0010
1000
0010
1000
0001
1000
0010
0100
0010
1000
0100
0010
,
0001
1000
0001
1000
0010
1000
0100
1000
0010
0100
0001
0010
,
0001
0000
0100
0000
0001
0000
0010
0100
1000
0001
0100
0010
1000
0100
0010
0001
0010
0100
1000
0010
0100
0001
0010
0100
,
1000
0001
0010
0100
1000
0010
0100
0010
1000
0100
0010
0001
0100
0001
0010
0001
0100
0001
0010
0100
1000
0010
0100
0010
,
1000
0100
0010
0001
1000
0200
0020
0000
0000
0000
0000
0000
0000
0000
0000
0000
0000
0000
0000
0000
0000
0000
0000
0000
,
0000
0000
0000
0000
,
0000
0000
0000
0000
0000
0030
0310
0000
0000
0000
1000
0000
0100
0000
0010
0000
0001
0000
1000
0000
0000
0000
0100
0000
,
1000
0000
0010
0100
0000
0100
1000
0000
0010
1000
0000
1000
,
0100
0000
0010
0001
0000
0000
1110
0000
0000
0111
0000
0000
,
1101
0000
0000
1111
0000
0000
1100
0000
0000
0010
1000
0100
,
0010
0001
0100
0010
0000
1000
0100
0000
0000
0010
0001
1000
,
0100
0010
0001
0100
0000
0010
1000
0000
0000
1100
0000
0010
,
0001
0000
1000
0100
0000
0010
0001
0000
0000
0001
0000
0100
,
0010
0000
0000
1100
0000
0001
1000
0000
0001
1000
0100
1000
,
0100
0010
0001
2000
0000
3000
1100
0000
0000
0010
0001
0010
,
0001
0010
0001
2000
0000
3000
1100
0000
0000
0010
0001
0100
,
0010
1000
0100
0020
0000
0030
0101
0000
0000
0010
0000
0000
,
1100
0000
0000
0020
0000
0030
1001
0000
0000
0010
1000
0100
,
0010
0001
0100
0020
0000
0030
1100
0000
0000
0002
1003
0001
,
1000
0001
1000
0200
0000
0300
1100
0000
0100
2000
3010
0001
,
0100
0010
1000
0200
0000
0300
2001
3000
1000
0200
0300
0010
,
0002
0000
0000
0000
0000
0000
0000
0000
0000
0000
0000
0000
0000
0000
0000
0000
0003
0000
0000
0000
0000
0000
0000
0000
0000
0000
0000
0000
0000
0000
0000
0000
1000
0000
0000
0000
0000
0000
0000
0000
0000
0000
0000
0000
0000
0000
0000
0000
0100
0000
0000
0000
0000
0000
1000
0000
0000
0000
0000
0000
0100
0000
0000
0000
0000
0000
1000
0000
0000
0000
0000
0000
0000
0000
0000
0000
0000
0000
0000
0000
0001
0000
0000
0000
0000
0000
0000
0000
0000
0000
0000
0000
0000
0000
0000
0000
1000
0000
0000
0000
0000
0000
0000
0000
0000
0000
0000
0000
0000
0000
0000
0000
0010
0000
0000
0000
0000
0000
0000
0000
0000
0000
0000
0000
0000
0000
0000
0000
1000
0000
0000
0000
0000
0000
0000
0000
0000
0000
0000
0000
0000
0000
0000
0000
0010
0000
0000
0000
0000
0000
0000
0000
0000
0000
0000
0000
0000
0000
0000
0000
1000
0000
0000
0000
0000
0000
0000
0000
0001
0000
0000
0000
0000
0000
0000
0000
0100
0000
0000
0000
0000
0000
0000
0000
0001
0000
0000
0000
0000
0000
0000
0000
,
0100
0000
0000
0000
0000
0000
0001
0000
0000
0000
0000
0000
0100
0000
0000
0000
0000
0000
0001
0000
0000
0000
0000
0000
0100
0000
0000
0000
0000
0000
0001
0000
0000
0000
0000
0000
0100
0000
0000
0000
0000
0000
0001
0000
0000
0000
0000
0000
0100
0000
0000
0000
0000
0000
0000
0000
0000
0000
0000
0000
0000
0000
0000
0000
0010
0000
0000
0000
0000
0000
0000
0000
0000
0000
0000
0000
0000
0000
0000
0000
1000
0000
0000
0000
0000
0000
0000
0000
0000
0000
0000
0000
0000
0000
0000
0000
0001
0000
0000
0000
0000
0000
0000
0000
0000
0000
0000
0000
0000
0000
0000
0000
0010
0000
0000
0000
0000
0000
0000
0000
0000
0000
0000
0000
0000
0000
0000
0000
0001
0000
0000
0000
0000
0000
0000
0000
0000
0000
0000
0000
0000
0000
0000
0000
1000
0000
0000
0000
0000
0000
0000
0000
0000
0000
0000
0000
0000
0000
0000
0000
0100
0000
0000
0000
0000
0000
0000
0000
0000
0000
0000
0000
0000
0000
0000
0000
0010
0000
0000
0000
0000
0000
0000
0000
0000
0000
0000
0000
0000
0000
0000
0000
,
0001
0010
0100
1000
0100
0010
0100
0001
0010
0100
1000
0001
,
0010
0100
1000
0010
0100
0010
0100
0001
0010
0100
1000
0100
,
0010
0001
0100
0010
1000
0010
1000
0100
0010
0001
1000
0100
,
0010
0001
0100
0010
1000
0100
0010
0001
0010
0100
1000
0100
,
1000
0100
0010
0001
0100
0010
1000
0100
0010
0001
1000
0010
,
1000
0100
0010
0001
0100
0001
0010
0100
1000
0010
0100
0001
,
0010
0100
0010
0100
0010
0001
0100
0010
1000
0100
0010
0001
,
0100
0010
1000
0100
0000
0010
0001
0000
0000
1000
0100
0010
,
0001
0100
0010
1000
0000
0100
1000
0000
0001
0010
0100
1000
,
0010
1000
0100
0010
0001
0100
0010
1000
0100
0010
0001
0100
,
0010
1000
0100
0010
0001
0010
0001
0010
0100
1000
0001
0010
,
0100
1000
0001
0010
0100
1000
0001
0010
0100
1000
0010
0100
,
0010
1000
0100
0010
0001
0100
0001
0010
0001
0100
0001
0010
,
0100
1000
0001
1000
0001
0010
0100
1000
0010
0100
0010
1000
,
0100
0010
0001
1000
0001
1000
0001
0010
0100
1000
0010
0100
,
0010
0000
1000
0000
0100
0000
0011
0000
0000
1000
0100
1000
0100
0000
0000
0010
1000
0010
1000
0000
0000
0010
1000
0010
,
1000
0000
0000
0100
0010
0001
0010
0000
0000
0100
1000
0001
0010
0000
0000
1000
0100
1000
0100
0000
0000
1000
0010
0100
,
0010
0000
0000
1000
0010
1000
0010
0000
0000
0100
0001
0100
0001
0000
0000
0010
0001
0100
0001
0000
0000
0010
0001
0100
,
0001
0000
0000
0010
0100
1000
0001
0000
0000
0010
0100
1000
0001
0000
0000
1000
0001
1000
0001
0000
0000
1000
0001
1000
,
0001
0000
0000
1000
0001
1000
0001
0000
0000
1000
0100
1000
0100
0000
0000
1000
0010
0100
0010
0000
0000
0100
0001
0100
,
0010
0000
0000
0100
0010
1000
0010
0000
0000
0100
0010
1000
0100
0000
0000
0010
0001
1000
0100
0000
0000
1000
0001
1000
,
0001
0000
0000
0010
0100
1000
0001
0000
0000
0010
0100
1000
0001
0000
0000
0010
0100
0010
0100
0000
0000
1000
0001
0100
,
0010
0000
0000
1000
0100
0010
0001
0000
0000
1000
0010
1000
0010
0000
0000
0100
0001
0100
0001
0000
0000
0010
1000
0010
,
1000
0000
0000
0001
0010
0100
1000
0000
0000
0100
0010
0001
1000
0000
0000
0010
0100
1000
0001
0000
0000
1000
0100
0010
,
0001
0000
0000
0010
1000
0010
1000
0000
0000
0001
0100
0001
0100
0000
0000
0100
1000
0100
1000
0000
0000
0010
0001
0010
,
0001
0000
0000
1000
0010
0100
0001
0000
0000
0010
0100
1000
0001
0000
0000
0010
0100
1000
0001
0000
0000
0100
0010
0100
,
0010
0000
0000
1000
0001
1000
0001
0000
0000
0100
0010
1000
0001
0000
0000
0100
0010
1000
0100
0000
0000
0010
0001
1000
,
0100
0000
0000
0010
0001
0010
0001
0000
0000
1000
0010
1000
0010
0000
0000
0100
0001
0100
0001
0000
0000
0001
0010
0100
,
1000
0000
0000
0001
0010
0100
1000
0000
0000
1000
0001
0100
0010
0000
0000
1000
0001
0100
0010
0000
0000
1000
0100
0010
,
0001
0000
0000
1000
0100
0010
0001
0000
0000
1000
0010
0100
0010
0000
0000
1000
0100
0010
0001
0000
0000
1000
0100
1000
,
0100
0000
0000
0010
0001
0100
0010
0000
0000
0010
0100
0010
0100
0000
0000
0100
0001
0010
0100
0000
0000
0100
1000
0001
,
0010
0000
0000
1000
0001
0010
0100
0000
0000
0000
1000
0000
0100
0000
0000
0000
0010
0000
0001
0000
0000
0000
1000
0000
,
0100
0010
0001
0200
0000
0310
1000
0000
0100
0010
0100
0010
,
0002
0000
0103
0001
0000
0000
1100
0000
0000
1000
0010
1000
,
0100
0010
0001
0100
0000
0000
1000
0001
1000
0010
0100
0010
,
1000
0100
0010
0001
0000
0000
1001
0000
1000
0100
0100
0010
,
0110
0000
0001
0100
0000
0010
1000
0000
0100
0010
0001
0100
,
0010
1000
0100
1000
0000
0020
0032
0003
0000
1100
0000
0020
,
0032
0003
0000
1100
0000
0020
0032
0003
0100
0010
0000
0100
,
0010
0100
0010
0200
0000
0300
0100
0000
0010
0001
0100
0001
,
0010
0000
0100
0020
0000
0030
0011
0000
0000
0001
0100
0010
,
1000
0100
0010
0200
0000
0300
0101
0000
0000
0010
0100
1000
,
0010
0000
0100
0020
0000
0030
1010
0000
0000
0010
1000
0100
,
0010
0001
0010
0200
0000
0300
1000
0010
0100
0002
0013
0100
,
1000
0010
0100
0002
0000
0013
0100
1000
0010
0200
0000
0301
,
0010
0100
1000
0020
0000
0130
0002
0000
0013
0200
0000
1300
,
0020
0000
0000
0000
0000
0000
0000
0000
0000
0000
0000
0000
0000
0000
0000
0000
0000
0000
0000
0000
0000
0000
0000
0000
0000
0000
0000
0000
0000
0000
0000
0000
0130
0000
0000
0000
0000
0000
0000
0000
0000
0000
0000
0000
0000
0000
0000
0000
0001
0000
0000
0000
0000
0000
0010
0000
0000
0000
0000
0000
0001
0000
0000
0000
0000
0000
0010
0000
0000
0000
0000
0000
0000
0000
0000
0000
0000
0000
0000
0000
1000
0000
0000
0000
0000
0000
0000
0000
0000
0000
0000
0000
0000
0000
0000
0000
0100
0000
0000
0000
0000
0000
0000
0000
0000
0000
0000
0000
0000
0000
0000
0000
0010
0000
0000
0000
0000
0000
0000
0000
0000
0000
0000
0000
0000
0000
0000
0000
0001
0000
0000
0000
0000
0000
0000
0000
0000
0000
0000
0000
0000
0000
0000
0000
1000
0000
0000
0000
0000
0000
0000
0000
0000
0000
0000
0000
0000
0000
0000
0000
0100
0000
0000
0000
0000
0000
0000
0000
0000
0000
0000
0000
0000
0000
0000
0000
0010
0000
0000
0000
0000
0000
0000
0000
0000
0000
0000
0000
0000
0000
0000
0000
,
0001
0000
0000
0000
0000
0000
0010
0000
0000
0000
0000
0000
0001
0000
0000
0000
0000
0000
0010
0000
0000
0000
0000
0000
0001
0000
0000
0000
0000
0000
0010
0000
0000
0000
0000
0000
0001
0000
0000
0000
0000
0000
0010
0000
0000
0000
0000
0000
0001
0000
0000
0000
0000
0000
0000
0000
0000
0000
0000
0000
0000
0000
0000
0000
1000
0000
0000
0000
0000
0000
0000
0000
0000
0000
0000
0000
0000
0000
0000
0000
0001
0000
0000
0000
0000
0000
0000
0000
0000
0000
0000
0000
0000
0000
0000
0000
0010
0000
0000
0000
0000
0000
0000
0000
0000
0000
0000
0000
0000
0000
0000
0000
0100
0000
0000
0000
0000
0000
0000
0000
0000
0000
0000
0000
0000
0000
0000
0000
1000
0000
0000
0000
0000
0000
0000
0000
0000
0000
0000
0000
0000
0000
0000
0000
0010
0000
0000
0000
0000
0000
0000
0000
0000
0000
0000
0000
0000
0000
0000
0000
0100
0000
0000
0000
0000
0000
0000
0000
0000
0000
0000
0000
0000
0000
0000
0000
0010
0000
0000
0000
0000
0000
0000
0000
0000
0000
0000
0000
0000
0000
0000
0000
,
0100
0010
0100
0010
1000
0001
0100
0001
0100
0010
1000
0001
,
1000
0010
0100
0010
1000
0010
1000
0001
0100
0001
1000
0010
,
1000
0000
0100
0000
0010
0000
0001
0000
1000
0000
0100
0000
0010
0000
0002
0003
0002
0003
0010
0000
0100
0000
1000
0000
,
0001
0000
0100
0000
0010
0000
1000
0000
0100
0000
0010
0000
0001
0000
2000
3000
2000
3000
0100
0000
0010
0000
0001
0000
,
1000
0100
0010
0001
0100
0001
0010
0100
1000
0001
0010
0100
,
1000
0010
0100
0010
1000
0100
0010
0001
0100
0010
0100
0001
,
0010
0000
0100
0000
1000
0000
0001
0000
0100
0000
0020
0030
0020
0030
0100
0000
0010
0000
1000
0000
0100
0000
0010
0000
,
0001
1000
0100
0010
0001
0100
0001
0010
0100
1000
0010
0100
,
0010
0000
0100
0000
0001
0000
0010
0000
0100
0000
2000
3000
2000
3000
0100
0000
1000
0000
0001
0000
1000
0000
0010
0000
,
0100
0010
0100
0010
0100
0001
0010
0100
1000
0001
0010
0100
,
1000
0010
1000
0010
1000
0010
0100
0010
1000
0100
0010
0001
,
1000
0100
0010
0001
0100
0001
0010
0100
1000
0010
0100
0010
,
0100
0001
0010
0100
1000
0001
0010
0100
1000
0010
0100
0010
,
1000
0000
0100
0000
0010
0000
0001
0000
1000
0000
0001
0000
0100
0000
0010
0000
2000
3000
2000
3000
0100
0000
0010
0000
,
0001
1000
0100
0010
0001
0100
0001
0100
0001
1000
0010
0100
,
0010
0000
0000
0000
0100
0000
0000
0000
0002
0000
0003
0000
0002
0000
0003
1000
0000
0000
0010
0000
0000
0100
0000
0000
0001
0000
0000
0010
0000
0000
0100
0000
0000
1000
0000
0000
0001
0000
0000
1000
0000
0000
0001
0000
0000
1000
0000
0000
,
0010
0100
0010
0100
0001
0010
0100
1000
0100
1000
0010
0100
0010
1000
0100
0010
,
0001
1000
0001
1000
0001
0010
0100
1000
0010
0100
0010
1000
0100
0010
0001
0100
,
0001
0010
0100
1000
0100
0010
0001
1000
0001
1000
0010
0100
0010
1000
0100
0010
,
0001
1000
0100
0010
0001
1000
0010
0100
0001
0010
0100
1000
0001
0010
0100
1000
,
0010
0100
0010
0100
0001
0100
0010
1000
0100
0010
0001
0010
0100
1000
0001
1000
,
0010
0100
0001
0010
0100
1000
0010
0100
0010
0100
0010
1000
0100
0010
0100
0010
,
0100
0010
1000
0100
0010
0001
0100
0001
0010
0001
0100
0001
0010
0100
1000
0001
,
0010
0000
0000
0100
0000
0000
1000
0000
0000
0001
0000
0000
0010
0000
0000
0000
0000
0000
0000
0000
1000
0000
0000
0000
1100
0000
0000
0000
0000
0000
0000
0000
0010
0000
0000
0000
0110
0000
0000
0000
0000
0000
0000
0000
0001
0000
0000
0000
,
0011
0000
1000
1100
0000
0010
0110
0000
0001
0011
0000
1000
,
1100
0000
1000
1010
0000
1000
1001
0000
0010
1010
0000
0100
,
0101
0000
0010
0110
0000
1000
1100
0000
1000
1001
0000
0010
,
0110
0000
1000
1100
0000
0100
0110
0000
0010
0011
0000
0001
,
1001
0000
1000
1010
0000
0010
0110
0000
0100
0101
0000
0001
,
0011
0000
0010
0110
0000
0100
1100
0000
1000
1010
0000
0010
,
1010
0000
1000
1100
0000
0100
0110
0000
0010
0011
0000
0001
,
1001
0000
0000
0000
0010
0000
1000
0100
0010
0001
1000
0010
0100
0001
0010
0100
1000
0001
0010
0100
1000
0010
0100
0010
,
1000
0100
0010
0001
0010
0001
0010
0100
1000
0100
1000
0010
0100
0010
1000
0100
0010
0001
0100
0001
0010
0001
0100
0001
,
0010
0100
1000
0001
1000
0001
1000
0010
0100
0001
0010
0100
1000
0001
0010
0100
1000
0010
0100
0010
1000
0100
0010
0001
,
1000
0100
0010
0001
0010
0001
0100
0001
0010
0100
1000
0001
0010
0100
1000
0100
1000
0010
0100
0010
1000
0100
0010
0001
,
1000
0100
0010
0001
1000
0010
0100
0010
0100
0010
1000
0100
0010
0100
0010
0100
1000
0010
0100
0010
1000
0100
0010
0100
,
1000
0010
0100
0010
1000
0100
0010
0001
0100
0001
0010
0100
1000
0001
0010
0100
1000
0010
0100
0010
0100
0010
1000
0010
,
1000
0010
0100
0010
1000
0100
0010
0001
1000
0001
1000
0010
0100
0010
0100
0001
0010
0001
0100
0001
0010
0001
0100
0001
,
0010
0100
1000
0001
0010
0100
1000
0010
0100
0010
1000
0100
0010
0001
1000
0010
1000
0001
1000
0010
1000
0100
0010
0001
,
1000
0100
0010
0001
1000
0100
M010
0001
1000
0010
0100
0001
0010
0100
1000
0001
0010
0100
1000
0010
1000
0010
1000
0100
,
0010
0001
1000
0100
0010
0001
M100
0010
0100
0001
0010
0100
1000
0001
0010
0100
1000
0010
0100
0010
1000
0100
0010
0001
,
0010
0001
0010
0100
1000
0001
M010
0100
1000
0001
1000
0001
1000
0010
0100
0010
0100
0001
0100
0001
0100
0001
0010
0001
,
0010
0100
0010
0100
0001
0010
010M
1000
0001
0010
0100
1000
0010
0100
0010
0100
0010
0100
0010
0100
0010
0100
0010
1000
,
0100
0010
0001
1000
0100
0010
0M01
1000
0100
0010
1000
0010
0100
0001
0010
0100
1000
0001
0010
0100
1000
0001
0100
0010
,
1000
0100
0010
0001
1000
0100
M010
0001
1000
0010
1000
0010
0100
0010
1000
0100
0010
0001
1000
0010
0100
0001
0010
0100
,
1000
0001
0010
0100
1000
0010
M100
0001
0010
0100
1000
0001
0010
0100
1000
0010
0100
0010
1000
0100
0010
0001
1000
0001
,
1000
0001
0010
0100
1000
0001
M010
0100
1000
0001
1000
0010
0100
0001
1000
0100
0010
0100
1000
0010
1000
0010
0100
0001
,
1000
0001
0010
0100
1000
0100
M020
0032
2003
3020
0230
0302
0023
0230
2300
3002
0023
0230
2300
3020
0230
0302
0023
0230
,
2300
3001
0010
0100
1000
0010
0100
0001
0010
0100
1000
0001
0010
0100
1000
0010
0100
0010
2000
3200
0320
0032
2003
3020
,
0230
0320
2030
3200
0320
0032
2003
3200
0320
0032
2003
3020
0230
0320
0230
0302
0023
0230
2300
3001
0100
0010
1000
0100
,
0010
0001
1000
0100
0010
0001
1000
0010
0100
0010
1000
0100
0010
0001
1000
0100
0010
0001
1000
0001
1000
0001
0010
0100
,
1000
0001
1000
0001
1000
0010
2000
3020
2030
3020
2030
3200
0320
0032
2003
3020
0230
0320
2030
3200
0320
0032
2003
3002
,
2003
3002
0023
0230
2300
3002
0023
0230
2300
3020
0230
0320
0230
0320
0230
0302
0203
0302
0023
0130
1000
0001
0010
0100
,
1000
0010
0100
0010
1000
0100
0010
0001
1000
0100
0010
0001
1000
0010
0100
0010
0100
0010
1000
0100
0010
0001
1000
0100
,
0010
0001
1000
0100
0010
0001
0100
0001
0010
0001
0100
0001
0010
0100
1000
0001
0010
0100
1000
0010
0100
0010
1000
0100
,
0010
0001
1000
0100
0010
0001
2000
3002
0203
0320
0230
0320
0230
0302
0023
0230
2300
3002
2003
3020
2030
3200
0320
0032
,
0203
0302
0023
0230
2300
3002
0203
0320
2030
3002
0203
0320
2030
3002
0203
0320
2030
3200
2300
3020
0230
0320
0230
0302
,
0023
0230
2300
3002
0023
0230
2300
3020
0230
0320
2030
3200
0320
0032
2003
3200
0320
0032
2003
3020
2030
3020
2030
3200
,
2300
3200
2300
3020
2030
3020
2030
3200
0320
0230
0320
0230
0320
0230
2300
3200
2300
3200
2300
3002
0203
0320
2030
3200
,
0320
0032
0023
0230
0320
0230
0301
1000
0010
0100
0001
1000
0001
0100
0010
1000
0100
0010
0001
0010
0001
0010
0001
1000
,
0010
1000
0010
0100
0001
0010
0100
1000
0001
0010
0100
1000
0001
0010
0100
1000
0001
0100
0010
0100
0010
0100
0010
0100
,
0010
2000
3200
0320
0032
2003
3020
0230
0320
2030
3200
0320
0032
2003
3002
2003
3002
2003
3002
0023
0230
2300
3002
0023
,
0230
1300
0001
0010
0100
1000
0010
0100
0010
1000
0100
0010
0001
1000
0100
0010
0001
0010
0002
0203
0320
2030
3200
0320
,
0032
2003
3200
0320
0032
0003
M000
0000
00M0
0000
0M00
0000
000M
0000
M000
0000
00M0
0000
0M00
0000
00M0
0000
M000
0000
,
0M00
00M0
000M
M000
0M00
00M0
0M00
000M
0M00
000M
00M0
0M00
,
M000
000M
0M00
00M0
0M00
00M0
0M00
M000
00M0
M000
000M
0M00
,
00M0
000M
M000
0M00
M000
00M0
0M00
00M0
0M00
000M
0M00
000M
,
00M0
0M00
M000
000M
0M00
00M0
M000
000M
0M00
00M0
M000
0M00
,
00M0
000M
M000
00M0
0M00
000M
00M0
0M00
M000
000M
00M0
000M
,
0M00
00M0
M000
0M00
00M0
000M
00M0
000M
00M0
0M00
M000
00M0
,
0M00
000M
M000
00M0
0M00
000M
00M0
0M00
M000
000M
00M0
0M00
,
M000
00M0
0M00
00M0
0M00
000M
00M0
0M00
M000
0M00
M000
0M00
,
00M0
000M
00M0
000M
00M0
0M00
M000
00M0
0M00
000M
00M0
M000
,
0M00
M000
00M0
0M00
000M
0M00
00M0
M000
0M00
00M0
000M
0M00
,
00M0
M000
00M0
0M00
000M
00M0
000M
00M0
00M0
00M0
0M00
M000
,
000M
0M00
M000
00M0
0M00
00M0
000M
00M0
0M00
M000
00M0
0M00
,
00M0
0M00
000M
00M0
0M00
M000
00M0
M000
0M00
000M
0M00
000M
,
00M0
0M00
M000
000M
0M00
0000
1000
0100
0000
0100
1000
0000
,
1000
0100
0000
0100
0010
0000
0010
0001
0000
0001
1000
0000
,
1000
0010
0000
0010
0100
0000
0100
0001
0000
0001
0100
0000
,
0000
0100
0001
1000
0010
0100
0001
1000
0000
0010
1000
0000
,
0000
1100
0000
0010
0001
0000
0001
0100
0000
0000
0101
0000
,
1000
0200
0300
1000
0200
0300
1000
0200
0300
0000
1200
0300
,
0010
0001
0000
0001
0100
0000
0100
0010
0000
0010
2000
0000
,
3000
0010
0100
1000
0001
0100
0010
2000
0000
3000
1200
0000
,
0300
0001
0010
0100
1000
0010
0100
1100
0000
0000
1010
0000
,
0000
0110
0000
0010
0001
0000
0001
1000
0000
1000
0100
0000
,
0100
0010
0000
0001
0100
0000
0010
1000
0000
0100
0001
0000
,
1100
1000
0100
0010
0001
1000
0001
1100
0000
0010
0100
0000
,
0000
1100
0010
0001
1000
0100
0010
0001
0000
1000
0100
0000
,
0000
1100
0000
0010
0100
0000
0000
0011
0000
0010
0110
0000
,
1000
0000
0000
0000
0000
0000
0000
0000
0000
0000
0000
0000
0000
0000
0000
0000
1100
0000
0000
0000
0000
0000
0000
0000
0000
0000
0000
0000
0000
0000
0000
0000
0000
0000
0000
0000
0000
0000
0000
0000
0000
0000
0000
0000
0000
0000
0000
0000
0001
0000
0000
0000
0000
0000
0000
0000
0000
0000
0000
0000
0000
0000
0000
0000
0011
0000
0000
0000
0000
0000
0000
0000
0000
0000
0000
0000
0000
0000
0000
0000
0000
0000
0000
0000
0000
0000
0000
0000
0000
0000
0000
0000
0000
0000
0000
0000
1000
0000
0000
0000
0000
0000
0100
0000
0000
0000
0000
0000
1000
0000
0000
0000
0000
0000
0010
0000
0000
0000
0000
0000
0000
0000
0000
0000
0000
0000
0000
0000
0100
0000
0000
0000
0000
0000
0000
0000
0000
0000
0000
0000
0000
0000
0000
0000
0010
0000
0000
0000
0000
0000
0000
0000
0000
0000
0000
0000
0000
0000
0000
0000
0100
0000
0000
0000
0000
0000
0000
0000
0000
0000
0000
0000
0000
0000
0000
0000
0001
0000
0000
0000
0000
0000
0000
0000
0000
0000
0000
0000
0000
0000
0000
0000
,
0010
0000
0000
0000
0000
0000
0000
0000
0000
0000
0000
0000
0000
0000
0000
0000
0100
0000
0000
0000
0000
0000
0000
0000
1000
0000
0000
0000
0000
0000
0000
0000
0001
0000
0000
0000
0000
0000
0000
0000
0010
0000
0000
0000
0000
0000
0000
0000
0100
0000
0000
0000
0000
0000
0000
0000
1000
0000
0000
0000
0000
0000
0000
0000
0010
0000
0000
0000
0000
0000
0000
0000
0100
0000
0000
0000
0000
0000
0010
0000
0000
0000
0000
0000
0100
0000
0000
0000
0000
0000
0010
0000
0000
0000
0000
0000
0100
0000
0000
0000
0000
0000
0010
0000
0000
0000
0000
0000
0100
0000
0000
0000
0000
0000
0010
0000
0000
0000
0000
0000
1000
0000
0000
0000
0000
0000
0000
0000
0001
0000
0000
0000
0000
0000
0000
0000
0000
0000
0000
0000
0000
0000
0000
0000
0100
0000
0000
0000
0000
0000
0000
0000
0000
0000
0000
0000
0000
0000
0000
0000
0010
0000
0000
0000
0000
0000
0000
0000
0000
0000
0000
0000
0000
0000
0000
0000
1000
0000
0000
0000
0000
0000
0000
0000
0000
0000
0000
0000
0000
0000
0000
0000
,
0100
0010
0001
1000
0100
0010
0001
0100
0001
0010
0100
1000
,
0001
0010
0100
1000
0010
0100
0010
1000
0100
0010
0001
1000
,
0100
0010
0001
1000
0010
1000
0010
0100
0010
0100
0001
0100
,
0001
0010
0100
1000
0001
0010
0100
1000
0010
0100
0010
1000
,
0100
0010
0001
1000
0100
0010
0001
0100
0001
0010
0100
1000
,
0001
0010
0100
1000
0010
0100
0010
1000
0100
0010
0001
1000
,
0100
0010
0001
0100
0001
0010
0100
1000
0001
0010
0100
1000
,
0001
0010
0100
1000
0001
1000
0001
1000
0001
0010
0100
1000
,
0100
0010
0100
1000
0010
0100
0010
1000
0100
0010
0001
1000
,
0001
1000
0010
1000
0100
0010
0100
0010
1000
0100
0010
0001
,
0100
0001
0010
0001
0100
0001
0010
0100
1000
0001
0010
0100
,
1000
0010
0100
0010
1000
0100
0010
0001
1000
0100
1000
0100
,
1000
0010
0100
0010
0100
0001
0100
0001
0010
0001
0010
0100
,
0010
0100
1000
0100
1000
0010
1000
0010
0100
0010
0100
0001
,
0100
0001
0010
0001
0010
0100
0010
0100
1000
0100
1000
0010
,
1000
0000
0010
0000
1000
0000
0100
0000
0010
0000
0001
0000
1000
0000
0002
0000
0103
0000
0020
0030
0020
0030
0100
0000
,
0010
0100
0001
0010
0100
1000
0001
0010
0100
1000
0010
0100
,
0010
0000
1000
0000
0100
0000
0010
0000
0001
0000
1000
0000
0100
0000
0010
0000
0100
0000
0010
0000
0002
0003
0002
0003
,
0010
0001
1000
0001
1000
0001
0010
0100
1000
0010
0100
0010
,
1000
0100
0010
0001
0010
0001
0010
0100
1000
0010
0100
0010
,
1000
0100
0010
0001
1000
0001
1000
0001
0010
0100
1000
0010
,
0100
0010
1000
0100
0010
0001
1000
0001
1000
0010
1000
0010
,
0100
0010
0100
0001
0010
0100
1000
0001
0010
0100
1000
0010
,
0100
0010
0100
0001
0100
0001
0100
0001
0010
0100
1000
0001
,
0010
0100
1000
0010
0100
0010
1000
0100
0010
0001
0010
0001
,
0010
0100
1000
0001
0010
0100
1000
0010
0100
0010
0100
0010
,
1000
0100
0010
0001
1000
0001
1000
0001
0010
0100
1000
0010
,
0100
0001
1000
0010
0100
0001
1000
0010
0100
0001
0010
0100
,
1000
0010
0100
0001
1000
0010
0100
0001
0010
0100
1000
0001
,
1000
0001
0010
0100
1000
0100
0010
0001
1000
0010
0100
0001
,
0010
0100
1000
0001
0010
0100
1000
0010
0100
0010
1000
0100
,
0010
0000
0001
0000
1000
0000
0001
0000
1000
0000
0001
0000
0010
0000
0100
1000
0001
0010
0100
1000
0010
0100
0010
1000
,
0100
0010
0001
1000
0100
0010
0001
1000
0010
0100
0010
1000
0100
0010
0001
1000
0100
0010
0001
0010
0001
0100
0001
0100
,
0001
0010
0100
1000
0010
0100
0010
1000
0100
0010
0001
1000
0001
1000
0001
1000
0010
0100
0010
1000
0100
0010
0001
1000
,
0100
1000
0100
1000
0010
0100
0010
1000
0100
1000
0010
0100
0001
0100
0001
0010
0100
1000
0001
0010
0100
1000
0010
1000
,
0100
1000
0010
0100
0001
0100
0001
0010
0100
1000
0010
0100
0010
0100
0001
0010
0100
1000
0001
0010
0100
1000
0010
1000
,
0010
0100
0010
1000
0100
0010
0001
1000
0100
0010
0001
1000
0001
1000
0010
0100
0010
1000
0100
0010
0001
1000
0010
0100
,
0010
1000
0100
0010
0001
1000
0100
0010
0001
0100
0001
0010
0001
0100
0001
0010
0100
1000
0001
0010
0100
1000
0010
0100
,
0010
1000
0100
0010
0001
1000
0001
1000
0010
0100
0010
0100
0001
0010
0100
1000
0001
0010
0100
1000
0010
0100
0010
1000
,
0100
0010
0001
1000
0100
0010
0001
1000
0001
1000
0001
1000
0010
M400
0000
0000
0000
0000
0000
0000
0000
0000
0000
0000
,
0000
0000
0000
0000
0000
0000
0000
0000
0000
0000
0000
0000
0000
4300
0000
0000
0000
0000
0000
0000
0000
0000
0000
0000
,
0000
0000
0000
0000
0000
0000
0000
0000
0000
0000
0000
0000
0000
3040
0000
0000
0000
0000
0000
0000
0000
0000
0000
0000
,
0000
0000
0000
0000
0000
0000
0000
0000
0000
0000
0000
0000
0000
0430
0000
0000
0000
0000
0000
0000
0000
0000
0000
0000
,
0000
0000
0000
0000
0000
0000
0000
0000
0000
0000
0000
0000
0000
0304
0000
0000
0000
0000
0000
0000
0000
0000
0000
0000
,
0000
0043
0000
0000
0000
0000
0000
0000
0000
0000
0000
0000
0000
0430
0000
0000
0000
0000
0000
0000
0000
0000
0000
0000
,
0000
4300
0000
0000
0000
0000
0000
0000
0000
0000
0000
0000
0000
0000
3400
0000
0000
0000
0000
0000
4300
0000
0000
0000
,
0000
0000
0000
0000
0000
0000
0000
0000
0000
0000
0000
0000
0000
0000
0000
0000
3040
0000
0000
0000
0000
0000
0000
0000
0000
0000
0000
0000
0000
0000
0000
0000
0000
0000
0000
0000
0000
0000
0000
0000
0000
0000
0000
0000
0000
0000
0000
0000
0000
0000
0000
0000
0000
0000
0000
0000
0000
0000
0000
0000
0000
0000
0000
0000
0430
0000
0000
0000
0000
0000
0000
0000
0000
0000
0000
0000
0000
0000
0000
0000
0000
0000
0000
0000
0000
0000
0000
0000
0000
0000
0000
0000
0000
0000
0000
0000
0000
0000
0000
0000
0000
0000
0000
0000
0000
0000
0000
0000
0000
0000
0000
0000
0300
0000
0001
0000
0000
0000
0000
0000
0010
0000
0000
0000
0000
0000
0001
0000
0000
0000
0000
0000
0000
0000
0000
0000
0000
0000
0000
0000
0000
0000
0000
0000
0010
0000
0000
0000
0000
0000
0000
0000
0000
0000
0000
0000
0000
0000
0000
0000
0100
0000
0000
0000
0000
0000
0000
0000
0000
0000
0000
0000
0000
0000
0000
0000
1000
0000
0000
0000
0000
0000
0000
0000
0000
0000
0000
0000
0000
0000
0000
0000
,
0001
0000
0000
0000
0000
0000
0000
0000
0000
0000
0000
0000
0000
0000
0000
0000
0010
0000
0000
0000
0000
0000
0000
0000
0100
0000
0000
0000
0000
0000
0000
0000
0010
0000
0000
0000
0000
0000
0000
0000
0100
0000
0000
0000
0000
0000
0000
0000
0010
0000
0000
0000
0000
0000
0000
0000
0100
0000
0000
0000
0000
0000
0000
0000
0010
0000
0000
0000
0000
0000
0000
0000
0100
0000
0000
0000
0000
0000
0010
0000
0000
0000
0000
0000
0100
0000
0000
0000
0000
0000
0010
0000
0000
0000
0000
0000
0100
0000
0000
0000
0000
0000
0010
0000
0000
0000
0000
0000
0100
0000
0000
0000
0000
0000
0010
0000
0000
0000
0000
0000
2000
0000
0000
0000
0000
0000
0000
0000
3002
0000
0000
0000
0000
0000
0000
0000
0203
0000
0000
0000
0000
0000
0000
0000
0320
0000
0000
0000
0000
0000
0000
0000
2030
0000
0000
0000
0000
0000
0000
0000
3200
0000
0000
0000
0000
0000
0000
0000
0320
0000
0000
0000
0000
0000
0000
0000
0032
0000
0000
0000
0000
0000
0000
0000
2003
0000
0000
0000
0000
0000
0000
0000
,
3200
0320
0032
0203
0302
0023
0230
2300
3002
0023
0230
2300
3020
0230
0320
2030
3200
0320
0032
0203
0320
2030
3200
0320
,
0031
0100
0001
0010
0001
0100
0001
0010
0100
1000
0010
0100
0010
0100
0001
0010
0100
1000
0001
1000
0001
1000
0010
0100
,
0010
0100
0001
0010
0100
1000
0001
0010
0100
1000
0010
0100
0010
1000
0100
0010
0001
0010
0001
1000
0001
1000
0010
0100
,
0010
0100
0001
0010
0100
1000
0001
0010
0100
1000
0010
0100
0010
1000
0100
0010
0001
1000
0100
0010
0001
0100
0001
0010
,
0100
1000
0001
0010
0100
1000
0010
0100
0010
1000
0001
0010
0100
1000
0001
0010
0100
1000
0010
0100
0010
1000
0100
0010
,
0001
1000
0001
0010
0100
1000
0010
1000
0100
0010
0001
0100
0001
0010
0100
1000
0001
1000
0010
0100
0010
0100
0001
0010
,
0100
1000
0001
1000
0010
0100
0010
1000
0010
1000
0100
0010
0001
1000
0100
0010
0001
0100
0001
0010
0100
1000
0010
0100
,
0001
0010
0100
0010
0100
1000
0001
0010
0100
0010
0100
1000
0010
1000
0010
1000
0100
1000
0010
1000
0001
1000
0010
0100
,
2000
3002
0023
0230
2300
3020
0230
0302
0023
0230
2300
3002
0023
0230
2300
3020
2030
3020
2030
3200
0320
0032
2003
3200
,
0320
0230
0320
0230
2300
3020
0230
0320
2030
3200
0320
0032
0203
0302
0023
0230
2300
3020
0230
0320
0230
0302
0023
0230
,
2300
3002
0023
0230
2300
3020
0230
0320
0230
0302
0023
0230
2300
3002
0023
0230
2300
3020
0230
0320
0230
0302
0023
0230
,
2300
3002
2003
3020
0230
0320
2030
3200
0320
0032
2003
3200
0320
0032
0203
0302
0023
0230
2300
3002
0023
0230
2300
3020
,
0230
0320
0230
0302
0023
0230
2300
3002
0023
0230
0320
0230
0302
0023
0230
2300
3020
0230
0320
2030
3200
0320
0032
2003
,
3002
2003
3020
0230
0320
0230
0302
0023
0230
2300
3002
0023
0230
2300
3020
0230
0320
2030
3200
0320
0032
0023
0032
0023
,
0230
0320
0230
2300
3200
2300
3200
0320
0230
0302
0023
0230
2300
3200
0320
0032
2003
3020
0230
0320
0230
0302
0023
0230
,
2300
3002
0023
0230
2300
3020
0230
0320
0230
0302
0023
0032
2003
3000
0100
0000
1000
0000
0010
0000
0100
0000
0001
0000
,
0010
0100
1000
0001
0010
0100
0010
0100
0001
0010
0100
1000
,
0010
0100
0010
0100
0001
0010
0100
1000
0001
0010
0100
1000
,
0010
0100
0001
0010
0100
1000
0010
0100
0010
1000
0100
0010
,
0001
1000
0100
0010
0001
0010
0001
0010
0100
1000
0010
0100
,
0010
0100
0001
0010
0100
1000
0001
1000
0001
1000
0010
0100
,
0010
0100
0001
0010
0100
1000
0010
0100
0001
1000
0010
0100
,
0001
0010
0100
1000
0001
0010
0100
1000
0010
1000
0100
0010
,
0001
1000
0010
0100
0010
0100
0001
0110
1000
0001
2000
3010
,
0100
0020
0130
0001
0020
0130
1000
0002
1003
0001
2000
3010
,
0100
0020
0130
0001
0020
0130
1000
0002
0013
0100
2000
3010
,
0100
0020
1030
0100
0020
0031
1000
0002
1003
0010
0200
0310
,
0100
0002
0103
0010
0200
0301
0010
0200
1300
0010
0200
0310
,
1000
0020
0130
0001
2000
3010
0100
0020
0130
0001
0020
0130
,
1000
0002
0013
0100
0020
0130
0010
0200
1300
0001
0200
0310
,
1000
0020
0130
0010
0200
0301
0100
0002
0013
0100
2000
3001
,
0010
0000
0000
0000
0200
0000
0000
0000
1300
0000
0000
0000
0010
0000
0000
0000
0200
0000
0000
0000
0310
0000
0000
0000
0100
0000
0000
0000
0020
0000
1000
0000
0030
0001
0000
0000
0010
0000
0000
0100
0000
0000
1000
0000
0000
0010
0000
0000
,
1000
0010
1000
0100
0010
0001
1000
0100
0010
0001
1000
0001
1000
0010
0100
0010
,
0100
0001
0010
0100
1000
0001
0010
0100
1000
0010
1000
0010
0100
0010
0100
0001
,
0010
0100
0010
0100
1000
0010
0100
0010
0100
0001
0010
0100
0010
0100
1000
0010
,
0100
0010
0100
0001
0010
0100
1000
0001
0100
0010
1000
0001
0100
0010
1000
0100
,
0010
0001
0010
0001
0010
0100
1000
0001
1000
0001
1000
0010
0100
0010
0100
0001
,
0010
0100
1000
0010
0100
0010
1000
0100
0010
0001
0100
0001
0010
0100
1000
0001
,
0010
0100
1000
0001
0100
0010
1000
0100
0010
0001
1000
0001
1000
0001
0010
0100
,
1000
0000
0000
0010
0000
0000
0100
0000
0000
0010
0000
0000
0100
0000
0000
0010
0000
0000
0100
0000
0000
0001
0000
0000
0010
0000
0100
0000
0000
0000
1000
0000
0000
0001
0000
0000
0100
0000
0000
0010
0000
0000
0100
0000
0000
0001
0000
0000
,
0010
0100
1000
0001
0010
0100
1000
0010
0100
0010
0100
0001
0100
0001
1000
0001
,
0010
0000
0000
0100
0000
0000
1000
0000
0000
0100
0000
0000
0010
0000
0000
0100
0000
0000
1000
0000
0000
0001
0000
0000
0010
0000
0100
0000
0010
0000
0100
0000
0001
0000
0010
0000
0100
0000
1000
0000
0001
0000
0010
0000
0100
0000
1000
0000
,
0010
0000
0000
0100
0000
0000
0001
0000
0000
0010
0000
0000
0100
0000
0000
1000
0000
0000
0001
0000
0000
1000
0000
0000
0010
0000
0100
0000
0010
0000
0100
0000
0010
0000
0100
0000
0010
0000
0000
0100
0000
0000
0001
0000
0000
0010
0000
0000
,
0100
0000
0000
1000
0000
0000
0010
0000
0000
0100
0000
0000
0010
0000
0000
0100
0000
0000
0001
0000
0000
0010
0000
0000
0100
0000
1000
0000
0001
0000
0010
0000
0100
0000
1000
0000
0001
0000
0010
0000
0100
0000
1000
0000
0001
0000
0010
0000
,
0100
1000
0001
1000
0010
1000
0010
0100
0001
0010
0100
0010
0001
0010
0001
1000
,
0001
0000
0000
1000
0000
0000
0010
0000
0000
1000
0000
0000
0100
0000
0000
1000
0000
0000
0100
0000
0000
0010
0000
0000
0001
0000
0000
1000
0000
0000
0001
0000
0000
1000
0000
0000
0001
0000
1000
0000
0010
0000
0100
0000
0010
0000
0100
0000
,
0001
0000
0010
0000
0100
0000
1000
0000
0001
0000
0010
0000
0100
0000
0000
1000
0000
0000
0001
0000
0000
1000
0000
0000
0001
0000
0000
1000
0000
0000
0001
0000
0000
0010
0000
0000
0100
0000
0000
1000
0000
0000
0010
0000
0000
0100
0000
0000
,
0001
0000
0000
1000
0000
0000
0010
0000
0000
1000
0000
0000
0010
0000
0000
0100
0000
0000
0001
0000
0000
0010
0000
0000
0100
0000
0000
0000
1000
0000
0000
0000
0001
0000
0000
0000
0100
0000
0000
0000
0010
0000
0000
0000
0100
0000
0000
0000
,
0001
0010
0100
1000
0001
0010
0100
1000
0010
1000
0010
0100
,
0010
0100
0001
0010
0100
1000
0001
0010
0100
1000
0010
0100
,
0010
1000
0100
0010
0001
1000
0001
0100
0010
0100
0001
0010
,
0100
1000
0001
0010
0100
1000
0010
0100
0010
1000
0100
0010
,
0001
1000
0100
0010
0001
0100
0001
0010
0001
0100
0001
0010
,
0100
1000
0001
0100
0010
0100
0010
0100
0001
0010
0100
1000
,
0010
0100
0010
1000
0001
1000
0001
1000
0001
1000
0010
0100
,
0010
1000
0100
0010
0001
1000
0100
0010
0001
0100
0001
0010
,
0100
1000
0001
0010
0100
1000
0010
0100
0010
1000
0100
0010
,
0001
1000
0001
1000
0010
0100
0010
0100
0001
0010
0100
1000
,
0001
0010
0100
1000
0010
0100
0010
1000
0100
0010
0001
1000
,
0100
0010
0001
0010
0001
0010
0100
0010
0100
1000
0010
0100
,
0010
0100
0001
0010
0100
1000
0001
1000
0001
1000
0010
0100
,
0001
0010
0100
1000
0001
0010
0100
1000
0010
0100
0010
1000
,
0100
0010
0001
0010
0001
0010
0100
0010
0100
1000
0100
1000
,
0010
0000
0000
0000
0100
0000
0000
0000
0010
0000
0000
0000
0100
0000
0000
0000
0001
0000
0000
0000
0010
0000
0000
0000
0100
0000
0000
0000
2000
0000
0MMM
0000
0000
0M00
0000
0000
0MMM
0000
0000
0M00
0000
0000
0MMM
0000
0000
0000
0000
0000
,
0M0M
0M0M
00M0
0M0M
0M0M
0000
0MMM
0M0M
0M0M
0M0M
0MMM
0000
0MM0
0M0M
0M0M
0M0M
,
0MM0
0000
0M0M
0M0M
0M0M
0M0M
0MMM
0000
0MMM
000M
00M0
0M00
0MMM
0000
0M0M
0M0M
,
0M0M
0M0M
00M0
0000
00M0
00M0
00M0
00M0
00M0
0000
0MMM
0M0M
0M0M
0M0M
0MMM
0000
,
0M00
0M00
0M00
0M00
0MMM
0000
0MMM
0M0M
0MMM
0M0M
0M0M
0000
0MMM
00M0
00M0
00M0
,
00M0
0000
00M0
00M0
00M0
00M0
00M0
0000
0MMM
0M0M
0M0M
0M0M
0MMM
0000
0MMM
0M0M
,
0M0M
0M0M
0M0M
0000
00M0
00M0
00M0
0000
00M0
0000
00M0
00M0
00M0
0000
00M0
0000
,
0M00
000M
0M00
000M
0M00
000M
0M00
000M
0M00
000M
0M00
000M
0M00
000M
0M00
000M
,
0M00
000M
0M00
000M
0M00
000M
0M00
000M
0M00
000M
0M00
000M
0M00
000M
0M00
000M
,
0M00
000M
0M00
000M
0M00
000M
0M00
000M
0M00
000M
0M00
000M
0M00
000M
0M00
000M
,
0M00
0000
0000
000M
0000
0000
0M00
0000
0000
000M
0000
0000
0M00
0000
0000
0000
0020
0000
3000
0000
0000
0000
0000
0000
0000
0000
0000
0000
0230
0000
0000
0000
0000
0000
0000
0000
0000
0000
0000
0000
0320
0000
0000
0000
0000
0000
0000
0000
,
0000
0230
0000
0000
2300
0000
0000
3002
0000
0000
0203
0000
,
0000
0320
0000
0000
2030
0000
0000
3002
0000
0000
0203
0000
,
0000
0320
0000
0000
2030
0000
0000
3002
0000
0000
2003
0000
,
0000
3020
0000
0000
0230
0000
0000
0302
0000
0000
0023
0000
,
0000
0230
0000
0000
2300
0000
0000
0100
0000
0000
0100
0000
,
0000
0100
0000
0000
3020
0000
0000
1000
0000
0000
1000
0000
,
0000
1000
0000
0000
0230
0000
0000
0010
0000
0000
0010
0000
,
0000
0010
0000
0000
0302
0000
0000
1000
0000
0000
1000
0000
,
0000
1000
0000
0000
2003
0000
0000
0100
0000
0000
3020
0000
,
0000
0100
0000
0000
0230
0000
0000
0001
0000
0000
0302
0000
,
0000
0100
0000
0000
2003
0000
0000
3200
0000
0000
0320
0000
,
0000
0000
0000
0000
0000
0000
0000
0000
0000
0000
0000
0000
0000
0000
0000
0000
0032
0000
0000
0000
0000
0000
0000
0000
0000
0000
0000
0000
0000
0000
0000
0000
0000
0000
0000
0000
0000
0000
0000
0000
0000
0000
0000
0000
0000
0000
0000
0000
0000
0000
0000
0000
0000
0000
0000
0000
0000
0000
0000
0000
1000
0000
0000
0000
0003
0000
0010
0000
0000
0000
0000
0000
1000
0000
0000
0000
0000
0000
0010
0000
0000
0000
0000
0000
1000
0000
0000
0000
0000
0000
0000
0000
0000
0000
0000
0000
0010
0000
0000
0000
0000
0000
0000
0000
0000
0000
0000
0000
0000
0000
0000
0000
1000
0000
0000
0000
0000
0000
0000
0000
0000
0000
0000
0000
0000
0000
0000
0000
0001
0000
0000
0000
0000
0000
0000
0000
0000
0000
0000
0000
0000
0000
0000
0000
1000
0000
0000
0000
0000
0000
0000
0000
0000
0000
0000
0000
0000
0000
0000
0000
1000
0000
0000
0000
0000
0000
0000
0000
0001
0000
0000
0000
0000
0000
0000
0000
1000
0000
0000
0000
0000
0000
0000
0000
0001
0000
0000
0000
0000
0000
0000
0000
,
1000
0000
0000
0000
0000
0000
0000
0000
0001
0000
0000
0000
0000
0000
0000
0000
1000
0000
0000
0000
0000
0000
0000
0000
0001
0000
0000
0000
0000
0000
1000
0000
0000
0000
0000
0000
0001
0000
0000
0000
0000
0000
1000
0000
0000
0000
0000
0000
0001
0000
0000
0000
0000
0000
1000
0000
0000
0000
0000
0000
0001
0000
0000
0000
0000
0000
1000
0000
0000
0000
0000
0000
0001
0000
0000
0000
0000
0000
0000
0000
0100
0000
0000
0000
0000
0000
0000
0000
0000
0000
0000
0000
0000
0000
0000
0000
0001
0000
0000
0000
0000
0000
0000
0000
0000
0000
0000
0000
0000
0000
0000
0000
1000
0000
0000
0000
0000
0000
0000
0000
0000
0000
0000
0000
0000
0000
0000
0000
0020
0000
0000
0000
0000
0000
0000
0000
0030
0000
0000
0000
0000
0000
0000
0000
0020
0000
0000
0000
0000
0000
0000
0000
0030
0000
0000
0000
0000
0000
0000
0000
0100
0000
0000
0000
0000
0000
0000
0000
0000
0000
0000
0000
0000
0000
0000
0000
0001
0000
0000
0000
0000
0000
0000
0000
0000
0000
0000
0000
0000
0000
0000
0000
,
0010
0100
1000
0001
0010
0100
1000
0010
0100
0010
1000
0001
,
0100
0010
0100
0001
0010
0100
0010
0001
1000
0010
1000
0001
0100
0001
1000
0100
,
0010
0001
1000
0001
1000
0001
1000
0010
0100
0001
0010
0100
1000
0001
1000
0001
,
0100
0000
0010
0000
0100
0000
0010
0000
0100
0000
0010
0000
0100
0000
0000
1000
0000
0000
0001
0000
0000
1000
0000
0000
0001
0000
0000
1000
0000
0000
0001
0000
0000
1000
0000
0000
0010
0000
0000
0100
0000
0000
0010
0000
0000
0100
0000
0000
,
0001
0010
0100
0010
0001
1000
0010
0100
0010
1000
0100
1000
0100
1000
0100
0010
,
0001
1000
0001
1000
0010
0100
0010
0100
0001
0010
0100
1000
0001
0010
0100
1000
,
0010
0100
0010
0100
0001
0010
0100
1000
0001
0010
0100
1000
0010
0100
0010
0100
,
0001
0000
0000
1000
0000
0000
0001
0000
0000
0100
0000
0000
0010
0000
1000
0000
0100
0000
0010
0000
0100
0000
1000
0000
0001
0000
1000
0000
0001
0000
1000
0000
0010
0000
0100
0000
0010
0000
0100
0000
0001
0000
0010
0000
0100
0000
1000
0000
,
0001
0000
0010
0000
0100
0000
1000
0000
0100
0000
0010
0000
0001
0000
0000
0010
0000
0000
0100
0000
0000
1000
0000
0000
0001
0000
0000
0010
0000
0000
0100
0000
0000
1000
0000
0000
0010
0000
0000
0100
0000
0000
0010
0000
0000
0100
0000
0000
,
0010
0100
0001
0100
0010
0100
0001
0010
0100
1000
0001
0010
0100
1000
0010
0100
,
0010
1000
0100
0010
0001
0010
0100
0010
0100
1000
0010
0100
0010
0100
0001
0010
,
0100
1000
0001
0010
0100
1000
0010
0100
0010
1000
0100
0010
0001
0010
0001
0010
,
0100
1000
0010
0100
0010
0100
0001
0010
0100
1000
0001
1000
0001
1000
0010
0100
,
0010
0100
0001
0010
0100
1000
0001
0010
0100
1000
0010
0100
0010
0100
0001
0100
,
0010
0100
0001
0010
0100
1000
0100
0010
0001
0010
0100
1000
0010
0100
0001
1000
,
0010
0000
0000
0100
0000
0000
0010
0000
0000
0100
0000
0000
0001
0000
1000
0000
0001
0000
0100
0000
0010
0000
0100
0000
0001
0000
1000
0000
0001
0000
1000
0000
0001
0000
1000
0000
0010
0000
1000
0000
0010
0000
0100
0000
0010
0000
0100
0000
,
0001
0010
0100
1000
0001
0100
0000
0110
0000
0000
0100
0010
0001
1000
0010
0100
0010
0100
0001
1000
0010
0100
0010
0100
,
0001
0010
0100
1000
0001
1000
0000
1001
0000
0000
1000
0001
1000
0001
1000
0010
0100
0010
0100
0001
0100
0001
0010
0100
,
1000
0001
0010
0100
1000
0010
0000
0011
0000
0000
1000
0001
0100
0010
0100
0010
0100
0001
0010
0100
1000
0001
1000
0001
,
1000
0010
1000
0010
0100
0010
0000
0110
0000
0000
1000
0100
0010
0001
1000
0100
0010
0001
0100
0001
0010
0001
0100
0001
,
0010
0100
1000
0001
0010
0100
0000
1100
0000
0000
1000
0010
0100
0001
1000
0010
1000
0010
1000
0100
0010
0001
0010
0001
,
1000
0010
1000
0001
0010
0001
0000
0011
0000
0000
0100
1000
0100
1000
0100
1000
0010
1000
0010
0100
0010
0100
0001
0010
,
0001
0010
0100
0010
0100
0010
0000
0110
0000
0000
1000
0001
0100
0010
0100
0001
0010
0100
1000
0001
0010
0100
1000
0010
,
0100
0010
0100
0001
0010
0100
0000
1100
0000
0000
1000
0001
1000
0010
0100
0010
0100
0001
0010
0100
1000
0001
0010
0100
,
0010
0100
1000
0010
0100
0010
0000
0110
0000
0000
1000
0001
0100
0010
0100
0010
0100
0001
0010
0100
1000
0001
0010
0100
,
1000
0010
0100
0010
1000
0010
0000
1010
0000
0000
1000
0010
0100
0001
0010
0001
0010
0001
0010
0001
0010
0100
0010
0100
,
1000
0010
0100
0010
0100
0010
0000
0110
0000
0000
1000
0001
0010
0100
1000
0010
0100
0010
0100
0001
0010
0100
1000
0001
,
0010
0100
1000
0010
0100
0010
0000
1010
0000
0000
1000
0001
1000
0001
1000
0010
0100
0010
1000
0001
1000
0010
0100
0010
,
1000
0001
0100
0010
1000
0001
0000
0011
0000
0000
0100
0010
0100
0010
0100
1000
0010
0100
0010
1000
0100
0010
0001
1000
,
0100
0010
0100
0010
0100
0010
0000
0011
0000
0000
0100
1000
0001
0010
0100
1000
0010
0100
0010
0100
0001
0010
0100
1000
,
0001
0010
0100
1000
0001
0010
0000
0011
0000
0000
0100
1000
0001
0100
0010
0100
0001
0010
0100
1000
0001
0010
0100
1000
,
0100
1000
0100
1000
0100
1000
0000
2012
0000
0000
0000
0000
0M00
0000
00M0
0000
0000
0000
00M0
0000
0M00
0000
0000
0000
,
0M00
00M0
0000
00M0
0M00
0000
0M00
00M0
0000
00M0
0M00
0000
,
0M00
00M0
0000
00M0
0M00
0000
0M00
00M0
0000
00M0
0M00
0000
,
0M00
00M0
0000
00M0
0M00
0000
0M00
00M0
0000
00M0
0M00
0000
,
0M00
00M0
0000
00M0
0M00
0000
0M00
00M0
0000
00M0
0M00
0000
,
0M00
00M0
0000
00M0
0M00
0000
0M00
00M0
0000
00M0
0M00
0000
,
0M00
00M0
0000
00M0
0M00
0000
0M00
00M0
0000
00M0
0M00
0000
,
0M00
00M0
0000
00M0
0M00
0000
0M00
00M0
0000
00M0
0M00
0000
,
0M00
0000
00M0
0000
0000
0000
3003
0220
0000
0000
0000
0000
0000
0000
0000
0000
0000
0000
0000
0000
0000
0000
0000
0000
,
0000
0000
0000
0000
0000
0000
0330
2002
0000
0000
0000
0000
0000
0000
0000
0000
0000
0000
0000
0000
0000
0000
0000
0000
,
0000
0000
0000
0000
0000
0000
3003
0220
0000
0000
0000
0000
0000
0000
0000
0000
0000
0000
0000
0000
0000
0000
0000
0000
,
0000
0000
0000
0000
0000
0000
0330
2002
0000
0000
0000
0000
0000
0000
0000
0000
0000
0000
0000
0000
0000
0000
0000
0000
,
0000
0000
0000
0000
0000
0000
3003
0020
0000
0000
0000
0000
0000
0000
0000
0000
0000
0000
0000
2030
0000
0000
0000
0000
,
0000
0000
0000
0000
0000
0000
0000
3020
0000
0000
0000
0000
0000
0000
0000
0000
0000
0000
0000
0230
0000
0000
0000
0000
,
0000
0000
0000
0000
0000
0000
0000
0302
0000
0000
0000
0000
0000
0023
0000
0000
0000
0000
0000
2030
0000
0000
0000
0000
,
0000
3001
0000
0000
0000
0000
0000
0100
0010
0100
0010
0000
0100
0000
0010
0000
0100
0000
0010
0100
0010
0100
0010
0100
,
0010
0100
0010
0100
0010
0100
0010
0100
0010
0100
0010
0000
1000
0000
0001
0000
0100
0000
0010
0000
1000
0000
0100
0000
0010
0000
0001
0000
1000
0000
0010
0000
,
0100
0010
0100
0001
0010
0100
1000
0001
0010
0100
1000
0001
1000
0010
1000
0001
,
0100
0010
0100
0001
0010
0100
1000
0001
0010
0100
1000
0010
0100
0010
1000
0001
,
1000
0001
1000
0010
0100
0010
0100
0001
0010
0001
0010
0001
0010
0100
1000
0010
,
0100
0010
0100
0001
0010
0100
1000
0001
0010
0100
1000
0010
0100
0010
0100
0010
,
0100
0001
0010
0100
1000
0001
0010
0100
1000
0001
0010
0100
1000
0010
0100
0001
,
2222
0000
0000
0000
0330
0000
0M00
00M0
0M00
00M0
0M00
00M0
00M0
0M00
00M0
0M00
,
00M0
0M00
0M00
0M00
0M00
00M0
0M00
00M0
00M0
0M00
00M0
0M00
00M0
0M00
00M0
0M00
,
0M00
00M0
0M00
0M00
00M0
0M00
0M00
00M0
0M00
00M0
00M0
0M00
00M0
0M00
00M0
0M00
,
00M0
0M00
0M00
0M00
00M0
00M0
00M0
0M00
0M00
00M0
0M00
00M0
00M0
0M00
00M0
0M00
,
00M0
0M00
00M0
0M00
0M00
00M0
0MM0
00M0
00M0
0M00
00M0
0M00
00M0
0M00
00M0
0M00
,
0M00
00M0
0M00
00M0
00M0
0M00
00M0
0M00
00M0
0M00
00M0
0M00
00M0
0M00
00M0
0M00
,
30M3
0000
0000
0000
;
