#TITLE:Chapter Four;
#SUBTITLE:;
#ARTIST:Avenged Sevenfold;
#TITLETRANSLIT:;
#SUBTITLETRANSLIT:;
#ARTISTTRANSLIT:;
#CREDIT:;
#BANNER:Chapter Four-bn.jpg;
#BACKGROUND:Chapter Four-bg.jpg;
#LYRICSPATH:;
#CDTITLE:;
#MUSIC:Avenged Sevenfold - Chapter Four(1).mp3;
#OFFSET:-0.280;
#SAMPLESTART:90.220;
#SAMPLELENGTH:12.000;
#SELECTABLE:YES;
#BPMS:0.000=384.401,64.000=191.900,128.000=384.389,254.000=191.640,298.000=192.100,319.000=96.210,335.000=96.110,335.333=96.010,335.667=95.910,336.000=95.810,336.333=95.710,336.667=95.610,337.000=95.510,337.333=95.410,346.000=95.990,346.500=96.090,347.000=96.190,347.500=96.290,348.000=96.390,348.500=96.490,349.000=96.590,349.500=96.650,350.000=96.690,350.500=96.730,351.000=192.100,399.000=384.200,527.000=192.100,591.000=96.080,607.000=96.000,607.333=95.920,607.667=95.840,608.000=95.760,608.333=95.680,608.667=95.600,609.000=95.520,609.333=95.440,609.667=95.360,614.000=95.400,614.667=95.480,615.333=95.540,616.000=95.620,616.667=95.720,617.333=95.780,618.000=95.820,618.667=95.900,619.000=95.980,619.333=96.060,619.667=96.140,620.000=96.220,623.000=192.100,671.000=383.998,863.000=189.000,875.000=190.500,875.250=190.000,875.500=190.040,876.000=190.080,876.500=190.120,877.000=190.160,877.500=190.200,878.000=190.240,878.500=190.280,879.000=190.500,887.000=193.100,887.500=193.160,888.000=193.200,888.500=193.260,889.000=193.340,889.500=193.400,890.000=193.460,890.500=193.500,891.000=193.600,924.000=193.560,924.500=193.520,925.000=193.480,925.500=193.440,926.000=193.380,926.500=193.300,927.000=193.200,927.500=193.100,928.000=193.000,928.500=192.900,929.000=192.800,929.500=192.700,930.000=192.600,930.500=192.500,931.000=192.400,931.500=192.300,932.000=192.260,932.500=192.220,933.000=192.180,933.500=192.160,934.000=192.140,934.500=192.100,935.000=192.000,959.000=383.999,1087.000=767.998,1096.000=383.999,1100.000=765.998,1115.000=192.001,1179.000=384.002,1467.000=454.021,1471.000=458.441,1475.000=466.441,1479.000=450.821,1483.000=423.619;
#STOPS:;
#BGCHANGES:;
// cache tags:
#FIRSTBEAT:0.000;
#LASTBEAT:1483.000;
#SONGFILENAME:Songs/new cc/Chapter Four/Chapter 4.sm;
#HASMUSIC:1;
#HASBANNER:1;
#MUSICLENGTH:342.734;
// end cache tags

//---------------dance-single - ----------------
#NOTES:
     dance-single:
     :
     Challenge:
     10:
     0.823,1.000,0.697,0.432,0.051,1587.000,239.000,148.000,0.000,3.000:
1000
0001
1000
0001
1000
0001
1000
0010
,
1000
0010
1000
0010
1000
0100
0010
0001
,
1000
0100
0010
0001
0100
0001
0100
0001
,
0010
1000
0010
1000
0010
1000
0100
0001
,
0100
0001
0100
0001
0010
0100
1000
0100
,
0010
0100
1000
0100
0010
0001
1000
0001
,
1000
0010
1000
0010
1000
0010
0100
0001
,
0100
0001
0100
0001
0010
0100
1000
0100
,
0010
0001
0010
0100
0010
0100
0010
0100
,
1000
0010
1000
0010
1000
0010
0100
0001
,
0100
0001
0100
0001
1000
0001
1000
0010
,
0100
0001
1000
0010
0100
0001
0010
0100
,
1000
0001
1000
0010
0100
0010
0001
1000
,
0010
0100
1000
0001
0100
0010
0001
0010
,
0100
1000
0100
1000
0100
1000
0001
1000
,
0010
0100
0001
0010
0100
1000
0100
0010
,
2000
0000
3000
0001
0001
1000
1000
0000
,
0000
1000
0100
0010
0001
0001
0110
0000
,
0002
0000
0003
1000
0100
0010
0001
0000
,
0000
1000
1000
0001
0001
0001
1100
0000
,
0200
0000
0300
0010
0010
0100
0100
0000
,
0000
0010
0100
0010
0100
0010
1001
0000
,
2000
0000
3000
0001
0100
0001
0100
0000
,
0000
0001
0001
1000
1000
1000
0110
0000
,
0002
0000
0003
1000
0100
0010
0001
0000
,
0000
0001
0010
0100
1000
1000
0110
0000
,
2000
0000
3000
0001
0010
0100
1000
0000
,
0000
1000
0100
0010
0001
0001
0110
0000
,
0200
0000
0300
0010
0100
0010
0100
0000
,
0000
0001
1000
0001
1000
0001
1010
0000
,
0020
0000
0030
0100
0010
0100
0010
0000
,
0000
0000
1000
0000
0001
0000
1000
0000
0001
0010
0100
1000
0001
0010
0100
1000
,
0001
0010
0100
1000
,
0001
0010
0100
1000
,
0001
1000
0001
1000
,
0001
1000
0010
1000
,
0100
0010
0100
0010
,
0001
1000
0001
1000
,
0010
0100
0010
0001
,
1000
0100
0010
0001
,
1000
0010
1000
0010
,
0100
0001
0100
0001
,
0010
0100
0010
0100
,
1000
0010
1000
0010
,
0001
0010
0100
0010
,
0001
0100
0001
0100
,
1000
1000
0100
0100
,
0010
0010
0001
0001
,
1000
0100
1000
0100
1000
0010
1000
0010
,
1000
0100
1000
0100
1000
0100
0010
0001
,
0010
0100
0010
0100
0010
0001
1000
0001
,
1000
0100
0010
0100
0010
0001
0010
0100
,
1000
0010
1000
0010
1000
0100
0001
0100
,
0001
0010
1000
0100
0001
1000
0010
0100
,
0010
0001
0100
0001
0100
1000
0010
1000
,
0010
0100
0010
0001
0010
0100
1000
0100
,
1000
0100
0010
0001
0100
0001
0100
0010
,
1000
0010
1000
0100
0010
0001
0010
0100
,
0010
0100
1000
0001
0100
0010
0001
0010
,
0100
1000
0001
1000
0001
1000
0010
1000
,
0010
0100
0001
0100
0001
1000
0010
0100
,
1000
0010
1000
0010
1000
0001
1000
0001
,
0100
0010
0100
1000
0001
0100
0010
0001
,
0010
0100
0010
0001
2000
0000
0002
0000
,
0000
3003
0002
0000
,
0003
2000
0000
3200
,
0000
0000
0000
0300
0001
0010
0200
0000
,
0000
0300
0000
1100
,
1100
0000
2002
3003
,
0000
0002
0000
2000
,
0003
3000
0200
0000
0000
0300
0020
0000
,
0000
0000
0000
0030
0000
0000
2000
0000
,
0000
3001
0200
0000
,
0300
0002
0000
2000
,
0000
3003
0000
0000
1000
0100
0020
0000
,
0000
0030
0000
1001
,
1001
0000
0220
0330
,
0000
0000
2000
0000
0000
3000
0200
0000
,
0000
0300
0020
0000
0000
0030
0002
0000
,
0000
0000
0003
2002
,
0000
0000
0000
0000
0000
3003
0000
0000
0200
0000
0000
0000
0020
0000
0000
0000
,
0000
0000
0000
0000
0000
0330
0000
0000
0002
0000
0000
0000
0200
0000
0000
0000
,
0000
0000
0000
0000
0303
0000
0000
0000
2000
0000
0002
3000
0000
0000
2000
0000
,
0000
3003
0001
0000
0010
0000
0000
0000
1001
0000
0000
0000
2002
0000
0000
0000
,
0000
0000
0000
3003
0200
0000
0002
0000
,
0000
0303
0000
0000
2000
0000
0020
0000
,
0000
0000
0000
3030
0020
0200
0000
0000
,
0000
0330
0000
0000
0001
0010
0100
1000
0001
0010
0100
1000
0001
0000
0000
0000
,
1001
0000
0000
0000
1000
0000
0010
0000
0000
0000
0011
0000
0000
0000
0000
1001
,
0000
0000
0100
0010
,
0100
0000
0001
1000
0000
2002
0000
0000
,
0000
3003
0000
0010
,
0010
0000
0000
0000
0100
0000
0001
0000
0000
0000
0101
0000
0000
0000
0000
1001
,
0000
0000
0001
0010
,
0100
0000
1000
0100
0000
0220
0000
0000
,
0000
0330
0000
0000
0002
0000
2003
0000
,
3011
0011
0011
0011
0110
0110
0110
0110
,
1100
1100
1100
1100
1001
1001
1001
1001
,
0110
0000
0110
0000
0110
0000
0110
0000
0101
0000
0101
0000
0001
0010
0100
1000
,
0001
1000
0001
1000
0001
1000
0010
1000
0010
1000
0001
1000
0001
0000
0000
0000
,
1000
0010
1000
0010
,
1000
0001
1000
0010
,
0100
0010
0100
0001
,
0010
0100
1000
0100
,
0010
0100
1000
0001
,
1000
0001
1000
0010
,
1000
0010
1000
0100
,
0001
0100
0001
0010
,
0100
1000
0010
1000
,
0010
0100
1000
0001
,
0010
0100
0010
1000
,
0010
0001
0010
0100
,
0001
0100
0010
0001
,
0010
0100
0001
0010
,
0001
1000
0001
1000
,
0010
0100
1000
1001
,
1001
0110
0110
0101
,
0101
1010
1010
0110
,
0110
1001
1001
0101
,
0101
0110
0110
1010
,
1010
1001
1001
0110
,
0101
0101
0110
1010
,
1010
0110
1001
1001
,
0101
0000
0110
0000
0101
0000
1000
0010
,
1000
0010
1000
0001
1000
0001
1000
0010
,
0100
0010
0001
1000
0010
1000
0010
0100
,
0001
0100
0001
0010
0100
1000
0100
0010
,
0100
0010
0001
1000
0001
1000
0010
1000
,
0010
1000
0100
0001
0100
0001
0010
0100
,
1000
0100
0010
0001
1000
0001
1000
0010
,
1000
0010
1000
0001
0010
0100
1000
0001
,
1000
0100
0002
0000
0000
0000
2000
0000
,
0000
3003
0200
0000
,
0300
0020
0000
2030
,
0000
0000
0000
3000
0100
0001
2000
0000
,
0000
3000
0000
1010
,
1010
0000
0220
0330
,
0000
0200
0000
0020
,
0000
0330
2000
0000
0000
3000
0002
0000
,
0000
0000
0000
0003
0000
0000
0020
0000
,
0000
0130
2000
0000
,
3000
0200
0000
0020
,
0000
0330
0000
0000
0010
1000
0002
0000
,
0000
0003
0000
0110
,
0110
0000
2002
3003
,
0000
0000
0020
0000
0000
0030
2000
0000
,
0000
3000
0002
0000
0000
0003
0200
0000
,
0000
0000
0300
0220
,
0000
0000
0000
0000
0000
0330
0000
0000
2000
0000
0000
0000
0002
0000
0000
0000
,
0000
0000
0000
0000
0000
3003
0000
0000
0200
0000
0000
0000
2000
0000
0000
0000
,
0000
0000
0000
0000
3300
0000
0000
0000
0020
0000
0200
0030
0000
0000
0020
0000
,
0000
0330
0100
0000
0001
0000
0000
0000
0110
0000
0000
0000
0220
0000
0000
0000
,
0000
0000
0000
0330
2000
0000
0200
0000
,
0000
3300
0000
0000
0020
0000
0002
0000
,
0000
0000
0000
0033
0002
2000
0000
0000
,
0000
3003
0000
0000
0100
0001
1000
0010
0100
0001
1000
0010
0100
0000
0000
0000
,
0110
0000
0000
0000
0010
0000
0001
0000
0000
0000
0101
0000
0000
0000
0000
0110
,
0000
0000
1000
0001
,
1000
0000
0100
0010
0000
0220
0000
0000
,
0000
0330
0000
0001
,
0001
0000
0000
0000
1000
0000
0100
0000
0000
0000
1100
0000
0000
0000
0000
0110
,
0000
0000
0100
0001
,
1000
0000
0010
1000
0000
2002
0000
0000
,
0000
3003
0000
0000
0200
0000
0320
0000
,
0131
0101
0101
0101
1001
1001
1001
1001
,
1010
1010
1010
1010
0110
0110
0110
0110
,
1001
0000
1001
0000
1001
0000
1001
0000
1100
0000
1100
0000
0100
0001
1000
0010
,
0100
0010
0100
0010
0100
0010
0001
0010
0001
0010
0100
0010
0001
0000
0000
0000
,
1000
0010
0100
1000
,
0100
0010
0100
1000
,
0001
1000
0001
0010
,
1000
0001
0100
0001
,
1000
0001
0100
0010
,
0100
0010
0100
0010
,
1000
0010
0010
1000
,
0100
1000
0100
0001
,
1000
0010
0001
0010
,
0001
1000
0010
0100
,
0001
1000
0001
1000
,
0010
0001
0010
0100
,
0001
0100
0010
0001
,
0010
0100
0001
0010
,
0001
1000
0100
0010
,
0001
1000
0010
0110
,
0110
1001
1001
1100
,
1100
0011
0011
0110
,
0110
1001
1001
0101
,
0101
0110
0110
1010
,
1010
1001
1001
0110
,
0101
0101
0110
1010
,
1010
0110
1001
1001
,
0101
0110
0101
1010
,
1010
1001
1001
0110
,
0011
0110
1001
1001
,
1010
1010
1010
0110
,
0101
1010
1010
1001
,
1001
0110
0011
0110
,
1100
0110
0110
0110
,
1010
1010
1001
1001
,
0110
0000
0011
0000
0110
0000
1000
0010
,
1000
0010
1000
0001
1000
0001
1000
0010
,
0100
0010
0001
1000
0010
1000
0010
0100
,
0001
0100
0001
0010
0100
1000
0100
0010
,
0100
0010
0001
1000
0001
1000
0010
0001
,
0100
0001
0010
1000
0010
1000
0100
0010
,
0001
0010
0100
1000
0001
1000
0001
0100
,
0001
0100
0001
1000
0100
0010
0001
1000
,
0001
0010
1000
0100
0010
0100
0001
1000
,
0001
1000
0001
1000
0001
0100
0001
0100
,
0001
0100
0001
0010
0100
1000
0001
0010
,
0100
1000
0010
1000
0010
1000
0100
0001
,
0100
0001
0100
0001
0010
1000
0010
1000
,
0010
1000
0100
0010
0001
0010
0100
0010
,
0001
0010
0100
1000
0001
1000
0001
0100
,
0001
0100
0001
0100
0010
1000
0010
1000
,
0010
1000
0100
0010
0001
0010
0002
0000
,
0000
0000
0000
0000
,
0000
0000
2000
0003
0000
0000
3100
0000
,
0110
0011
1001
2002
,
0000
0000
0000
0000
0000
0000
0000
3003
,
0000
0000
0002
0000
0013
0010
0000
0000
,
2000
0000
3100
0100
0000
0000
2002
0000
,
0000
0000
0000
3003
,
0001
1000
0001
1000
,
0010
0100
0010
0220
,
0000
0000
0000
0330
,
0000
0000
2000
0000
3001
0001
0000
0000
,
0020
0000
0130
0100
0000
0000
2000
0000
,
0000
0000
0000
0000
,
0002
0203
0000
0000
,
3300
0000
0002
0003
,
0002
0000
0000
0000
,
0003
0000
0002
0000
1003
1000
0000
0000
,
0020
0000
0130
0100
0000
0000
0220
0000
,
0000
0000
0000
0330
,
1001
0220
0000
0000
,
0000
0330
1000
0000
1000
0000
2000
0000
,
0002
0000
0000
0000
,
3003
0000
1001
0000
1100
1100
0000
0000
,
0110
0000
1001
1001
0000
0000
0001
0000
,
1000
0010
1000
0001
,
1000
0001
1000
0010
,
0100
0010
0100
0001
,
1000
0001
1000
0010
,
0100
0010
0001
1000
,
0010
0100
0001
1000
,
0100
0010
0001
0010
,
0100
1000
0010
1000
,
0010
1000
0010
0100
,
0001
0100
0001
0010
,
0100
0010
0100
1000
,
0001
1000
0010
0100
,
0001
0010
0100
1000
,
0100
0010
0100
1000
,
0100
0010
0001
1000
,
0001
0000
0010
0000
1000
0000
0001
1000
,
0001
1000
0001
1000
0010
0001
0100
0001
,
0010
1000
0010
1000
0100
0010
0001
0010
,
0100
1000
0001
1000
0001
0100
0001
0100
,
0001
1000
0100
0010
0001
1000
0001
0010
,
1000
0100
0010
0100
0001
1000
0001
1000
,
0001
1000
0001
0100
0001
0100
0001
0100
,
0001
0010
0100
1000
0001
0010
0100
1000
,
0010
1000
0010
1000
0100
0001
0100
0001
,
0100
0001
0010
1000
0010
1000
0010
1000
,
0100
0010
0001
0010
0100
0010
0001
0010
,
0100
1000
0001
1000
0001
0100
0001
0100
,
0001
0100
0010
1000
0010
1000
0010
1000
,
0100
0010
0001
1000
0010
1000
0010
0100
,
0001
0100
0001
0010
0100
1000
0010
1000
,
0010
0100
0001
0010
0100
1000
0001
0010
,
0100
1000
0100
0010
0100
0010
2002
0000
,
0000
0000
0000
0000
,
0000
0000
0000
0000
,
0000
0000
0000
0000
,
0000
0000
0000
0000
,
0000
0000
0000
0000
,
0000
0000
0000
0000
,
0000
0000
0000
0000
0000
0000
0000
0000
3003
0000
0000
0000
1000
0001
1000
0000
,
0011
0000
0101
0000
1001
1001
0000
0000
,
1100
0000
0000
0000
0110
0000
0000
0000
0101
0000
0101
0000
1000
0010
1000
0000
,
0001
0001
0001
0000
1000
0100
0020
0000
,
0100
0000
0100
0000
0130
0000
0000
0000
0000
0000
0000
0000
0100
0010
0100
0000
,
0011
0000
0101
0000
0110
0110
0000
0000
,
0001
0010
0100
0000
1001
0000
2020
0000
,
0000
0000
0030
0000
0002
3000
2000
0000
,
0000
0003
3200
0020
,
0330
0011
0011
1001
,
1010
1001
0110
0202
,
0000
0000
0303
0000
0200
0020
0000
0000
,
0000
0000
0330
2000
,
0200
3300
0000
0002
,
0020
0033
0000
2000
,
3200
0000
0320
0230
,
0000
0000
0000
0000
0000
0300
1000
0000
,
0000
0001
1000
0000
,
0000
1001
0000
0001
,
0000
0011
0000
1000
,
0000
0100
0010
0001
,
0010
0100
0000
0100
,
0000
1100
0000
1001
,
0000
1000
0100
0000
,
0100
0010
0000
0001
,
0000
0011
0000
1000
,
0001
1000
0001
1000
,
0001
0100
0010
0100
,
0010
0100
0010
0101
,
0000
0001
1000
0001
,
1000
0001
0000
1000
,
0000
1001
0000
0001
,
0000
0100
0010
0100
,
0010
0100
0000
0010
,
0000
0011
0000
1001
,
0000
0100
0000
0010
,
0000
0110
0000
1000
,
0000
0001
0000
1010
,
0000
1000
0010
1000
,
0010
0100
0000
0001
,
0100
0001
0100
0010
,
0000
1000
0100
0010
,
0000
0011
0000
0001
,
0010
0100
0000
1100
,
0000
1000
0100
0010
,
0000
0110
0000
0100
,
0010
0001
0000
1001
,
0000
0010
0000
0100
,
0000
0010
0000
1001
,
0000
1000
0000
0010
,
0100
0010
0100
0010
,
0100
0001
1000
0001
,
1000
0001
1000
0010
,
0000
0010
0100
0000
,
0100
0010
0000
0001
,
0000
1000
0000
0010
,
0000
0001
1000
0001
,
0100
0010
0000
0001
,
0000
1000
0000
1001
,
0000
0001
1000
0000
,
1000
0001
0000
0100
,
0000
0010
0000
0001
,
1000
0001
1000
0010
,
0100
0010
0100
1001
,
0000
1001
0000
1000
,
0010
1000
0010
1000
,
0010
0100
0001
0100
,
0001
0100
0010
0100
,
1000
0100
0010
0001
,
0010
0100
0010
0001
,
1000
0001
1000
0010
,
1000
0010
0100
0001
,
0010
0100
1000
0100
,
0010
0100
0010
0001
,
1000
0001
1000
0010
,
1000
0010
1000
0100
,
0010
0001
0100
0010
,
0100
0010
0001
0010
,
0100
1000
0010
1000
,
0010
0100
0001
0100
,
0010
0100
0010
0001
,
0010
1000
0001
0100
,
0010
1000
0100
0010
,
0001
0010
0100
1000
,
0001
0100
0010
1000
,
0001
0100
0010
0100
,
0010
0100
1000
0001
,
0100
1001
0000
0110
,
0000
1001
0000
2002
,
0000
0000
0000
0000
,
0000
0000
0000
0000
,
0000
0000
0000
0000
,
0000
0000
0000
3003
;
