#TITLE:Livingdead;
#SUBTITLE:;
#ARTIST:DJ Myosuke;
#TITLETRANSLIT:;
#SUBTITLETRANSLIT:;
#ARTISTTRANSLIT:;
#CREDIT:;
#BANNER:livingdead bn.png;
#BACKGROUND:livingdead bg.png;
#LYRICSPATH:;
#CDTITLE:;
#MUSIC:Livingdead.ogg;
#OFFSET:-16.718;
#SAMPLESTART:104.194;
#SAMPLELENGTH:17.067;
#SELECTABLE:YES;
#DISPLAYBPM:225.000;
#BPMS:0.000=225.000;
#STOPS:;
#BGCHANGES:;
// cache tags:
#FIRSTBEAT:8.000;
#LASTBEAT:668.000;
#SONGFILENAME:Songs/SPEEEDCOOOORE 4/Livingdead - [Tyler]/livingdead.sm;
#HASMUSIC:1;
#HASBANNER:1;
#MUSICLENGTH:197.564;
// end cache tags

//---------------dance-single - T. Moore----------------
#NOTES:
     dance-single:
     T. Moore:
     Challenge:
     17:
     1.000,1.000,0.020,0.228,1.000,1609.000,4.000,45.000,7.000,0.000:

0000
0000
0000
0000
,
0000
0000
0000
0000
,
1000
0100
0010
0001
1000
0001
0100
0001
1000
0010
1000
0001
0010
0001
0100
0010
,
1000
0001
0010
0001
1000
0100
0010
0001
1000
0001
0100
0010
1000
0001
1000
0001
,
0010
0100
1000
0001
0010
0001
1000
0001
0100
0010
1000
0001
0100
0001
0010
0100
,
1000
0001
1000
0100
0010
0100
1000
0001
0100
0010
1000
0001
2000
0000
0000
0000
,
3001
0010
0100
1000
0001
1000
0010
1000
0001
0100
0001
1000
0100
1000
0010
0100
,
0001
1000
0100
1000
0001
0010
0100
1000
0001
1000
0010
0100
0001
1000
0001
1000
,
0100
0010
0001
1000
0100
1000
0001
1000
0010
0100
0001
1000
0010
1000
0100
0010
,
0001
1000
0001
0010
0100
0010
0001
1000
0010
0100
0001
1000
0002
0000
0000
0000
,
0013
0100
1000
0001
0010
0001
1000
0010
1000
0001
0010
0100
1000
0001
1000
0010
,
0100
0001
1000
0001
0100
0010
1000
0001
0010
0001
1000
0010
0100
0001
1000
0001
,
0010
0100
1000
0001
0010
0001
1000
0010
1000
0001
0010
0100
1000
0001
1000
0010
,
0100
0001
1000
0100
0010
0001
0100
0001
1000
0100
1000
0100
0010
0001
1000
0001
,
0100
0010
1000
0001
0100
0001
1000
0100
1000
0001
0100
0010
1000
0001
1000
0100
,
0010
0001
1000
0001
0010
0100
1000
0001
0100
0001
1000
0100
0010
0001
1000
0001
,
0100
0010
1000
0001
0100
0001
1000
0100
1000
0001
0100
0010
1000
0001
1000
0100
,
0010
0001
1000
0010
0100
0001
0010
0100
2000
0000
0000
0000
0000
0000
0000
0000
,
3001
0000
0100
0000
0001
0000
0100
0000
0010
0000
1000
0000
0001
1000
0001
0010
,
0100
0000
1000
0000
0010
0000
1000
0000
0001
0000
0010
0000
0100
0000
1000
0001
,
0100
0000
0010
0000
1000
0001
1000
0001
0100
0000
0010
0000
1000
0001
0010
0001
,
1000
0000
0000
0000
0000
0000
0000
0000
0000
0000
0000
0000
0000
0000
0000
0000
0000
0000
0000
0000
0000
0000
0000
0000
0001
0000
0000
0000
0000
0000
0000
0000
0000
0000
0000
0000
0000
0000
0000
0000
0000
0000
0000
0000
0000
0000
0000
0000
0100
0000
0000
0000
0000
0000
0000
0000
0000
0000
0000
0000
0000
0000
0000
0000
0000
0000
0000
0000
0000
0000
0000
0000
0010
0000
0000
0000
0000
0000
0000
0000
0000
0000
0000
0000
0000
0000
0000
0000
0000
0000
0000
0000
0000
0000
0000
0000
1000
0000
0000
0000
0000
0000
0000
0000
0000
0000
0001
0000
0000
0000
0000
0000
0000
0000
0000
1000
0000
0000
0000
0000
0000
0000
0000
0000
0000
0010
0000
0000
0000
0000
0000
0000
0000
0000
0100
0000
0000
0000
0000
0000
0000
0000
0000
0000
0001
0000
0000
0000
0000
0000
0000
0000
0000
0000
0000
0000
0010
0000
0000
0000
0000
0000
0000
0000
0000
0000
0000
0000
0100
0000
0000
0000
0000
0000
0000
0000
0000
0000
0000
0000
1000
0000
0000
0000
0000
0000
0000
0000
0000
0000
0000
0000
,
0001
0000
0100
0000
0001
0000
0100
0000
0010
0000
1000
0000
0001
1000
0001
0010
,
0100
0000
1000
0000
0010
0000
1000
0000
0001
0000
0010
0000
0100
0000
1000
0001
,
0100
0000
0010
0000
0100
0010
0100
0010
1000
0000
0001
0000
1000
0001
1000
0001
,
0100
0100
0110
2000
,
3001
0000
0010
0000
0001
0000
0010
0100
1000
0000
0001
0000
1000
0000
0010
0000
,
0100
0000
0001
0000
1000
0000
0001
0010
0100
0010
0100
0000
1000
0000
0010
0000
,
1000
0001
1000
0000
0001
0100
0001
0100
0010
0000
0100
0000
0001
1000
0001
1000
,
0100
0000
0000
0000
0000
0000
0000
0000
0000
0000
0000
0000
0000
0000
0000
0000
0000
0000
0000
0000
0000
0000
0000
0000
0010
0000
0000
0000
0000
0000
0000
0000
0000
0000
0000
0000
0000
0000
0000
0000
0000
0000
0000
0000
0000
0000
0000
0000
0100
0000
0000
0000
0000
0000
0000
0000
0000
0000
0000
0000
0000
0000
0000
0000
0000
0000
0000
0000
0000
0000
0000
0000
1000
0000
0000
0000
0000
0000
0000
0000
0000
0000
0000
0000
0000
0000
0000
0000
0000
0000
0000
0000
0000
0000
0000
0000
0001
0000
0000
0000
0000
0000
0000
0000
0000
0000
1000
0000
0000
0000
0000
0000
0000
0000
0000
0001
0000
0000
0000
0000
0000
0000
0000
0000
0000
0010
0000
0000
0000
0000
0000
0000
0000
0000
0100
0000
0000
0000
0000
0000
0000
0000
0000
0000
1000
0000
0000
0000
0000
0000
0000
0000
0000
0000
0000
0000
0001
0000
0000
0000
0000
0000
0000
0000
0000
0000
0000
0000
1000
0000
0000
0000
0000
0000
0000
0000
0000
0000
0000
0000
0010
0000
0000
0000
0000
0000
0000
0000
0000
0000
0000
0000
,
0100
0000
0001
0000
1000
0000
0001
0000
0010
0000
0001
0000
1000
0100
1000
0100
,
0010
0000
0001
0000
0100
0000
0001
0000
1000
0000
0100
0000
0010
0000
0100
1000
,
0001
0000
1000
0000
0001
0100
0001
0100
0010
0000
1000
0000
0001
1000
0001
1000
,
0020
0000
0030
0000
,
1000
0001
1000
0010
0100
0001
0010
0100
1000
0001
1000
0100
0010
0001
0100
0010
,
1000
0001
0010
0100
1000
0010
0100
0001
1000
0100
0010
0001
1000
0000
0000
0000
,
0001
1000
0001
0100
0010
1000
0100
0010
0001
1000
0001
0010
0100
1000
0010
0100
,
0001
0010
0100
1000
0010
0100
0001
1000
0100
0000
0100
0000
0020
0000
0000
0000
,
0130
1000
0001
0010
0001
1000
0001
0100
0010
1000
0001
0100
0001
1000
0010
0100
,
0001
0010
0001
0010
0100
1000
0100
1000
0001
1000
0001
1000
0010
0000
0000
0000
,
1000
0001
1000
0100
0010
0001
1000
0001
1000
0010
0100
0001
1000
0100
0010
0100
,
1000
0001
1000
0001
0100
0000
0010
0000
2000
0000
0000
0000
0000
0000
0000
0000
,
3001
0010
0100
0000
1000
0001
0100
0000
0010
1000
0001
0000
0010
0001
0100
0010
,
1000
0001
0010
0000
0100
1000
0001
0000
2000
0000
0000
0000
0000
0000
0000
0000
,
3010
0100
0001
0000
0010
0100
1000
0000
0001
0100
0010
0000
1000
0100
0010
0001
,
1000
0010
0100
0001
1000
0010
0100
0001
2000
0000
0000
0000
0000
0000
0000
0000
,
3001
0010
0001
1000
0001
0100
0010
1000
0001
0100
0001
1000
0100
0010
0100
1000
,
0001
0010
0001
1000
0010
0100
0001
1000
0001
0010
0100
1000
0001
0100
0001
1000
,
0100
0010
0100
1000
0001
0010
0001
1000
0001
0100
0010
1000
0001
0010
0001
0100
,
0010
1000
0001
1000
0100
0010
0100
1000
0001
0010
0001
1000
0010
0100
0001
0010
,
0200
0000
0000
0000
,
0300
0000
0000
0000
,
0000
0000
0000
0000
,
0000
0000
0000
0000
,
0000
0000
0000
0000
,
0000
0000
0000
0000
,
0000
0000
0000
0000
,
000M
0000
0000
0000
,
0M00
0000
0000
0000
,
0000
0000
00M0
0000
,
0000
0000
0000
0000
,
M000
0000
0000
0000
,
M000
0000
0000
0000
,
0000
0000
0000
0000
,
0M00
0000
0000
0000
,
00M0
0000
0000
0000
,
1000
0100
0010
0100
,
1000
0001
0100
0000
,
0001
0100
0000
0001
,
0010
0100
1000
0000
,
0001
0100
0000
0001
,
1000
0100
0100
0000
,
1000
0010
0100
0001
,
1000
0001
0010
0000
,
0100
0100
1000
0100
,
0010
0001
0100
0000
,
0001
0010
0000
0001
,
0100
0010
1000
0000
,
0001
0010
0100
0010
,
0001
1000
1000
0010
,
0100
0001
1000
0000
,
0000
0000
0000
0000
,
0001
0010
0001
1000
0100
1000
0001
0100
,
0010
0000
1000
0000
0001
0000
0010
0000
0100
1000
0001
0000
1000
0010
1000
0010
,
0100
0000
0001
0000
1000
0000
0001
0000
0100
0000
0010
0000
1000
0000
0001
0010
,
0100
1000
0001
0000
1000
0001
0100
0000
0010
1000
0010
0100
0001
1000
0001
1000
,
0100
0000
0010
0000
0100
0000
1000
0000
0001
0000
0010
0000
0001
0000
1000
0010
,
0100
0000
0001
0000
1000
0000
0001
0000
0010
0000
0100
0000
1000
0001
1000
0001
,
0100
0000
0010
0000
0100
0000
0001
0000
0010
0000
0100
0000
1000
0000
0001
1000
,
0010
0000
0100
0000
0001
0000
1000
0000
0001
0010
0001
0010
0400
0000
1300
0000
,
0001
0000
0100
0000
0001
0000
1000
0000
0001
0000
0010
0000
0100
0000
1000
0010
,
0100
0000
0001
0000
0010
0000
0001
0000
1000
0000
0010
0000
0100
0001
0010
0001
,
1000
0000
0010
0000
1000
0000
0001
0000
0010
0000
0100
0000
1000
0000
0001
0100
,
0010
0000
1000
0000
0001
0000
1000
0000
0100
0010
0100
1000
0004
0000
1003
0010
,
0100
0000
0001
0000
1000
0000
0001
0000
0100
0010
1000
0010
0100
0001
1000
0001
,
0010
0000
0100
0000
1000
0000
0001
0000
0010
0100
1000
0100
0010
0001
1000
0001
,
0100
0000
0010
0000
1000
0001
0100
0001
0010
0000
0100
1000
0001
0000
0100
0010
,
1000
0001
0000
1000
0100
0000
0010
0001
0000
1000
0001
0000
0000
0000
0000
0000
,
1000
0001
0010
0001
1000
0010
1000
0100
0010
0001
1000
0010
0100
0001
0010
0100
,
1000
0001
0010
0001
1000
0010
1000
0100
0010
0001
1000
0010
0100
0001
1000
0001
,
1000
0100
0010
0001
1000
0100
1000
0010
0100
0001
1000
0001
0100
0010
1000
0100
,
0010
0001
1000
0001
0010
0100
1000
0010
0100
0001
1000
0001
1000
0100
0010
0001
,
1000
0100
1000
0001
0100
0010
1000
0100
0010
0001
1000
0001
0010
0001
0100
0010
,
1000
0001
0010
0001
1000
0100
0010
0001
1000
0001
0100
0010
1000
0001
1000
0001
,
1000
0100
0010
0001
1000
0100
1000
0010
0100
0001
1000
0010
1000
0100
0010
0001
,
1000
0001
0100
0001
1000
0100
1000
0010
0100
0001
1000
0001
1000
0100
1000
0100
,
0010
0001
1000
0001
1000
0010
0100
0001
0010
0100
1000
0001
0100
0001
0010
0100
,
1000
0001
0100
0001
1000
0010
0100
0001
0010
0100
1000
0001
1000
0010
0100
0001
,
1000
0100
0010
0100
1000
0001
0010
0001
0100
0010
1000
0001
0010
0001
0100
0010
,
1000
0001
0010
0001
1000
0010
0100
0001
0010
0001
1000
0010
0100
0001
1000
0001
,
1000
0100
1000
0001
0100
0001
0010
0100
1000
0001
1000
0010
0100
0001
0010
0100
,
1000
0001
0010
0100
0010
0001
0100
0010
1000
0001
0010
0100
0010
0001
0100
0010
,
2000
3000
0000
0000
0020
0030
0000
0000
0200
0300
0000
0000
0002
0003
0000
0000
2000
3000
0000
0000
0002
0003
0000
0000
0020
0030
0000
0000
0200
0300
0000
0000
2000
3000
0000
0000
0020
0030
0000
0000
0200
0300
0000
0000
0002
0003
0000
0000
0020
0030
0000
0000
0200
0300
0000
0000
2000
3000
0000
0000
0002
0003
0000
0000
,
0200
0300
0000
0000
0020
0030
0000
0000
2000
3000
0000
0000
0002
0003
0000
0000
0200
0300
0000
0000
0002
0003
0000
0000
0020
0030
0000
0000
0200
0300
0000
0000
1000
0000
0000
0000
0001
0000
0000
0000
0010
0000
0000
0000
0001
0000
0000
0000
1000
0000
0000
0000
0010
0000
0000
0000
0100
0000
0000
0000
0001
0000
0000
0000
,
2000
0000
0000
0000
,
0000
0000
0000
0000
,
0000
0000
0000
0000
,
3020
0000
0000
0000
,
0230
0000
0000
0000
,
0000
0000
0000
0000
,
0000
0000
0000
0000
,
0302
0000
0000
0000
,
2003
0000
0000
0000
,
0000
0000
3200
0000
,
0000
0000
0000
0000
,
0320
0000
0000
0000
,
0031
1000
0001
0010
0100
1000
0001
0100
0001
1000
0100
0010
0100
1000
0001
0010
,
0001
1000
0001
0100
0010
1000
0100
1000
0001
0100
0001
1000
0001
0010
0100
1000
,
0001
0100
0001
1000
0001
0010
0100
0010
0001
1000
0001
0100
0010
1000
0010
0100
,
0001
0010
0100
1000
0001
0100
0010
1000
0001
0000
0000
0000
0000
0000
0000
0000
,
1000
0100
0010
0001
1000
0100
1000
0010
0100
0001
1000
0001
0100
0010
1000
0100
,
0010
0001
1000
0001
0010
0100
1000
0010
0100
0001
1000
0100
0010
0001
0010
0001
,
1000
0010
0100
0001
1000
0010
1000
0100
0010
0001
1000
0001
0010
0100
1000
0010
,
0100
0001
1000
0001
0100
0010
1000
0100
0010
0001
0010
0001
1000
0010
0100
0001
,
1000
0100
0010
0001
0010
0100
1000
0010
0100
0001
1000
0010
1000
0100
0010
0100
,
1000
0001
0010
0001
1000
0010
0100
0001
0010
0100
1000
0001
1000
0010
1000
0010
,
0100
0001
1000
0001
1000
0100
1000
0010
0100
0001
0100
0010
1000
0100
0010
0001
,
4000
0000
0000
0000
3004
0000
0000
0000
1003
0100
1000
0001
1000
0100
0010
0001
,
1000
0000
0100
0000
0010
0000
0001
0000
0100
0000
0001
0000
1000
0000
0010
0100
,
0001
0000
0010
0000
0001
0000
1000
0000
0001
0010
0100
1000
0001
0000
0100
0000
,
0010
0000
1000
0000
0100
0000
1000
0000
0001
0000
0100
0000
0001
0000
0010
0100
,
1000
0001
0100
0001
1000
0100
0020
0000
,
0031
1000
0001
0010
0100
0010
0001
0100
0001
1000
0010
1000
0001
0010
0001
0100
,
0010
1000
0001
1000
0100
0010
0001
0100
0001
1000
0010
0100
0001
1000
0001
1000
,
0001
0010
0100
1000
0001
0100
0001
1000
0100
0010
0100
1000
0001
0100
0010
1000
,
0001
0000
0000
0000
0000
0000
0000
0000
0000
0000
1000
0000
0000
0000
0000
0000
0000
0000
0000
0001
0000
0000
0000
0000
0000
0000
0000
0000
0000
0100
0000
0000
0000
0000
0000
0000
0000
0000
0010
0000
0000
0000
0000
0000
0000
0000
0000
0000
0100
0000
0000
0000
0000
0000
0000
0000
0000
0000
0001
0000
0000
0000
0000
0000
0000
0000
0000
1000
0000
0000
0000
0000
0000
0000
0000
0000
0000
0001
0000
0000
0000
0000
0000
0000
0000
0000
0000
0010
0000
0000
0000
0000
0000
0000
0000
0000
0400
0000
0000
0000
0000
0000
0000
0000
0000
0000
0000
0000
0000
0000
0000
0000
0000
0000
0000
0000
0000
0000
0000
0000
0000
0000
0000
0000
0000
0000
0000
0000
0000
0000
0000
0000
0000
0000
0000
0000
0000
0000
0000
0000
0000
0000
0000
0000
0000
0000
0000
0000
0000
0000
0000
0000
0000
0000
0000
0000
0000
0000
0000
0000
0000
0000
0000
0000
0000
0000
0000
0000
0000
0000
0000
0000
0000
0000
0000
0000
0000
0000
0000
0000
0300
0000
0000
0000
0000
0000
0000
0000
0000
0000
0000
0000
,
1000
0100
0010
0001
1000
0100
1000
0001
1000
0010
0100
0001
0100
0010
1000
0100
,
0010
0001
1000
0100
1000
0001
1000
0010
0100
0001
1000
0001
0010
0100
1000
0010
,
0100
0001
1000
0001
0100
0010
1000
0001
0010
0001
1000
0010
1000
0100
0010
0001
,
1000
0010
1000
0001
0100
0001
1000
0100
0010
0001
1000
0010
0200
0000
0000
0000
,
0301
1000
0001
0100
0010
1000
0001
1000
0100
1000
0001
0010
0001
0100
0010
1000
,
0001
0010
0100
1000
0001
0010
0001
1000
0010
0100
0001
0100
0001
0010
0100
0010
,
0001
1000
0001
0100
0010
1000
0001
0010
0100
1000
0001
0010
0001
0100
0010
1000
,
0001
0010
0001
1000
0001
0100
0010
1000
0100
0010
0100
0010
0002
0000
0000
0000
,
1003
0010
0100
0001
0010
0100
1000
0010
0100
0001
0010
0001
1000
0010
0100
0001
,
1000
0100
0010
0001
1000
0001
0100
0010
1000
0100
0010
0001
1000
0010
0100
0001
,
0010
0100
0010
0001
0100
0010
1000
0100
1000
0010
0100
0001
1000
0100
1000
0010
,
0100
0001
0100
0010
1000
0100
0010
0001
0100
0001
1000
0100
0010
0001
0100
0001
,
1000
0100
1000
0001
0100
0001
0010
0100
1000
0010
0100
0001
1000
0100
0010
0001
,
1000
0010
1000
0001
0010
0001
0100
0010
1000
0010
0100
0001
1000
0100
0010
0001
,
0100
0010
1000
0100
1000
0010
0100
0001
0010
0100
1000
0001
0100
0001
0010
0001
,
0100
0010
1000
0100
0010
0001
0100
0001
0010
0100
1000
0010
0100
0001
0010
0001
,
2000
0000
0000
0000
,
0000
0000
0000
0000
,
0000
0000
0000
0000
,
0000
0000
0000
0000
,
0000
0000
0000
0000
,
3000
0000
0000
0000
;
