#TITLE:Treasure;
#SUBTITLE:Sexuality Violation;
#ARTIST:Bruno Mars;
#TITLETRANSLIT:;
#SUBTITLETRANSLIT:;
#ARTISTTRANSLIT:;
#CREDIT:;
#BANNER:Treasure-bn.png;
#BACKGROUND:Treasure-bg.png;
#LYRICSPATH:;
#CDTITLE:GazeboCD.png;
#MUSIC:Treasure.ogg;
#OFFSET:-0.056;
#SAMPLESTART:37.700;
#SAMPLELENGTH:24.850;
#SELECTABLE:YES;
#BPMS:0.000=232.000;
#STOPS:;
#BGCHANGES:;
// cache tags:
#FIRSTBEAT:9.500;
#LASTBEAT:626.000;
#SONGFILENAME:Songs/Sexuality Violation 2/Treasure - [Gazebo]/Treasure.sm;
#HASMUSIC:1;
#HASBANNER:1;
#MUSICLENGTH:176.613;
// end cache tags

//---------------dance-single - Gazebo----------------
#NOTES:
     dance-single:
     Gazebo:
     Challenge:
     17:
     1.000,1.000,0.193,0.260,1.000,1453.000,34.000,46.000,4.000,0.000:
0000
0000
0000
0000
,
0000
0000
0000
0000
,
0000
0000
0000
0001
0010
0000
0010
0000
,
0010
0010
0010
0000
,
1001
0000
0000
0000
1000
0010
1000
0000
,
1000
0001
1000
0000
1000
0010
1000
0000
,
0001
0000
0010
0200
0000
0300
0100
0000
,
1100
0000
1000
0002
0000
0003
0001
0000
,
1001
0000
0000
1000
0010
1000
0010
0000
,
0010
0100
0010
0100
0001
1000
0000
1000
,
0001
0010
0000
0000
0100
0000
0010
0000
,
0011
0000
0001
1000
0010
0100
0000
0000
,
0110
0000
1000
0000
0001
0010
0001
0000
,
0001
0000
0001
0000
0001
0000
0001
1000
,
0010
0000
0100
0002
0000
0003
0001
0000
,
0101
0000
0001
2000
0000
3000
1000
0000
,
1001
0000
0001
0010
0001
0010
0001
0000
,
0001
0000
0001
1000
0001
1000
0001
0000
,
0001
0100
0000
0000
0010
0000
0100
0000
,
0101
0000
0001
1000
0100
0010
0000
0000
,
0120
0000
0000
0000
0000
0000
0000
0000
0031
1000
0100
1000
0001
1000
0010
0100
,
0001
1000
0010
1000
0001
1000
0100
0010
0001
0010
0001
1000
0100
1000
0001
1000
,
0001
0010
0001
1000
0010
0000
0000
0000
0100
0000
0000
0000
0001
0000
0000
0000
,
0001
1000
1000
0100
,
0010
0100
2000
0000
,
3020
0000
0000
0000
2030
0000
0000
0010
,
3000
0000
0000
0000
0001
0000
0000
0000
1000
0010
1000
0010
1000
0000
0000
0000
,
0100
1000
0100
1000
0100
0000
0000
0000
1000
0010
1000
0010
1000
0000
0000
0000
,
0020
0000
0000
0000
0000
0000
0000
0000
1030
0001
0100
0001
1000
0001
0010
0100
,
1000
0001
0010
0001
1000
0001
0100
0010
1000
0010
1000
0001
0100
0001
1000
0001
,
1000
0010
1000
0001
0010
0000
0000
0000
0100
0000
0000
0000
1000
0000
0000
0000
,
1000
0001
0001
0100
,
0010
0100
2020
3030
,
2200
3300
2020
3030
,
1000
0000
0001
0001
,
0010
0000
0010
0000
0001
1000
0010
0000
,
1010
0000
0000
0000
0000
0000
0000
0000
0001
0100
0001
0100
0001
1000
0001
1000
,
0010
0100
0010
1000
0100
1000
0001
1000
0001
0010
0100
0010
0001
1000
0010
0100
,
0010
1000
0001
0010
0100
1000
0001
1000
0010
1000
0001
0100
0001
1000
0001
1000
,
0100
0010
0001
1000
0100
1000
0001
1000
0010
0100
0010
1000
0001
0100
0001
1000
,
0100
0010
0001
1000
0001
1000
0010
1000
0001
0100
0001
1000
0100
1000
0001
1000
,
0010
0100
0010
1000
0100
1000
0001
1000
0001
0010
0100
0010
0001
1000
0010
0100
,
0010
1000
0001
0010
0100
1000
0001
1000
0010
1000
0001
0100
0001
1000
0001
1000
,
0100
0010
0001
1000
0100
1000
0001
1000
0010
0100
0010
1000
0001
0100
0001
1000
,
0100
0010
0001
1000
0001
1000
0010
1000
0001
0100
0001
1000
0100
1000
0001
1000
,
0010
0100
0010
1000
0100
1000
0001
1000
0001
0010
0100
0010
0001
1000
0100
1000
,
0001
1000
0010
1000
0100
0010
0001
1000
0100
1000
0001
0010
0001
1000
0001
1000
,
0010
0100
0001
1000
0010
1000
0001
1000
0100
0010
0100
1000
0001
0010
0001
1000
,
0010
0100
0001
1000
0001
1000
0100
1000
0001
0010
0001
1000
0010
1000
0001
1000
,
0100
0010
0100
1000
0010
1000
0001
1000
0001
0100
0010
0100
0001
1000
0100
0010
,
0100
1000
0001
0100
0010
1000
0001
1000
0100
1000
0001
0010
0001
1000
0001
1000
,
0010
0100
0001
1000
0010
1000
0001
1000
0100
0010
0100
1000
0001
0010
0001
1000
,
0010
0100
0001
1000
0001
1000
0100
1000
0001
0010
0001
1000
0010
1000
0001
1000
,
0100
0010
0100
1000
0010
1000
0001
1000
0001
0100
0010
0100
0001
1000
0100
0010
,
0100
1000
0001
0100
0010
1000
0001
1000
0100
1000
0001
0010
0001
1000
0001
1000
,
0010
0100
0001
1000
0010
1000
0001
1000
0100
0010
0100
1000
0001
0010
0001
1000
,
0010
0100
0001
1000
0010
1000
0001
0010
0400
0000
0000
0000
0000
0000
0000
0000
,
0000
4300
0000
0000
,
3040
0000
0000
0000
0130
0001
0000
0100
,
0001
0000
0100
0001
0000
0100
0001
0000
,
1001
0000
0000
0000
1000
0100
1000
0000
,
1000
0001
1000
0000
1000
0100
1000
0000
,
1000
0001
0100
0020
0000
0030
0010
0000
,
1010
0000
1000
0002
0000
0003
0001
0000
,
1001
0000
0000
1000
0100
0000
0100
0000
,
0100
0000
0100
0000
0100
2000
0000
0000
,
3001
2000
0000
0000
3010
0000
0100
0000
,
0101
0000
0001
1000
0100
0010
0000
0000
,
0011
0000
0000
0000
0001
1000
0100
1000
0001
1000
0001
0010
0001
1000
0100
1000
,
0001
1000
0010
0000
0000
0000
0100
0001
0100
0001
1000
0001
0010
0100
1000
0001
,
1000
0001
0010
0100
0010
0001
0100
0001
1000
0010
1000
0001
1000
0001
0100
0001
,
1000
0100
0010
0001
0100
0001
1000
0010
1000
0001
1000
0100
0010
0001
1000
0001
,
1000
0000
0000
0001
0100
0001
0100
0000
,
0100
0000
0100
0010
0100
0002
0000
0000
,
0103
0002
0000
0000
1003
0000
0100
0000
,
0110
0000
0010
0001
1000
0010
0000
0000
,
1020
0000
0000
0000
0000
0000
0000
0000
1030
0001
0100
0001
1000
0001
0010
0100
,
1000
0001
0010
0001
1000
0001
0100
0010
1000
0010
1000
0001
0100
0001
1000
0001
,
1000
0010
1000
0001
0010
0000
0000
0000
0100
0000
0000
0000
1000
0000
0000
0000
,
1000
0001
0001
0100
,
0010
0100
0002
0000
,
0023
0000
0000
0000
0032
0000
0000
0010
,
0003
0000
0000
0000
1000
0000
0000
0000
0001
0010
0001
0010
0001
0000
0000
0000
,
0100
0001
0100
0001
0100
0000
0000
0000
0001
0010
0001
0010
0001
0000
0000
0000
,
0020
0000
0000
0000
0000
0000
0000
0000
0031
1000
0100
1000
0001
1000
0010
0100
,
0001
1000
0010
1000
0001
1000
0100
0010
0001
0010
0001
1000
0100
1000
0001
1000
,
0001
0010
0001
1000
0010
0000
0000
0000
0100
0000
0000
0000
0001
0000
0000
0000
,
0001
1000
1000
0100
,
0010
0100
0022
0033
,
0202
0303
0022
0033
,
0001
0000
1000
1000
,
0010
0000
0010
0000
1000
0001
0010
0000
,
0011
0000
0000
0000
0000
0000
0000
0000
1000
0100
1000
0100
1000
0001
1000
0001
,
0010
0100
0010
0001
0100
0001
1000
0001
1000
0010
0100
0010
1000
0001
0010
0100
,
0010
0001
1000
0010
0100
0001
1000
0001
0010
0001
1000
0100
1000
0001
1000
0001
,
0100
0010
1000
0001
0100
0001
1000
0001
0010
0100
0010
0001
1000
0100
1000
0001
,
0100
0010
1000
0001
1000
0001
0010
0001
1000
0100
1000
0001
0100
0001
1000
0001
,
0010
0100
0010
0001
0100
0001
1000
0001
1000
0010
0100
0010
1000
0001
0010
0100
,
0010
0001
1000
0010
0100
0001
1000
0001
0010
0001
1000
0100
1000
0001
1000
0001
,
0100
0010
1000
0001
0100
0001
1000
0001
0010
0100
0010
0001
1000
0100
1000
0001
,
0100
0010
1000
0001
1000
0001
0010
0001
1000
0100
1000
0001
0100
0001
1000
0001
,
0010
0100
0010
0001
0100
0001
1000
0001
1000
0010
0100
0010
1000
0001
0100
0001
,
1000
0001
0010
0001
0100
0010
1000
0001
0100
0001
1000
0010
1000
0001
1000
0001
,
0010
0100
1000
0001
0010
0001
1000
0001
0100
0010
0100
0001
1000
0010
1000
0001
,
0010
0100
1000
0001
1000
0001
0100
0001
1000
0010
1000
0001
0010
0001
1000
0001
,
0100
0010
0100
0001
0010
0001
1000
0001
1000
0100
0010
0100
1000
0001
0100
0010
,
0100
0001
1000
0100
0010
0001
1000
0001
0100
0001
1000
0010
1000
0001
1000
0001
,
0010
0100
1000
0001
0010
0001
1000
0001
0100
0010
0100
0001
1000
0010
1000
0001
,
0010
0100
1000
0001
1000
0001
0100
0001
1000
0010
1000
0001
0010
0001
1000
0001
,
0100
0010
0100
0001
0010
0001
1000
0001
1000
0100
0010
0100
1000
0001
0100
0010
,
0100
0001
1000
0100
0010
0001
1000
0001
0100
0001
1000
0010
1000
0001
1000
0001
,
0010
0100
1000
0001
0010
0001
1000
0001
0100
0010
0100
0001
1000
0010
1000
0001
,
0010
0100
1000
0001
0010
0001
1000
0010
0400
0000
0000
0000
0000
0000
0000
0000
,
0000
0304
0000
0000
,
0043
0000
0000
0000
0130
1000
0000
0100
,
1000
0000
0100
1000
0000
0100
1000
0000
,
1001
0000
0001
0100
,
0010
0000
0010
0000
2000
0000
0000
0100
,
0000
3001
0000
1000
,
0100
0000
0100
0000
0020
0000
0000
0032
,
0000
0000
1003
0010
,
0100
0000
0100
0000
0002
0000
0000
0010
,
0000
1003
2020
3030
,
0022
0033
2200
3300
,
2010
3010
1000
0100
,
0010
0000
0010
0000
0002
0000
0000
0100
,
0000
1003
0000
0001
,
0100
0000
0100
0000
0020
0000
0000
2030
,
0000
0000
0000
0000
3001
0010
0000
0001
,
0010
0000
0001
0010
0000
0001
0010
0001
,
0000
1000
0010
0010
,
0100
0000
0100
0000
0001
1000
0100
0000
,
1100
0000
0000
0000
0000
0000
0000
0000
0001
0010
0001
0010
0001
1000
0001
1000
,
0100
0010
0100
1000
0010
1000
0001
1000
0001
0100
0010
0100
0001
1000
0100
0010
,
0100
1000
0001
0100
0010
1000
0001
1000
0100
1000
0001
0010
0001
1000
0001
1000
,
0010
0100
0001
1000
0010
1000
0001
1000
0100
0010
0100
1000
0001
0010
0001
1000
,
0010
0100
0001
1000
0001
1000
0100
1000
0001
0010
0001
1000
0010
1000
0001
1000
,
0100
0010
0100
1000
0010
1000
0001
1000
0001
0100
0010
0100
0001
1000
0100
0010
,
0100
1000
0001
0100
0010
1000
0001
1000
0100
1000
0001
0010
0001
1000
0001
1000
,
0010
0100
0001
1000
0010
1000
0001
1000
0100
0010
0100
1000
0001
0010
0001
1000
,
0010
0100
0001
1000
0001
1000
0100
1000
0001
0010
0001
1000
0010
1000
0001
1000
,
0100
0010
0100
1000
0010
1000
0001
1000
0001
0100
0010
0100
0001
1000
0010
1000
,
0001
1000
0100
1000
0010
0100
0001
1000
0010
1000
0001
0100
0001
1000
0001
1000
,
0100
0010
0001
1000
0100
1000
0001
1000
0010
0100
0010
1000
0001
0100
0001
1000
,
0100
0010
0001
1000
0001
1000
0010
1000
0001
0100
0001
1000
0100
1000
0001
1000
,
0010
0100
0010
1000
0100
1000
0001
1000
0001
0010
0100
0010
0001
1000
0010
0100
,
0010
1000
0001
0010
0100
1000
0001
1000
0010
1000
0001
0100
0001
1000
0001
1000
,
0100
0010
0001
1000
0100
1000
0001
1000
0010
0100
0010
1000
0001
0100
0001
1000
,
0100
0010
0001
1000
0001
1000
0010
1000
0001
0100
0001
1000
0100
1000
0001
1000
,
0010
0100
0010
1000
0100
1000
0001
1000
0001
0010
0100
0010
0001
1000
0010
0100
,
0010
1000
0001
0010
0100
1000
0001
1000
0010
1000
0001
0100
0001
1000
0001
1000
,
0100
0010
0001
1000
0100
1000
0001
1000
0010
0100
0010
1000
0001
0100
0001
1000
,
0100
0010
0001
1000
0100
1000
0001
0100
0040
0000
0000
0000
0000
0000
0000
0000
,
0000
4030
0000
0000
,
3400
0000
0000
0000
0310
0001
0000
0010
,
0001
0000
0010
0001
0000
0010
0001
0000
,
1001
0000
MMMM
0000
;

//---------------dance-single - Gazebo----------------
#NOTES:
     dance-single:
     Gazebo:
     Hard:
     16:
     1.000,1.000,0.193,0.260,0.951,1165.000,34.000,46.000,4.000,0.000:

0000
0000
0000
0000
,
0000
0000
0000
0000
,
0000
0000
0000
0001
0010
0000
0010
0000
,
0010
0010
0010
0000
,
1001
0000
0000
0000
1000
0010
1000
0000
,
1000
0001
1000
0000
1000
0010
1000
0000
,
0001
0000
0010
0200
0000
0300
0100
0000
,
1100
0000
1000
0002
0000
0003
0001
0000
,
1001
0000
0000
1000
0010
1000
0010
0000
,
0010
0100
0010
0100
0001
1000
0000
1000
,
0001
0010
0000
0000
0100
0000
0010
0000
,
0011
0000
0001
1000
0010
0100
0000
0000
,
0110
0000
1000
0000
0001
0010
0001
0000
,
0001
0000
0001
0000
0001
0000
0001
1000
,
0010
0000
0100
0002
0000
0003
0001
0000
,
0101
0000
0001
2000
0000
3000
1000
0000
,
1001
0000
0001
0010
0001
0010
0001
0000
,
0001
0000
0001
1000
0001
1000
0001
0000
,
0001
0100
0000
0000
0010
0000
0100
0000
,
0101
0000
0001
1000
0100
0010
0000
0000
,
0120
0000
0000
0000
0000
0000
0000
0000
0031
1000
0100
1000
0001
1000
0010
0100
,
0001
1000
0010
1000
0001
1000
0100
0010
0001
0010
0001
1000
0100
1000
0001
1000
,
0001
0010
0001
1000
0010
0000
0000
0000
0100
0000
0000
0000
0001
0000
0000
0000
,
0001
1000
1000
0100
,
0010
0100
2000
0000
,
3020
0000
0000
0000
2030
0000
0000
0010
,
3000
0000
0000
0000
0001
0000
0000
0000
1000
0010
1000
0010
1000
0000
0000
0000
,
0100
1000
0100
1000
0100
0000
0000
0000
1000
0010
1000
0010
1000
0000
0000
0000
,
0020
0000
0000
0000
0000
0000
0000
0000
1030
0001
0100
0001
1000
0001
0010
0100
,
1000
0001
0010
0001
1000
0001
0100
0010
1000
0010
1000
0001
0100
0001
1000
0001
,
1000
0010
1000
0001
0010
0000
0000
0000
0100
0000
0000
0000
1000
0000
0000
0000
,
1000
0001
0001
0100
,
0010
0100
2020
3030
,
2200
3300
2020
3030
,
1000
0000
0001
0001
,
0010
0000
0010
0000
0001
1000
0010
0000
,
1010
0000
0000
0000
0000
0000
0000
0000
0001
0100
0001
0100
0001
1000
0001
1000
,
0010
0100
0010
1000
0100
1000
0001
1000
0001
0010
0100
0010
0001
1000
0010
0100
,
0010
1000
0001
0010
0100
1000
0001
1000
0010
0000
0100
0000
0010
0000
0000
0000
,
1000
0010
1000
0000
0001
1000
0001
0000
,
0010
0000
0100
0000
0010
0000
0001
0000
1000
0100
1000
0001
0100
0001
1000
0001
,
0010
0100
0010
0001
0100
0001
1000
0001
1000
0010
0100
0010
1000
0001
0010
0100
,
0010
0001
1000
0010
0100
0001
1000
0001
0010
0000
0100
0000
0010
0000
0000
0000
,
0001
0010
0001
0000
1000
0001
1000
0000
,
0010
0000
0100
0000
0010
0000
1000
0000
0001
0100
0001
1000
0100
1000
0001
1000
,
0010
0100
0010
1000
0100
1000
0001
1000
0001
0010
0100
0010
0001
1000
0100
1000
,
0001
1000
0010
1000
0100
0010
0001
1000
0010
0000
0100
0000
0010
0000
0000
0000
,
1000
0010
1000
0000
0001
1000
0001
0000
,
0010
0000
0100
0000
0010
0000
0001
0000
1000
0010
1000
0001
0010
0001
1000
0001
,
0100
0010
0100
0001
0010
0001
1000
0001
1000
0100
0010
0100
1000
0001
0100
0010
,
0100
0001
1000
0100
0010
0001
1000
0001
0100
0000
0010
0000
0100
0000
0000
0000
,
0001
0100
0001
0000
1000
0001
1000
0000
,
0100
0000
0010
0000
0100
0000
1000
0000
0001
0010
0001
1000
0010
1000
0001
1000
,
0100
0010
0100
1000
0010
1000
0001
1000
0001
0100
0010
0100
0001
1000
0100
0010
,
0100
1000
0001
0100
0010
1000
0001
1000
0100
0000
0010
0000
0100
0000
0000
0000
,
1000
0100
1000
0000
0001
0100
0001
0000
,
1000
0010
1000
0000
0400
0000
0000
0000
,
0000
4300
0000
0000
,
3040
0000
0000
0000
0130
0001
0000
0100
,
0001
0000
0100
0001
0000
0100
0001
0000
,
1001
0000
0000
0000
1000
0100
1000
0000
,
1000
0001
1000
0000
1000
0100
1000
0000
,
1000
0001
0100
0020
0000
0030
0010
0000
,
1010
0000
1000
0002
0000
0003
0001
0000
,
1001
0000
0000
1000
0100
0000
0100
0000
,
0100
0000
0100
0000
0100
2000
0000
0000
,
3001
2000
0000
0000
3010
0000
0100
0000
,
0101
0000
0001
1000
0100
0010
0000
0000
,
0011
0000
0000
0000
0001
1000
0100
1000
0001
1000
0001
0010
0001
1000
0100
1000
,
0001
1000
0010
0000
0000
0000
0100
0001
0100
0001
1000
0001
0010
0100
1000
0001
,
1000
0001
0010
0100
0010
0001
0100
0001
1000
0010
1000
0001
1000
0001
0100
0001
,
1000
0100
0010
0001
0100
0001
1000
0010
1000
0001
1000
0100
0010
0001
1000
0001
,
1000
0000
0000
0001
0100
0001
0100
0000
,
0100
0000
0100
0010
0100
0002
0000
0000
,
0103
0002
0000
0000
1003
0000
0100
0000
,
0110
0000
0010
0001
1000
0010
0000
0000
,
1020
0000
0000
0000
0000
0000
0000
0000
1030
0001
0100
0001
1000
0001
0010
0100
,
1000
0001
0010
0001
1000
0001
0100
0010
1000
0010
1000
0001
0100
0001
1000
0001
,
1000
0010
1000
0001
0010
0000
0000
0000
0100
0000
0000
0000
1000
0000
0000
0000
,
1000
0001
0001
0100
,
0010
0100
0002
0000
,
0023
0000
0000
0000
0032
0000
0000
0010
,
0003
0000
0000
0000
1000
0000
0000
0000
0001
0010
0001
0010
0001
0000
0000
0000
,
0100
0001
0100
0001
0100
0000
0000
0000
0001
0010
0001
0010
0001
0000
0000
0000
,
0020
0000
0000
0000
0000
0000
0000
0000
0031
1000
0100
1000
0001
1000
0010
0100
,
0001
1000
0010
1000
0001
1000
0100
0010
0001
0010
0001
1000
0100
1000
0001
1000
,
0001
0010
0001
1000
0010
0000
0000
0000
0100
0000
0000
0000
0001
0000
0000
0000
,
0001
1000
1000
0100
,
0010
0100
0022
0033
,
0202
0303
0022
0033
,
0001
0000
1000
1000
,
0010
0000
0010
0000
1000
0001
0010
0000
,
0011
0000
0000
0000
0000
0000
0000
0000
1000
0100
1000
0100
1000
0001
1000
0001
,
0010
0100
0010
0001
0100
0001
1000
0001
1000
0010
0100
0010
1000
0001
0010
0100
,
0010
0001
1000
0010
0100
0001
1000
0001
0010
0000
0100
0000
0010
0000
0000
0000
,
0001
0010
0001
0000
1000
0001
1000
0000
,
0010
0000
0100
0000
0010
0000
1000
0000
0001
0100
0001
1000
0100
1000
0001
1000
,
0010
0100
0010
1000
0100
1000
0001
1000
0001
0010
0100
0010
0001
1000
0010
0100
,
0010
1000
0001
0010
0100
1000
0001
1000
0010
0000
0100
0000
0010
0000
0000
0000
,
1000
0010
1000
0000
0001
1000
0001
0000
,
0010
0000
0100
0000
0010
0000
0001
0000
1000
0100
1000
0001
0100
0001
1000
0001
,
0010
0100
0010
0001
0100
0001
1000
0001
1000
0010
0100
0010
1000
0001
0100
0001
,
1000
0001
0010
0001
0100
0010
1000
0001
0010
0000
0100
0000
0010
0000
0000
0000
,
0001
0010
0001
0000
1000
0001
1000
0000
,
0010
0000
0100
0000
0010
0000
1000
0000
0001
0010
0001
1000
0010
1000
0001
1000
,
0100
0010
0100
1000
0010
1000
0001
1000
0001
0100
0010
0100
0001
1000
0100
0010
,
0100
1000
0001
0100
0010
1000
0001
1000
0100
0000
0010
0000
0100
0000
0000
0000
,
1000
0100
1000
0000
0001
1000
0001
0000
,
0100
0000
0010
0000
0100
0000
0001
0000
1000
0010
1000
0001
0010
0001
1000
0001
,
0100
0010
0100
0001
0010
0001
1000
0001
1000
0100
0010
0100
1000
0001
0100
0010
,
0100
0001
1000
0100
0010
0001
1000
0001
0100
0000
0010
0000
0100
0000
0000
0000
,
0001
0100
0001
0000
1000
0100
1000
0000
,
0001
0010
0001
0000
0400
0000
0000
0000
,
0000
0304
0000
0000
,
0043
0000
0000
0000
0130
1000
0000
0100
,
1000
0000
0100
1000
0000
0100
1000
0000
,
1001
0000
0001
0100
,
0010
0000
0010
0000
2000
0000
0000
0100
,
0000
3001
0000
1000
,
0100
0000
0100
0000
0020
0000
0000
0032
,
0000
0000
1003
0010
,
0100
0000
0100
0000
0002
0000
0000
0010
,
0000
1003
2020
3030
,
0022
0033
2200
3300
,
2010
3010
1000
0100
,
0010
0000
0010
0000
0002
0000
0000
0100
,
0000
1003
0000
0001
,
0100
0000
0100
0000
0020
0000
0000
2030
,
0000
0000
0000
0000
3001
0010
0000
0001
,
0010
0000
0001
0010
0000
0001
0010
0001
,
0000
1000
0010
0010
,
0100
0000
0100
0000
0001
1000
0100
0000
,
1100
0000
0000
0000
0000
0000
0000
0000
0001
0010
0001
0010
0001
1000
0001
1000
,
0100
0010
0100
1000
0010
1000
0001
1000
0001
0100
0010
0100
0001
1000
0100
0010
,
0100
1000
0001
0100
0010
1000
0001
1000
0100
0000
0010
0000
0100
0000
0000
0000
,
1000
0100
1000
0000
0001
1000
0001
0000
,
0100
0000
0010
0000
0100
0000
0001
0000
1000
0010
1000
0001
0010
0001
1000
0001
,
0100
0010
0100
0001
0010
0001
1000
0001
1000
0100
0010
0100
1000
0001
0100
0010
,
0100
0001
1000
0100
0010
0001
1000
0001
0100
0000
0010
0000
0100
0000
0000
0000
,
0001
0100
0001
0000
1000
0001
1000
0000
,
0100
0000
0010
0000
0100
0000
1000
0000
0001
0010
0001
1000
0010
1000
0001
1000
,
0100
0010
0100
1000
0010
1000
0001
1000
0001
0100
0010
0100
0001
1000
0010
1000
,
0001
1000
0100
1000
0010
0100
0001
1000
0100
0000
0010
0000
0100
0000
0000
0000
,
1000
0100
1000
0000
0001
1000
0001
0000
,
0100
0000
0010
0000
0100
0000
0001
0000
1000
0100
1000
0001
0100
0001
1000
0001
,
0010
0100
0010
0001
0100
0001
1000
0001
1000
0010
0100
0010
1000
0001
0010
0100
,
0010
0001
1000
0010
0100
0001
1000
0001
0010
0000
0100
0000
0010
0000
0000
0000
,
0001
0010
0001
0000
1000
0001
1000
0000
,
0010
0000
0100
0000
0010
0000
1000
0000
0001
0100
0001
1000
0100
1000
0001
1000
,
0010
0100
0010
1000
0100
1000
0001
1000
0001
0010
0100
0010
0001
1000
0010
0100
,
0010
1000
0001
0010
0100
1000
0001
1000
0010
0000
0100
0000
0010
0000
0000
0000
,
1000
0010
1000
0000
0001
0010
0001
0000
,
1000
0100
1000
0000
0040
0000
0000
0000
,
0000
4030
0000
0000
,
3400
0000
0000
0000
0310
0001
0000
0010
,
0001
0000
0010
0001
0000
0010
0001
0000
,
1001
0000
MMMM
0000
;

//---------------dance-single - Gazebo----------------
#NOTES:
     dance-single:
     Gazebo:
     Medium:
     13:
     0.994,1.000,0.193,0.260,1.000,1143.000,34.000,46.000,4.000,0.000:
0000
0000
0000
0000
,
0000
0000
0000
0000
,
0000
0000
0000
0001
0010
0000
0010
0000
,
0010
0010
0010
0000
,
1001
0000
0000
0000
1000
0010
1000
0000
,
1000
0001
1000
0000
1000
0010
1000
0000
,
0001
0000
0010
0200
0000
0300
0100
0000
,
1100
0000
1000
0002
0000
0003
0001
0000
,
1001
0000
0000
1000
0010
1000
0010
0000
,
0010
0100
0010
0100
0001
1000
0000
1000
,
0001
0010
0000
0000
0100
0000
0010
0000
,
0011
0000
0001
1000
0010
0100
0000
0000
,
0110
0000
1000
0000
0001
0010
0001
0000
,
0001
0000
0001
0000
0001
0000
0001
1000
,
0010
0000
0100
0002
0000
0003
0001
0000
,
0101
0000
0001
2000
0000
3000
1000
0000
,
1001
0000
0001
0010
0001
0010
0001
0000
,
0001
0000
0001
1000
0001
1000
0001
0000
,
0001
0100
0000
0000
0010
0000
0100
0000
,
0101
0000
0001
1000
0100
0010
0000
0000
,
0210
0000
0000
0000
0000
0000
1300
0001
0010
0001
1000
0010
,
0100
0001
0100
0001
1000
0100
0010
0001
0010
0100
1000
0001
,
1000
0010
0100
0001
,
0001
1000
1000
0100
,
0010
0100
2000
0000
,
3020
0000
0000
0000
2030
0000
0000
0010
,
3000
0000
0000
0001
0000
0000
1000
0010
1000
0010
0000
0000
,
1000
0001
1000
0001
0000
0000
1000
0010
1000
0010
0000
0000
,
0200
0000
0000
0000
0000
0000
0301
1000
0010
1000
0001
0010
,
0100
1000
0100
1000
0001
0100
0010
1000
0010
0100
0001
1000
,
0001
0010
0100
1000
,
1000
0001
0001
0100
,
0010
0100
2020
3030
,
2200
3300
2020
3030
,
1000
0000
0001
0001
,
0010
0000
0010
0000
0001
1000
0010
0000
,
1010
0000
0000
0000
0000
0000
0001
0100
0001
0100
0010
1000
,
0001
0100
0001
0010
0100
1000
0001
0010
0001
1000
0010
0100
,
0010
1000
0001
0100
0001
1000
0001
0010
0001
0010
0100
1000
,
0001
0100
0001
0100
0010
1000
0001
0010
0001
0010
0100
1000
,
0001
0100
0010
0100
0010
1000
0100
1000
0001
0010
0001
1000
,
0100
0010
0001
0100
0010
1000
0001
0100
0001
1000
0100
0010
,
0100
1000
0001
0010
0001
1000
0001
0100
0001
0100
0010
1000
,
0001
0010
0001
0010
0100
1000
0001
0100
0001
0100
0010
1000
,
0001
0010
0100
0010
0100
1000
0010
1000
0001
0100
0001
1000
,
0010
0100
0001
0010
0100
1000
0001
0010
0001
1000
0010
0100
,
0010
1000
0001
0100
0001
1000
0001
0010
0001
0010
0100
1000
,
0001
0100
0001
0100
0010
1000
0001
0010
0001
0010
0100
1000
,
0001
0100
0010
0100
0010
1000
0100
1000
0001
0010
0100
1000
,
0001
0010
0001
0100
0010
1000
0001
0100
0001
1000
0100
0010
,
0100
1000
0001
0010
0001
1000
0001
0100
0001
0100
0010
1000
,
0001
0010
0001
0010
0100
1000
0001
0100
0001
0100
0010
1000
,
0001
0010
0100
0010
0100
1000
0010
1000
0001
0100
0001
1000
,
0010
0100
0001
0010
0100
1000
0001
0010
0001
1000
0010
0100
,
0010
1000
0001
0100
0001
1000
0001
0010
0001
0010
0100
1000
,
0001
0100
0001
0100
0010
1000
0001
0010
0001
0010
0100
1000
,
0001
0100
0010
1000
0001
1000
0400
0000
0000
0000
0000
0000
,
0000
4300
0000
0000
,
3040
0000
0000
0000
0130
0001
0000
0100
,
0001
0000
0100
0001
0000
0100
0001
0000
,
1001
0000
0000
0000
1000
0100
1000
0000
,
1000
0001
1000
0000
1000
0100
1000
0000
,
1000
0001
0100
0020
0000
0030
0010
0000
,
1010
0000
1000
0002
0000
0003
0001
0000
,
1001
0000
0000
1000
0100
0000
0100
0000
,
0100
0000
0100
0000
0100
2000
0000
0000
,
3001
2000
0000
0000
3010
0000
0100
0000
,
0101
0000
0001
1000
0100
0010
0000
0000
,
0011
0000
0001
1000
0100
1000
0001
1000
,
0010
0100
0000
0010
1000
0001
0010
0001
,
0010
0100
1000
0001
0100
0001
1000
0001
,
0100
0010
1000
0100
0010
0001
0010
0100
,
1000
0000
0000
0001
0100
0001
0100
0000
,
0100
0000
0100
0010
0100
0002
0000
0000
,
0103
0002
0000
0000
1003
0000
0100
0000
,
0110
0000
0010
0001
1000
0010
0000
0000
,
0210
0000
0000
0000
0000
0000
0301
1000
0010
1000
0001
0010
,
0100
1000
0100
1000
0001
0100
0010
1000
0010
0100
0001
1000
,
0001
0010
0100
1000
,
1000
0001
0001
0100
,
0010
0100
0002
0000
,
0023
0000
0000
0000
0032
0000
0000
0010
,
0003
0000
0000
1000
0000
0000
0001
0010
0001
0010
0000
0000
,
0001
1000
0001
1000
0000
0000
0001
0010
0001
0010
0000
0000
,
0200
0000
0000
0000
0000
0000
1300
0001
0010
0001
1000
0010
,
0100
0001
0100
0001
1000
0100
0010
0001
0010
0100
1000
0001
,
1000
0010
0100
0001
,
0001
1000
1000
0100
,
0010
0100
0022
0033
,
0202
0303
0022
0033
,
0001
0000
1000
1000
,
0010
0000
0010
0000
1000
0001
0010
0000
,
0011
0000
0000
0000
0000
0000
1000
0100
1000
0100
0010
0001
,
1000
0100
1000
0010
0100
0001
1000
0010
1000
0001
0010
0100
,
0010
0001
1000
0100
1000
0001
1000
0010
1000
0010
0100
0001
,
1000
0100
1000
0100
0010
0001
1000
0010
1000
0010
0100
0001
,
1000
0100
0010
0100
0010
0001
0100
0001
1000
0010
1000
0001
,
0100
0010
1000
0100
0010
0001
1000
0100
1000
0001
0100
0010
,
0100
0001
1000
0010
1000
0001
1000
0100
1000
0100
0010
0001
,
1000
0010
1000
0010
0100
0001
1000
0100
1000
0100
0010
0001
,
1000
0010
0100
0010
0100
0001
0010
0001
1000
0100
1000
0001
,
0010
0100
1000
0010
0100
0001
1000
0010
1000
0001
0010
0100
,
0010
0001
1000
0100
1000
0001
1000
0010
1000
0010
0100
0001
,
1000
0100
1000
0100
0010
0001
1000
0010
1000
0010
0100
0001
,
1000
0100
0010
0100
0010
0001
0100
0001
1000
0010
0100
0001
,
1000
0010
1000
0100
0010
0001
1000
0100
1000
0001
0100
0010
,
0100
0001
1000
0010
1000
0001
1000
0100
1000
0100
0010
0001
,
1000
0010
1000
0010
0100
0001
1000
0100
1000
0100
0010
0001
,
1000
0010
0100
0010
0100
0001
0010
0001
1000
0100
1000
0001
,
0010
0100
1000
0010
0100
0001
1000
0010
1000
0001
0010
0100
,
0010
0001
1000
0100
1000
0001
1000
0010
1000
0010
0100
0001
,
1000
0100
1000
0100
0010
0001
1000
0010
1000
0010
0100
0001
,
1000
0100
0010
0001
1000
0001
0400
0000
0000
0000
0000
0000
,
0000
0304
0000
0000
,
0043
0000
0000
0000
0130
1000
0000
0100
,
1000
0000
0100
1000
0000
0100
1000
0000
,
1001
0000
0001
0100
,
0010
0000
0010
0000
2000
0000
0000
0100
,
0000
3001
0000
1000
,
0100
0000
0100
0000
0020
0000
0000
0032
,
0000
0000
1003
0010
,
0100
0000
0100
0000
0002
0000
0000
0010
,
0000
1003
2020
3030
,
0022
0033
2200
3300
,
2010
3010
1000
0100
,
0010
0000
0010
0000
0002
0000
0000
0100
,
0000
1003
0000
0001
,
0100
0000
0100
0000
0020
0000
0000
2030
,
0000
0000
0000
0000
3001
0010
0000
0001
,
0010
0000
0001
0010
0000
0001
0010
0001
,
0000
1000
0010
0010
,
0100
0000
0100
0000
0001
1000
0100
0000
,
1100
0000
0000
0000
0000
0000
0001
0010
0001
0010
0100
1000
,
0001
0010
0001
0100
0010
1000
0001
0100
0001
1000
0100
0010
,
0100
1000
0001
0010
0001
1000
0001
0100
0001
0100
0010
1000
,
0001
0010
0001
0010
0100
1000
0001
0100
0001
0100
0010
1000
,
0001
0010
0100
0010
0100
1000
0010
1000
0001
0100
0001
1000
,
0010
0100
0001
0010
0100
1000
0001
0010
0001
1000
0010
0100
,
0010
1000
0001
0100
0001
1000
0001
0010
0001
0010
0100
1000
,
0001
0100
0001
0100
0010
1000
0001
0010
0001
0010
0100
1000
,
0001
0100
0010
0100
0010
1000
0100
1000
0001
0010
0001
1000
,
0100
0010
0001
0100
0010
1000
0001
0100
0001
1000
0100
0010
,
0100
1000
0001
0010
0001
1000
0001
0100
0001
0100
0010
1000
,
0001
0010
0001
0010
0100
1000
0001
0100
0001
0100
0010
1000
,
0001
0010
0100
0010
0100
1000
0010
1000
0001
0100
0010
1000
,
0001
0100
0001
0010
0100
1000
0001
0010
0001
1000
0010
0100
,
0010
1000
0001
0100
0001
1000
0001
0010
0001
0010
0100
1000
,
0001
0100
0001
0100
0010
1000
0001
0010
0001
0010
0100
1000
,
0001
0100
0010
0100
0010
1000
0100
1000
0001
0010
0001
1000
,
0100
0010
0001
0100
0010
1000
0001
0100
0001
1000
0100
0010
,
0100
1000
0001
0010
0001
1000
0001
0100
0001
0100
0010
1000
,
0001
0010
0001
0010
0100
1000
0001
0100
0001
0100
0010
1000
,
0001
0010
0100
1000
0001
1000
0040
0000
0000
0000
0000
0000
,
0000
4030
0000
0000
,
3400
0000
0000
0000
0310
0001
0000
0010
,
0001
0000
0010
0001
0000
0010
0001
0000
,
1001
0000
MMMM
0000
;

//---------------dance-single - Gazebo----------------
#NOTES:
     dance-single:
     Gazebo:
     Easy:
     10:
     0.737,0.753,0.193,0.260,0.000,825.000,34.000,46.000,4.000,0.000:
0000
0000
0000
0000
,
0000
0000
0000
0000
,
0000
0000
0000
0001
0010
0000
0010
0000
,
0010
0010
0010
0000
,
1001
0000
0000
0000
1000
0010
1000
0000
,
1000
0001
1000
0000
1000
0010
1000
0000
,
0001
0000
0010
0200
0000
0300
0100
0000
,
1100
0000
1000
0002
0000
0003
0001
0000
,
1001
0000
0000
1000
0010
1000
0010
0000
,
0010
0100
0010
0100
0001
1000
0000
1000
,
0001
0010
0000
0000
0100
0000
0010
0000
,
0011
0000
0001
1000
0010
0100
0000
0000
,
0110
0000
1000
0000
0001
0010
0001
0000
,
0001
0000
0001
0000
0001
0000
0001
1000
,
0010
0000
0100
0002
0000
0003
0001
0000
,
0101
0000
0001
2000
0000
3000
1000
0000
,
1001
0000
0001
0010
0001
0010
0001
0000
,
0001
0000
0001
1000
0001
1000
0001
0000
,
0001
0100
0000
0000
0010
0000
0100
0000
,
0101
0000
0001
1000
0100
0010
0000
0000
,
0210
0000
0000
0000
1300
0001
1000
0010
,
0100
0010
0100
0001
1000
0100
1000
0100
,
1000
0010
0100
0001
,
0001
1000
1000
0100
,
0010
0100
2000
0000
,
3020
0000
0000
0000
2030
0000
0000
0010
,
3000
0000
0001
0000
1000
0001
1000
0000
,
0100
1000
0100
0000
1000
0001
1000
0000
,
0020
0000
0000
0000
1030
0001
1000
0100
,
0010
0100
0010
0001
1000
0010
1000
0010
,
1000
0100
0010
0001
,
0001
1000
1000
0010
,
0100
0010
0202
0303
,
0022
0033
0202
0303
,
0001
0000
1000
1000
,
0010
0000
0010
0000
1000
0001
0010
0000
,
0011
0000
0000
0000
0001
0010
0001
0010
,
0100
1000
0010
1000
0001
0100
0001
1000
,
0100
1000
0001
1000
0010
0100
0010
0000
,
1000
0010
1000
0000
0001
0100
0001
0000
,
1000
0001
1000
0100
0010
0001
1000
0010
,
0100
0001
0010
0001
1000
0100
1000
0001
,
0100
0001
1000
0001
0010
0100
0010
0000
,
0001
0010
0001
0000
1000
0100
1000
0000
,
0001
1000
0001
0100
0010
1000
0001
0010
,
0100
1000
0010
1000
0001
0100
0001
1000
,
0100
1000
0001
1000
0010
0100
0010
0000
,
1000
0010
1000
0000
0001
0100
0001
0000
,
1000
0001
1000
0100
0010
0001
1000
0010
,
0100
0001
0010
0001
1000
0100
1000
0001
,
0100
0001
1000
0001
0010
0100
0010
0000
,
0001
0010
0001
0000
1000
0100
1000
0000
,
0001
1000
0001
0100
0010
1000
0001
0010
,
0100
1000
0010
1000
0001
0100
0001
1000
,
0100
1000
0001
1000
0010
0100
0010
0000
,
1000
0010
1000
0000
0001
0100
0001
0000
,
1000
0001
1000
0000
0400
0000
0000
0000
,
0000
4300
0000
0000
,
3040
0000
0000
0000
0130
0001
0000
0100
,
0001
0000
0100
0001
0000
0100
0001
0000
,
1001
0000
0000
0000
1000
0100
1000
0000
,
1000
0001
1000
0000
1000
0100
1000
0000
,
1000
0001
0100
0020
0000
0030
0010
0000
,
1010
0000
1000
0002
0000
0003
0001
0000
,
1001
0000
0000
1000
0100
0000
0100
0000
,
0100
0000
0100
0000
0100
2000
0000
0000
,
3001
2000
0000
0000
3010
0000
0100
0000
,
0101
0000
0001
1000
0100
0010
0000
0000
,
0011
0000
0001
1000
0100
1000
0001
1000
,
0010
0100
0000
0010
1000
0001
0010
0001
,
0010
0100
1000
0001
0100
0001
1000
0001
,
0100
0010
1000
0100
0010
0001
0010
0100
,
1000
0000
0000
0001
0100
0001
0100
0000
,
0100
0000
0100
0010
0100
0002
0000
0000
,
0103
0002
0000
0000
1003
0000
0100
0000
,
0110
0000
0010
0001
1000
0010
0000
0000
,
0210
0000
0000
0000
0301
1000
0001
0010
,
0100
0010
0100
1000
0001
0100
0001
0100
,
0001
0010
0100
1000
,
1000
0001
0001
0100
,
0010
0100
0002
0000
,
0023
0000
0000
0000
0032
0000
0000
0010
,
0003
0000
1000
0000
0001
1000
0001
0000
,
0100
0001
0100
0000
0001
1000
0001
0000
,
0020
0000
0000
0000
0031
1000
0001
0100
,
0010
0100
0010
1000
0001
0010
0001
0010
,
0001
0100
0010
1000
,
1000
0001
0001
0010
,
0100
0010
2200
3300
,
2020
3030
2200
3300
,
1000
0000
0001
0001
,
0010
0000
0010
0000
0001
1000
0010
0000
,
1010
0000
0000
0000
1000
0010
1000
0010
,
0100
0001
0010
0001
1000
0100
1000
0001
,
0100
0001
1000
0001
0010
0100
0010
0000
,
0001
0010
0001
0000
1000
0100
1000
0000
,
0001
1000
0001
0100
0010
1000
0001
0010
,
0100
1000
0010
1000
0001
0100
0001
1000
,
0100
1000
0001
1000
0010
0100
0010
0000
,
1000
0010
1000
0000
0001
0100
0001
0000
,
1000
0001
1000
0100
0010
0001
1000
0010
,
0100
0001
0010
0001
1000
0100
1000
0001
,
0100
0001
1000
0001
0010
0100
0010
0000
,
0001
0010
0001
0000
1000
0100
1000
0000
,
0001
1000
0001
0100
0010
1000
0001
0010
,
0100
1000
0010
1000
0001
0100
0001
1000
,
0100
1000
0001
1000
0010
0100
0010
0000
,
1000
0010
1000
0000
0001
0100
0001
0000
,
1000
0001
1000
0100
0010
0001
1000
0010
,
0100
0001
0010
0001
1000
0100
1000
0001
,
0100
0001
1000
0001
0010
0100
0010
0000
,
0001
0010
0001
0000
1000
0100
1000
0000
,
0001
1000
0001
0000
0400
0000
0000
0000
,
0000
0304
0000
0000
,
0043
0000
0000
0000
0130
1000
0000
0100
,
1000
0000
0100
1000
0000
0100
1000
0000
,
1001
0000
0001
0100
,
0010
0000
0010
0000
2000
0000
0000
0100
,
0000
3001
0000
1000
,
0100
0000
0100
0000
0020
0000
0000
0032
,
0000
0000
1003
0010
,
0100
0000
0100
0000
0002
0000
0000
0010
,
0000
1003
2020
3030
,
0022
0033
2200
3300
,
2010
3010
1000
0100
,
0010
0000
0010
0000
0002
0000
0000
0100
,
0000
1003
0000
0001
,
0100
0000
0100
0000
0020
0000
0000
2030
,
0000
0000
0000
0000
3001
0010
0000
0001
,
0010
0000
0001
0010
0000
0001
0010
0001
,
0000
1000
0010
0010
,
0100
0000
0100
0000
0001
1000
0100
0000
,
1100
0000
0000
0000
0001
0100
0001
0100
,
0010
1000
0100
1000
0001
0010
0001
1000
,
0010
1000
0001
1000
0100
0010
0100
0000
,
1000
0100
1000
0000
0001
0010
0001
0000
,
1000
0001
1000
0010
0100
0001
1000
0100
,
0010
0001
0100
0001
1000
0010
1000
0001
,
0010
0001
1000
0001
0100
0010
0100
0000
,
0001
0100
0001
0000
1000
0010
1000
0000
,
0001
1000
0001
0010
0100
1000
0001
0100
,
0010
1000
0100
1000
0001
0010
0001
1000
,
0010
1000
0001
1000
0100
0010
0100
0000
,
1000
0100
1000
0000
0001
0010
0001
0000
,
1000
0001
1000
0010
0100
0001
1000
0100
,
0010
0001
0100
0001
1000
0010
1000
0001
,
0010
0001
1000
0001
0100
0010
0100
0000
,
0001
0100
0001
0000
1000
0010
1000
0000
,
0001
1000
0001
0010
0100
1000
0001
0100
,
0010
1000
0100
1000
0001
0010
0001
1000
,
0010
1000
0001
1000
0100
0010
0100
0000
,
1000
0100
1000
0000
0001
0010
0001
0000
,
1000
0001
1000
0000
0040
0000
0000
0000
,
0000
4030
0000
0000
,
3400
0000
0000
0000
0310
0001
0000
0010
,
0001
0000
0010
0001
0000
0010
0001
0000
,
1001
0000
MMMM
0000
;
