#TITLE:Heaven;
#SUBTITLE:;
#ARTIST:DJ Sammy & Yanou feat. DO;
#TITLETRANSLIT:;
#SUBTITLETRANSLIT:;
#ARTISTTRANSLIT:;
#CREDIT:;
#BANNER:Heaven-bn.png;
#BACKGROUND:heaven-bg.png;
#LYRICSPATH:;
#CDTITLE:!Dan23!.png;
#MUSIC:Heaven.mp3;
#OFFSET:-1.460;
#SAMPLESTART:77.940;
#SAMPLELENGTH:14.980;
#SELECTABLE:YES;
#BPMS:0.000=69.000,16.000=138.000,152.000=69.000,156.000=138.000,292.000=69.000,296.000=138.000,360.000=69.000,372.000=138.000,484.000=69.000;
#STOPS:;
#BGCHANGES:;
// cache tags:
#FIRSTBEAT:16.000;
#LASTBEAT:487.000;
#SONGFILENAME:Songs/Keyboard Collaboration II/Dan23 - Heaven/Heaven.sm;
#HASMUSIC:1;
#HASBANNER:1;
#MUSICLENGTH:235.133;
// end cache tags

//---------------dance-single - ----------------
#NOTES:
     dance-single:
     :
     Hard:
     11:
     1.000,0.958,0.583,0.077,1.000,1557.000,137.000,18.000,0.000,0.000:  // measure 1
0000
0000
0000
0000
,  // measure 2
0000
0000
0000
0000
,  // measure 3
0000
0000
0000
0000
,  // measure 4
0000
0000
0000
0000
,  // measure 5
1001
0000
0000
0000
0110
0000
0000
0000
1100
0000
0000
0101
0000
0000
0110
0000
,  // measure 6
2002
0000
0000
0000
0000
0000
0000
3003
,  // measure 7
0110
0000
0000
0000
1100
0000
0000
0000
0101
0000
0000
1010
0000
0000
1001
0000
,  // measure 8
0220
0000
0000
0000
0000
0000
0000
0330
,  // measure 9
0010
0100
0001
0010
0100
1000
0100
1000
0010
0100
0001
0010
0100
1000
0010
0100
,  // measure 10
0001
1000
0001
0100
0001
0010
0001
1000
0100
1000
0010
0100
0001
0010
0100
1000
,  // measure 11
0010
1000
0001
0100
0010
1000
0001
0010
0100
1000
0001
1000
0010
0100
0001
0010
,  // measure 12
0100
1000
0100
0010
0001
0100
0001
0100
0010
1000
0001
0100
0010
1000
0001
0010
,  // measure 13
1100
0000
0001
1000
0001
0000
0100
0010
1000
0000
1000
0001
0000
1000
0010
0100
,  // measure 14
0001
0000
0010
0100
1000
0000
0100
0010
0001
0000
0100
0010
0000
1000
0001
0010
,  // measure 15
1100
0000
0001
1000
0001
0000
0001
0100
0010
0000
1000
0100
0000
1000
0001
0010
,  // measure 16
0100
0000
0010
0100
0001
0000
0010
0100
1000
0000
0001
0100
0000
0010
1000
0001
,  // measure 17
0110
0000
1000
0001
0100
0000
0010
1000
0100
0000
0010
0001
0000
0100
0010
1000
,  // measure 18
0001
0000
1000
0010
0100
0000
0001
0010
0100
0000
1000
0100
0000
0010
0001
0100
,  // measure 19
0010
0100
0001
0010
0100
1000
0100
1000
0010
0100
0001
0100
0010
1000
0100
1000
,  // measure 20
0010
0100
0001
0010
0100
1000
0010
1000
0001
0100
0001
0010
0100
0010
0001
0100
,  // measure 21
0010
0000
1100
0000
0101
0000
1001
0000
0110
0000
1000
0001
0000
0001
1000
0010
,  // measure 22
0100
0000
1001
0000
1100
0000
0011
0000
0110
0000
1000
0001
0000
0100
0010
1000
,  // measure 23
0001
0000
1000
0000
0110
0000
0001
0000
1100
0000
0001
0100
0010
0000
1100
0000
,  // measure 24
0101
1010
0011
1100
0001
0101
1000
1100
,  // measure 25
0011
0000
1001
0000
0110
0000
0010
0100
0001
0000
0010
0000
0100
0000
1000
0001
,  // measure 26
1000
0000
0010
0000
0100
0000
0001
0010
0100
0000
1100
0000
0101
0000
1001
0000
,  // measure 27
0110
0000
1000
0010
0100
0000
0001
0010
0100
0000
1000
0001
1000
0000
1001
0000
,  // measure 28
0110
0000
0011
0000
0110
0000
1100
0000
0110
0000
1001
0000
0001
0100
0010
1000
,  // measure 29
0001
0010
1100
0101
0001
1000
1001
0101
,  // measure 30
0110
0000
1000
0000
1001
0000
0010
0100
0001
0000
0010
0000
0100
0000
1000
0100
,  // measure 31
0010
0000
0101
0000
1100
0000
0010
0100
0001
0010
0100
1000
0001
0000
1100
0000
,  // measure 32
0110
0000
0010
0100
0001
0000
0010
0100
1000
0100
0010
0001
0100
0000
1100
0000
,  // measure 33
1001
0000
0010
1000
0010
0000
0001
0100
0001
1000
0010
0100
0001
0000
1001
0000
,  // measure 34
0110
0000
0010
0100
0001
0000
0010
0100
1000
0100
0010
0001
0100
0000
1010
0000
,  // measure 35
1001
0000
0010
0100
0001
0000
1000
0010
1000
0000
0001
0100
0010
0000
1000
0000
,  // measure 36
0101
0000
1100
0000
0110
0000
0011
0000
1010
0000
0101
0000
1001
0000
0010
0100
,  // measure 37
0001
0010
0100
1000
0010
0100
0001
0010
0100
1000
0100
0010
0001
0100
0001
1000
,  // measure 38
0010
0100
0001
1000
0100
1000
0010
0100
0001
0010
0100
1000
0100
1000
0010
0100
,  // measure 39
0001
0000
0000
0000
1000
0000
0010
0000
0100
0000
0000
0000
0001
0000
0100
0000
0202
0303
0000
0000
1000
0000
2200
3300
0000
0000
0001
0000
2002
3003
0000
0000
,  // measure 40
0001
0100
0010
1000
0100
1000
0010
0100
0010
1000
0001
0100
0001
1000
0010
1000
,  // measure 41
0100
1000
0001
1000
0001
0100
0010
1000
0001
0010
0100
1000
0010
0100
0001
1000
,  // measure 42
0100
1000
0001
0100
0001
0010
0100
0010
0001
0100
0010
1000
0001
0100
0001
1000
,  // measure 43
0010
1000
0100
1000
0001
0100
0001
1000
0010
0100
0001
0010
0100
1000
0100
0010
,  // measure 44
0001
0100
0010
1000
0001
0100
0001
1000
0010
1000
0100
0010
0001
0100
0010
1000
,  // measure 45
0001
0100
0001
1000
0010
0100
0001
0010
0100
1000
0100
1000
0010
0100
0001
0010
,  // measure 46
0100
1000
0100
1000
0010
0100
0001
0100
0001
1000
0010
0100
0001
0010
0001
0100
,  // measure 47
0010
1000
0001
1000
0010
0100
0001
1000
0100
1000
0001
0010
0100
1000
0001
0100
,  // measure 48
0001
1000
0010
0100
0001
0010
0100
1000
0010
0100
0001
0010
0100
1000
0001
0100
,  // measure 49
0001
1000
0010
0100
0001
0010
0100
1000
0100
0010
0001
0100
0010
1000
0001
0100
,  // measure 50
0001
1000
0010
0100
0001
0010
0100
1000
0100
1000
0010
0100
0001
1000
0100
1000
,  // measure 51
0010
0100
0001
0010
0001
0100
0010
1000
0100
1000
0001
0010
0001
0100
0010
0100
,  // measure 52
0001
1000
0100
1000
0010
0100
0001
1000
0100
0010
0001
1000
0001
0010
0100
1000
,  // measure 53
0001
1000
0010
0100
0001
0010
0001
1000
0100
1000
0010
0100
0001
0010
0100
1000
,  // measure 54
0001
0100
0001
1000
0010
0100
0001
0010
0100
1000
0100
1000
0010
0100
0001
1000
,  // measure 55
0100
0010
0001
0100
0010
1000
0001
0100
0001
1000
0100
1000
0010
0100
0001
1000
,  // measure 56
0101
0000
1000
0010
0100
0000
0001
0010
0100
0000
1000
0100
0000
1000
0001
0100
,  // measure 57
0010
0000
1000
0001
0100
0000
0010
1000
0100
0000
0010
0001
0000
0100
0010
1000
,  // measure 58
0101
0000
1000
0010
0100
0000
0001
0010
0100
0000
1000
0100
0000
0010
0001
0100
,  // measure 59
0010
0000
1000
0001
0100
0000
0010
0100
0001
0000
0010
0100
0000
1000
0100
0010
,  // measure 60
1001
0000
0010
0100
0010
0000
1000
0001
1000
0000
1000
0100
0000
0010
0001
0010
,  // measure 61
1100
0000
0010
0100
0001
0000
1000
0010
0100
0000
0001
0010
0000
0100
1000
0001
,  // measure 62
0100
0010
1000
0001
0010
0100
1000
0100
0010
0001
0100
0010
1000
0001
0010
0100
,  // measure 63
1000
0100
1000
0010
0100
0001
0010
0001
0100
0010
0100
0001
1000
0100
1000
0001
,  // measure 64
1000
0000
1100
0000
0101
0000
1001
0000
0110
0000
1000
0001
0000
0001
1000
0010
,  // measure 65
0100
0000
1001
0000
1100
0000
0011
0000
0110
0000
1000
0001
0000
0100
0010
1000
,  // measure 66
0001
0000
1000
0000
0110
0000
0001
0000
1100
0000
0010
0100
0001
0000
1000
0000
,  // measure 67
1001
0101
1100
0110
0010
1001
1100
0011
,  // measure 68
0110
0000
1001
0000
0100
0000
0010
0100
0001
0000
1000
0000
0100
0000
0010
0001
,  // measure 69
0100
0000
0010
0000
1000
0000
1001
0000
0001
0000
0100
0000
0010
1000
0100
0010
,  // measure 70
0001
0100
1010
0101
0010
0100
1100
0101
,  // measure 71
1001
0000
0101
0000
1100
0000
0110
0000
1001
0000
0010
0100
0001
0000
0010
0000
,  // measure 72
1100
0000
0001
0100
0010
0000
1100
0000
0101
0000
1000
0010
0100
0000
0011
0000
,  // measure 73
1100
0000
0010
0100
0001
0000
0110
0000
1001
0000
0010
0100
0001
0000
1000
0000
,  // measure 74
1001
0000
0000
0000
0010
0000
0100
0000
0010
0000
0000
0000
0001
0000
0100
0000
0202
0303
0000
0000
1000
0000
2200
3300
0000
0000
0001
0000
2002
3003
0000
0000
,  // measure 75
0001
0100
0010
1000
0100
1000
0010
0100
0010
1000
0001
0100
0001
1000
0010
1000
,  // measure 76
0100
1000
0001
1000
0001
0100
0010
1000
0001
0010
0100
1000
0010
0100
0001
1000
,  // measure 77
0100
1000
0001
0100
0001
0010
0100
0010
0001
0100
0010
1000
0001
0100
0001
1000
,  // measure 78
0010
1000
0100
1000
0001
0100
0001
1000
0010
0100
0001
0010
0100
1000
0100
0010
,  // measure 79
0001
0100
0010
1000
0001
0100
0001
1000
0010
1000
0100
0010
0001
0100
0010
1000
,  // measure 80
0001
0100
0001
1000
0010
0100
0001
0010
0100
1000
0100
1000
0010
0100
0001
0010
,  // measure 81
0100
1000
0100
1000
0010
0100
0001
0100
0001
1000
0010
0100
0001
0010
0001
0100
,  // measure 82
0010
1000
0001
1000
0010
0100
0001
1000
0100
1000
0001
0010
0100
1000
0001
0100
,  // measure 83
0001
1000
0010
0100
0001
0010
0100
1000
0010
0100
0001
0010
0100
1000
0001
0100
,  // measure 84
0001
1000
0010
0100
0001
0010
0100
1000
0100
0010
0001
0100
0010
1000
0001
0100
,  // measure 85
0001
1000
0010
0100
0001
0010
0100
1000
0100
1000
0010
0100
0001
1000
0100
1000
,  // measure 86
0010
0100
0001
0010
0001
0100
0010
1000
0100
1000
0001
0010
0001
0100
0010
0100
,  // measure 87
0001
1000
0100
1000
0010
0100
0001
1000
0100
0010
0001
1000
0001
0010
0100
1000
,  // measure 88
0001
1000
0010
0100
0001
0010
0001
1000
0100
1000
0010
0100
0001
0010
0100
1000
,  // measure 89
0001
0100
0001
1000
0010
0100
0001
0010
0100
1000
0100
1000
0010
0100
0001
1000
,  // measure 90
0100
0010
0001
0100
0010
1000
0001
0100
0001
1000
0100
1000
0010
0100
0001
1000
,  // measure 91
0101
0000
0001
0100
0000
0010
1000
0100
1001
0000
0010
0110
0000
0001
1000
0100
,  // measure 92
1001
0000
0001
1000
0010
0100
0001
1100
1001
0000
1001
0000
0010
0100
0001
1000
,  // measure 93
0110
0000
0010
0100
0000
0001
1000
0100
0011
0000
1000
0100
0000
0001
0100
0010
,  // measure 94
1000
0010
0100
0001
0010
0100
1000
0100
1000
0010
0100
0001
0010
0001
1000
0100
,  // measure 95
1000
0010
0100
0001
0010
0100
1000
0100
0010
0001
0100
0010
1000
0001
0100
0001
,  // measure 96
1000
0100
1000
0010
0100
0001
0010
0100
1000
0100
0010
0001
0100
0010
0100
0001
,  // measure 97
1000
0100
1000
0001
0010
0001
0100
0010
1000
0001
0100
0001
1000
0100
1000
0010
,  // measure 98
0101
0000
1000
0010
0100
0000
0001
0010
0100
0000
1000
0100
0000
1000
0001
0100
,  // measure 99
0010
0000
1000
0001
0100
0000
0010
1000
0001
0000
0010
0100
0000
1000
0100
0010
,  // measure 100
1001
0000
0010
0100
0001
0000
0001
0010
0100
0000
1000
0001
0000
0100
0010
1000
,  // measure 101
0101
0000
1000
0010
0100
0000
0001
0010
0100
0000
1000
0100
0000
1000
0100
0010
,  // measure 102
1001
0000
0001
0100
0010
0000
1000
0001
0100
0000
0010
1000
0000
0100
0010
0001
,  // measure 103
1100
0000
0010
0100
0001
0000
0010
0100
1000
0000
0100
0010
0000
0001
0100
0010
,  // measure 104
1001
0000
0010
0100
0001
0000
0010
0100
1000
0000
0100
0010
0000
0001
0100
0010
,  // measure 105
1100
0000
0101
0000
1010
0000
0011
0000
1001
0000
1000
0001
0000
0001
1000
0000
,  // measure 106
0001
0100
0010
1000
0100
1000
0001
0100
0001
1000
0010
0100
0001
0010
0100
1000
,  // measure 107
0100
1000
0010
0100
0001
0010
0001
1000
0100
1000
0001
0100
0010
0100
0001
0010
,  // measure 108
0100
1000
0100
0010
0001
0100
0001
0010
0001
1000
0001
0100
0010
1000
0100
0010
,  // measure 109
0001
1000
0100
1000
0010
0100
0001
0010
0100
1000
0100
0010
0001
0100
0001
1000
,  // measure 110
0010
0100
0001
0010
0100
1000
0100
1000
0010
0100
0001
0010
0100
1000
0001
0100
,  // measure 111
0010
1000
0001
0100
0001
1000
0100
1000
0010
0100
0001
0010
0100
1000
0100
1000
,  // measure 112
0001
0100
0001
1000
0100
1000
0010
0100
0001
0010
0100
1000
0001
0100
0001
1000
,  // measure 113
0100
1000
0010
0100
0001
0010
0100
1000
0100
0010
0001
0100
0010
1000
0100
0010
,  // measure 114
0001
0100
0001
1000
0010
0100
0001
0010
0100
1000
0100
0010
0001
1000
0001
0100
,  // measure 115
0001
1000
0010
0100
0001
0010
0100
1000
0100
0010
0001
0100
0010
1000
0001
0010
,  // measure 116
0100
1000
0100
1000
0010
0100
0001
1000
0010
0100
0001
0010
0100
1000
0001
1000
,  // measure 117
0100
0010
0001
0100
0010
1000
0001
0010
0001
1000
0100
1000
0010
0100
0001
0010
,  // measure 118
0100
1000
0100
0010
0001
0100
0001
1000
0100
1000
0010
0100
0001
0010
0100
1000
,  // measure 119
0001
0100
0010
1000
0100
1000
0010
0100
0001
0010
0100
1000
0001
1000
0100
0010
,  // measure 120
0001
0100
0001
1000
0010
0100
0001
0010
0100
1000
0100
1000
0010
0100
0001
0010
,  // measure 121
0100
1000
0001
0100
0001
1000
0010
0100
0001
0010
0100
1000
0001
0100
0010
1000
,  // measure 122
0220
0000
0000
0330
;
