#TITLE:Energizer;
#SUBTITLE:;
#ARTIST:ZiGZaG;
#TITLETRANSLIT:;
#SUBTITLETRANSLIT:;
#ARTISTTRANSLIT:;
#CREDIT:;
#BANNER:Energizer.png;
#BACKGROUND:Energizer-bg.png;
#LYRICSPATH:;
#CDTITLE:Inujosha-cd.bmp;
#MUSIC:Energizer.mp3;
#OFFSET:-0.018;
#SAMPLESTART:12.970;
#SAMPLELENGTH:11.590;
#SELECTABLE:YES;
#BPMS:0.000=303.000,264.000=151.500,268.000=75.750,284.000=303.000;
#STOPS:;
#BGCHANGES:;
// cache tags:
#FIRSTBEAT:17.000;
#LASTBEAT:484.000;
#SONGFILENAME:Songs/longs versions/Energizer/Energizer.sm;
#HASMUSIC:1;
#HASBANNER:1;
#MUSICLENGTH:107.937;
// end cache tags

//---------------dance-double - ----------------
#NOTES:
     dance-double:
     :
     Challenge:
     13:
     1.000,1.000,0.630,0.241,0.287,692.000,68.000,26.000,15.000,10.000:













00000000
,
00000000
,
00000000
,
00000000
,
00000000
,
00000000
,
00000000
,
00000000
,
00001001
00000000
00000010
00001000
00000100
0000M000
00001000
00000010
,
00002020
00000000
00000000
00000000
00010100
00003030
00000000
00000000
,
00000000
00000000
00001000
01000000
00010000
0M000000
00100000
00010000
,
00220000
00000000
00000000
00000000
01001000
00330000
00000000
00000000
,
00000000
00000000
01000000
00100000
10000000
00M00000
01000000
00100000
,
02200000
00000000
00000000
00000000
10010000
03300000
00000000
00000000
,
01000000
10000000
00000000
00010000
01000000
00000000
00001000
00010000
,
00000000
00000001
00001000
00000000
00000100
00000010
00000001
00000100
,
00000010
00001000
00000100
00000000
00000010
00000000
00000001
00000100
,
00000010
00000000
00010000
00001000
00000000
00000100
00001000
00000000
,
00010000
00001000
01000000
00000000
00100000
00000000
10000000
01000000
,
00100000
00000000
00001000
00010000
00000000
01000000
00010000
00000000
,
00001000
00010000
00000100
00000000
00000010
00000000
00000001
00000100
,
00000010
00000000
00010000
00100000
00000000
10000000
01000000
00000000
,
00100000
00001000
00000100
00000000
00000001
00000000
00000010
00000100
,
00001000
00000000
00000001
00000200
00000010
00000001
00000310
00000000
,
00001000
00000100
00000010
00000000
00000100
00000000
00100000
00010000
,
01000000
00000000
00001000
00010000
00000000
00000010
00000100
00000000
,
00001000
00010000
00000100
00000000
00000010
00000000
00000100
00010000
,
00100000
00000000
01000000
00100000
00000000
10000000
01000000
00000000
,
00100000
00010000
10000000
00000000
01000000
00000000
00100000
00001000
,
00000010
00000000
00000001
00000100
00000000
00000010
00001000
00000000
,
00000100
00000000
00000010
00001001
00000000
00000000
00000010
00000100
,
00000101
00000000
00001000
00000200
00001000
00000000
00000310
00000000
,
00000110
00000000
00001100
00000000
00011000
00000000
01000000
00100000
,
10000000
00000000
01000000
00100000
00010000
01000000
00100000
00000000
,
01000000
00001000
00010000
00000000
00010100
00000000
00010000
00001000
,
00100000
00011000
00010010
00001100
,
01000100
00000000
00011000
00000000
00001010
00000000
00000010
00000100
,
00001000
00000000
00000001
00000100
00000010
00001000
00000100
00000000
,
00000010
00000001
00000100
00001000
00010000
00000100
00010000
00001000
,
01000000
00000000
00011000
00000000
01001000
00000000
00010000
10000000
,
01000000
00000000
01100000
00000000
10010000
00000000
10000000
01000000
,
00100000
00010000
10000000
00100000
01000000
00010000
01000000
10000000
,
01000000
00100000
01000000
00001000
00010000
00001000
00100000
00001000
,
00010000
00000010
00001000
00000100
00000001
00000100
00001000
00000010
,
00001000
00000001
00000010
00000100
00001000
00000001
00000100
00000010
,
00000100
00000001
00000100
00001000
00000100
00000010
00010000
00001000
,
00010000
00000100
00010000
00001000
01000000
00001000
00010000
00001000
,
00100000
01000100
00022000
00000000
,
00033000
00000000
00001000
00010000
00000100
00000000
00000010
00000000
,
00002200
00000000
00000000
00000000
00010010
00003300
00000000
00000000
,
00000000
00000000
00000100
00000010
00001000
00000000
00001100
00000000
,
00000010
00010000
00001000
01000000
00100000
00000000
10010000
00000000
,
01010000
00000000
00100000
00010000
01000000
00000000
10100000
00000000
,
20020000
00000000
00000000
00000000
01100000
30030000
00000000
00000000
,
00000000
00000000
01000000
00100000
00001000
00000000
00011000
00000000
,
00010000
00000100
00001000
00000001
00000010
00000100
00001000
00000000
,
0000MMMM
00000000
00001000
00000001
00000100
00000000
00000110
00000000
,
00020020
00000000
00000000
00000000
00001100
00030030
00000000
00000000
,
00000000
00000000
00001000
01000000
00100000
00000000
02020000
00000000
,
00100000
00000000
00001000
00000000
10000000
03030000
00000000
00000000
,
00000000
00000000
01000000
00100000
00001000
00000000
00100010
00000000
,
00022000
00000000
00000000
00000000
00000110
00033000
00000000
00000000
,
00000000
00000000
00001000
00000100
00000010
00000000
00000011
00000000
,
00000001
00001000
00000100
00010000
00001000
01000000
,
00220000
,
00000000
,
00000000
00000000
00000000
00330000
00000000
MMMM0000
,
10000000
00100000
01000000
00010000
01000000
00100000
10000000
01000000
00100000
00010000
10000000
00100000
00010000
00001000
00000010
00000001
00001000
00000010
00000100
00000001
00000100
00000010
00001000
00000100
,
00000010
00001000
00010000
00100000
10000000
01000000
00100000
00001000
00010000
01000000
00100000
00001000
00010000
00100000
01000000
00010000
10000000
01000000
00010000
00001000
00000010
00000100
00010000
00001000
,
00000100
00000001
00001000
00000100
00000010
00000001
00001000
00000010
00000100
00000010
00001000
00000001
00000010
00000100
00010000
00001000
01000000
00010000
10000000
00100000
00010000
00100000
10000000
01000000
,
00100000
00001000
00010000
00000100
00000010
00000001
00001000
00000010
00010000
00001000
01000000
00010000
10010000
00000000
00000000
00000000
MMMM0000
00000000
01010000
00000000
00000000
10010000
00000000
00000000
,
00100000
00010000
01000000
00100000
10000000
01000000
00100000
00010000
,
01000000
00100000
10000000
01000000
00100000
00010000
10010000
00000000
,
00001000
00010000
00000100
00010000
00001000
00010000
00000010
00010000
,
00000100
00001000
00000001
00000100
00000101
00000000
00001001
00000000
,
00001000
00000100
00000010
00000001
00000100
00000010
00001000
00000100
,
00010000
00001000
01000000
00100000
01000000
00010000
10000000
01000000
,
00010000
01000000
10000000
00100000
01000000
00010000
00100000
00001000
,
00010000
00001000
01000000
00010000
00100000
00001000
00010000
00000000
,
01000000
00010000
00001000
00010000
00000100
00001000
00000010
00000100
,
00000001
00000010
00000100
00001000
00000001
00000100
00000010
00001000
,
00000100
00000010
00000001
00000100
00000010
00010000
00001000
01000000
,
00001000
00010000
01000000
10000000
01000000
00010000
01000000
00100000
,
00010000
01000000
00100000
01000000
00001000
00010000
01000000
10000000
,
00010000
10000000
00100000
10000000
01000000
00100000
00010000
01000000
,
00001000
00010000
00001000
00000010
00000001
00001000
00000010
00000100
,
00000001
00000010
00000100
00001000
00000001
00000100
00000101
00000000
,
00000001
00001000
00000010
00000000
00000100
00000000
00000001
00001000
,
00000100
00000000
00010000
00001000
00000000
00000100
00001000
00000000
,
00100000
00010000
01000000
00000000
00100000
00000000
10000000
01000000
,
00100000
00000000
00010000
10000000
00000000
00001000
00010000
00000000
,
00000100
00010000
01000000
00000000
00010000
00000000
00001000
00010000
,
00000010
00000000
00000100
00000001
00000000
00000100
00001000
00000000
,
00010000
00001000
01000000
00000000
00001000
00000000
00010000
00000100
,
00000010
00000000
00000001
00000200
00000010
00000001
00000310
00000000
,
00001000
00000100
00000010
00000000
00000001
00000000
00000100
00000010
,
00010000
00000000
00100000
10000000
00000000
01000000
00100000
00000000
,
00010000
10000000
01000000
00000000
00100000
00000000
00001000
01000000
,
00010000
00000000
00100000
01000000
00000000
00010000
00000010
00000000
,
00001000
00000100
00000010
00000000
00000001
00000000
00000100
00000010
,
00001000
00000000
00000100
00000001
00000000
00000100
00010000
00000000
,
00100000
00000000
10000000
10010000
00000000
00000000
00100000
00010000
,
01100000
00000000
00100000
20000000
01000000
00000000
00010000
30000000
,
00100000
10000000
01000000
00100000
00010000
01000000
00100000
00000000
,
01000000
01001000
00011000
00010010
,
00010000
00001000
01000000
00001000
00010000
00000100
00010000
00001000
,
00000010
00000001
00001000
00000100
00000010
00000000
00001100
00000000
,
00000001
00000100
00000010
00010000
00001000
01000000
00001000
00010000
,
00001000
00011000
00010010
00001010
,
00000001
00000100
00000010
00001000
00000100
00001000
00000001
00000100
,
00000010
00010000
00001000
00000000
00100010
00000000
00011000
00000000
,
00100000
00001000
00010000
00001000
01000000
00100000
10000000
01000000
,
00100000
00110000
00101000
00011000
,
01000000
00001000
00010000
00001000
00100000
00010000
01000000
00100000
,
10000000
01000000
00100000
00010000
01000000
00100000
10000000
01000000
,
00100000
00001000
00010000
00000100
00001000
00000010
00000100
00000001
,
00001000
00001001
00011000
10010000
,
10000000
00100000
01000000
00001000
00010000
00000100
00000010
00000001
,
00000100
00000010
00001000
00000100
00010000
00000100
01000000
00001000
,
02020000
,
00000000
,
03030000
;

//---------------dance-single - ----------------
#NOTES:
     dance-single:
     :
     Hard:
     13:
     1.000,1.000,0.778,0.074,0.162,663.000,84.000,8.000,0.000,2.000:
0000
0000
0000
0000
,
0000
0000
0000
0000
,
0000
0000
0000
0000
,
0000
0000
0000
0000
,
0000
0000
1000
0100
0010
0000
0001
0010
,
0100
0001
1000
0100
,
0000
0000
1000
0100
1000
0000
0010
0001
,
0010
0000
0100
0000
0010
0000
0001
0100
,
1001
0000
1000
0010
0100
0000
0001
0010
,
0100
0001
0010
0100
,
0000
0000
1000
0010
0100
0000
1000
0100
,
1000
0100
1000
0100
1000
0100
1000
0000
,
0000
0000
0100
0010
1000
0000
0010
0100
,
0001
0010
0001
1000
,
1000
0100
1000
0100
1000
0000
0010
0100
,
0010
0000
0001
0010
0001
0010
0001
0010
,
1000
0100
0011
0000
0011
0000
0010
0100
,
0010
0000
0001
1000
0000
0010
0100
0000
,
1000
0100
1001
0000
1001
0000
0010
0001
,
0010
0000
0100
0010
0000
0001
0100
1000
,
0010
0001
0110
0000
0110
0000
1000
0010
,
0100
0000
0010
0001
0000
1000
0100
0000
,
0001
0010
0011
0000
0011
0000
0100
1000
,
0010
0000
0001
0010
0000
1000
0001
1000
,
0001
1000
1001
0000
1001
0000
0100
0010
,
0100
0000
0010
0100
0000
1000
0010
0000
,
0001
0010
1100
0000
1100
0000
1000
0010
,
0001
0000
0010
0100
0000
0010
0001
0000
,
1001
0100
0011
0000
0011
0000
0100
0010
,
1001
0000
1000
0100
0000
0001
0010
0000
,
1001
0000
1000
0100
1000
0000
0010
0001
,
1001
0000
0010
0100
0010
0100
0010
0100
,
1000
0100
1000
0000
1000
0010
1000
0000
,
1000
0100
0010
0001
0010
0100
1000
0100
,
0010
0001
0010
0000
0001
0010
0001
0000
,
0001
0010
0100
1000
0100
0010
0001
0010
,
1000
0100
1000
0000
0100
1000
0100
0000
,
0000
0010
0000
1000
0010
0001
0010
0100
,
1000
0100
0010
0000
0010
0100
0010
0000
,
1000
0001
1000
0001
1000
0001
0010
0100
,
0010
0000
1000
0000
1000
0100
1000
0100
,
1000
0100
0010
0001
0010
0001
0010
0001
,
0010
0100
1000
0100
0010
0001
0010
0100
,
0010
0100
0001
1000
0010
0100
0010
0000
,
0010
0000
1000
0000
0100
0010
0001
0010
,
0100
1000
0100
0010
0001
0010
0100
1000
,
0100
0010
0001
0010
0100
1000
0100
0010
,
0001
0010
0100
1000
0100
0010
0001
0010
,
1001
0000
1000
0100
0000
0000
0001
0010
,
0011
0110
0011
0110
,
0000
0000
1000
0100
0000
0000
0010
0001
,
0010
0001
0010
0001
0010
0000
1001
0000
,
0000
0000
1000
0100
0000
0000
0001
0010
,
0110
0011
0110
1100
,
0000
0000
0100
0010
0000
0000
0001
1000
,
0001
1000
0001
1000
0001
2000
3001
0000
,
0000
0000
1000
0100
0000
0000
0010
0000
,
1001
0110
1001
0110
,
0000
0000
0010
0100
0000
0000
1000
0100
,
1000
0010
0001
0010
0001
0000
0000
0000
,
0000
0000
1000
0010
0000
0000
0001
0000
,
0110
1100
0011
0110
,
0000
0000
1000
0100
0000
0000
0001
0000
,
1001
0000
0011
0000
1100
0000
0110
0000
0011
0000
0110
0000
,
2202
0000
0000
0000
,
0000
0000
0000
0000
,
0000
0000
0000
0000
0000
0000
0000
3303
,
1000
0000
0100
0000
0010
0001
0010
0000
0100
0000
1000
0100
1000
0000
0000
0000
0100
0000
0010
0000
0000
0000
0001
0000
,
0010
0000
0000
0100
0010
0000
0001
0000
0100
0000
1000
0000
0100
0000
0010
0001
0010
0100
1000
0000
1000
0000
1000
0000
,
0100
0000
0010
0000
0001
0010
0100
0000
0100
0000
0100
0010
0001
0000
0000
0000
1000
0000
0001
0000
0000
0000
0001
0000
,
0100
0000
0000
0010
0100
0000
1000
0000
0100
0000
0010
0000
0001
0000
0000
0000
0001
0000
1000
0000
0000
1001
0000
1001
,
1001
0100
0010
1000
,
0100
0010
0010
0100
,
0001
1000
0010
0100
,
0010
0000
1000
0100
0010
0000
0010
0100
,
1000
0010
0001
1000
,
0100
0010
0100
1000
,
1000
0010
0001
0010
0001
0100
1000
0100
,
0010
0001
0010
0100
1000
0100
0010
0000
,
1000
0000
0100
0000
0010
0001
0010
0100
,
1000
0100
0010
0001
0010
0100
1000
0100
,
0010
0100
0010
0001
1000
0001
1000
0100
,
0010
0100
0010
0001
0010
0100
1001
0000
,
1001
0000
0110
0000
0001
0010
0100
1000
,
0100
1000
0100
1000
0100
0010
0001
0010
,
0100
0010
0001
0010
1000
0100
0001
0100
,
1000
0100
0001
0010
0001
0010
1000
0100
,
1000
0100
1001
0000
1001
0000
0001
0100
,
1000
0000
0010
0100
0000
0010
0001
0000
,
0100
0010
0011
0000
0011
0000
0100
1000
,
0010
0000
0001
0010
0000
0100
1000
0100
,
0001
0010
0011
0000
0011
0000
1000
0100
,
1000
0000
0010
0100
0000
1000
0001
0000
,
1000
0100
0110
0000
0110
0000
0001
0010
,
0100
0000
0100
0010
0000
0001
0010
0001
,
0010
0100
1001
0000
1001
0000
1000
0100
,
0010
0000
0100
0010
0000
0100
0010
0000
,
0001
0010
1100
0000
1001
0000
0100
1000
,
0100
0000
0001
0010
0000
0100
1000
0000
,
1001
0100
0010
0000
0001
0000
0100
0010
,
1001
0000
1000
0100
0000
0010
0100
0000
,
1001
0000
1000
0100
1000
0000
0010
0100
,
1001
0000
1000
0001
1000
0001
1000
0001
,
1000
0001
1000
0001
1000
0001
1001
0000
,
0000
0000
1000
0010
0100
0000
0001
0000
,
1000
0000
0100
0010
0100
0000
1000
0000
,
0001
0010
0001
0000
0010
0001
0010
0000
,
1000
0001
0010
0100
1000
0100
1001
0000
,
0000
0000
1000
0100
0010
0001
1000
0000
,
1001
0000
0110
0000
0011
0000
1100
0000
0000
0000
0000
0000
,
0000
0110
0000
1000
,
0100
0010
0100
0010
0100
0010
0110
0000
,
0110
0000
1000
0100
0010
0000
0001
0000
,
0000
0000
0010
0100
0010
0000
1000
0000
,
0100
0010
0001
0000
0010
0100
0010
0000
,
0100
0010
0001
0010
0100
1000
0100
0000
,
0000
0000
0001
0010
0100
0000
0010
0000
,
0011
1100
0011
1100
,
0011
1100
0011
1100
,
2222
0000
0000
0000
,
0000
0000
0000
0000
0000
3333
0000
0000
;
