#TITLE:Sigma Battle;
#SUBTITLE:;
#ARTIST:Capcom;
#TITLETRANSLIT:;
#SUBTITLETRANSLIT:;
#ARTISTTRANSLIT:;
#CREDIT:;
#BANNER:Sigma Battle.png;
#BACKGROUND:Sigma Battle BG.png;
#LYRICSPATH:;
#CDTITLE:!XMaxX.png;
#MUSIC:Sigma Battle.mp3;
#OFFSET:-0.020;
#SAMPLESTART:0.001;
#SAMPLELENGTH:17.000;
#SELECTABLE:YES;
#BPMS:0.000=326.140;
#STOPS:;
#BGCHANGES:;
// cache tags:
#FIRSTBEAT:0.000;
#LASTBEAT:394.000;
#SONGFILENAME:Songs/keyboard/Sigma Battle (Megaman X)/Sigma Battle.sm;
#HASMUSIC:1;
#HASBANNER:1;
#MUSICLENGTH:73.647;
// end cache tags

//---------------dance-single - ----------------
#NOTES:
     dance-single:
     :
     Hard:
     13:
     1.000,1.000,0.557,0.516,0.272,601.000,41.000,38.000,0.000,0.000:
1000
0100
1000
0100
1000
0100
1000
0100
,
1000
0000
1001
0002
0000
0003
1001
0000
,
0001
0010
0001
0010
0001
0010
0001
0010
,
0001
1000
0001
2000
0000
3000
1001
0000
,
1000
0010
1000
0010
1000
0010
1000
0010
,
1000
0000
1001
0002
0000
0003
1001
0000
,
0001
0000
0000
0100
0000
0000
0010
0000
0000
1000
0000
0000
0100
0000
0000
0010
,
0000
0000
0001
0000
0000
0100
0000
0000
0010
0000
0000
1000
0000
0000
0001
0000
,
1000
0100
1000
0100
1000
0100
1000
0100
,
1000
0000
1001
0002
0000
0003
1001
0000
,
0001
0010
0001
0010
0001
0010
0001
0010
,
0001
1000
0001
2000
0000
3000
1001
0000
,
1000
0010
1000
0010
1000
0010
1000
0010
,
1000
0000
1001
0002
0000
0003
1001
0000
,
0001
0000
0000
0100
0000
0000
0010
0000
0000
1000
0000
0000
0100
0000
0000
0010
,
0000
0000
0001
0000
0000
0100
0000
0000
0010
0000
0000
1000
0000
0000
0001
0000
,
1000
0010
1000
0010
1000
0010
1000
0010
,
0100
0001
0100
0001
0100
0001
0100
0001
,
0010
0100
1000
0001
0010
0100
1000
0001
,
0100
0010
1000
0001
0100
0010
1000
0001
,
1000
0100
1000
0010
0100
0001
0100
0010
,
1000
0001
1000
0001
0100
0010
1000
0001
,
2000
3001
0100
0010
,
2000
0000
3002
0000
,
1003
0100
1000
0100
1000
0100
1000
0100
,
1000
0000
1001
0002
0000
0003
1001
0000
,
0001
0010
0001
0010
0001
0010
0001
0010
,
0001
1000
0001
2000
0000
3000
1001
0000
,
1000
0010
1000
0010
1000
0010
1000
0010
,
1000
0000
1001
0002
0000
0003
1001
0000
,
0001
0000
0000
0100
0000
0000
0010
0000
0000
1000
0000
0000
0100
0000
0000
0010
,
0000
0000
0001
0000
0000
0100
0000
0000
0010
0000
0000
1000
0000
0000
0001
0000
,
1000
0100
1000
0100
1000
0100
1000
0100
,
1000
0000
1001
0002
0000
0003
1001
0000
,
0001
0010
0001
0010
0001
0010
0001
0010
,
0001
1000
0001
2000
0000
3000
1001
0000
,
1000
0010
1000
0010
1000
0010
1000
0010
,
1000
0000
1001
0002
0000
0003
1001
0000
,
0001
0000
0000
0100
0000
0000
0010
0000
0000
1000
0000
0000
0100
0000
0000
0010
,
0000
0000
0001
0000
0000
0100
0000
0000
0010
0000
0000
1000
0000
0000
0001
0000
,
1000
0010
1000
0010
1000
0010
1000
0010
,
0100
0001
0100
0001
0100
0001
0100
0001
,
0010
0100
1000
0001
0010
0100
1000
0001
,
0100
0010
1000
0001
0100
0010
1000
0001
,
1000
0100
1000
0010
0100
0001
0100
0010
,
1000
0001
1000
0001
0100
0010
1000
0001
,
2000
3001
1000
1000
,
0002
0000
2003
0000
,
3001
0010
0001
0010
0001
0010
0001
0010
,
0001
0000
1001
2000
0000
3000
1001
0000
,
1000
0100
1000
0100
1000
0100
1000
0100
,
1000
0001
1000
0002
0000
0003
1001
0000
,
0001
0100
0001
0100
0001
0100
0001
0100
,
0001
0000
1001
2000
0000
3000
1001
0000
,
1000
0000
0000
0010
0000
0000
0100
0000
0000
0001
0000
0000
0010
0000
0000
0100
,
0000
0000
1000
0000
0000
0010
0000
0000
0100
0000
0000
0001
0000
0000
1000
0000
,
0001
0010
0001
0010
0001
0010
0001
0010
,
0001
0000
1001
2000
0000
3000
1001
0000
,
1000
0100
1000
0100
1000
0100
1000
0100
,
1000
0001
1000
0002
0000
0003
1001
0000
,
0001
0100
0001
0100
0001
0100
0001
0100
,
0001
0000
1001
2000
0000
3000
1001
0000
,
1000
0000
0000
0010
0000
0000
0100
0000
0000
0001
0000
0000
0010
0000
0000
0100
,
0000
0000
1000
0000
0000
0010
0000
0000
0100
0000
0000
0001
0000
0000
1000
0000
,
0001
0100
0001
0100
0001
0100
0001
0100
,
0010
1000
0010
1000
0010
1000
0010
1000
,
0100
0010
0001
1000
0100
0010
0001
1000
,
0010
0100
0001
1000
0010
0100
0001
1000
,
0001
0010
0001
0100
0010
1000
0010
0100
,
0001
1000
0001
1000
0010
0100
0001
1000
,
0002
1003
0010
0100
,
0002
0000
2003
0000
,
3001
0010
0001
0010
0001
0010
0001
0010
,
0001
0000
1001
2000
0000
3000
1001
0000
,
1000
0100
1000
0100
1000
0100
1000
0100
,
1000
0001
1000
0002
0000
0003
1001
0000
,
0001
0100
0001
0100
0001
0100
0001
0100
,
0001
0000
1001
2000
0000
3000
1001
0000
,
1000
0000
0000
0010
0000
0000
0100
0000
0000
0001
0000
0000
0010
0000
0000
0100
,
0000
0000
1000
0000
0000
0010
0000
0000
0100
0000
0000
0001
0000
0000
1000
0000
,
0001
0010
0001
0010
0001
0010
0001
0010
,
0001
0000
1001
2000
0000
3000
1001
0000
,
1000
0100
1000
0100
1000
0100
1000
0100
,
1000
0001
1000
0002
0000
0003
1001
0000
,
0001
0100
0001
0100
0001
0100
0001
0100
,
0001
0000
1001
2000
0000
3000
1001
0000
,
1000
0000
0000
0010
0000
0000
0100
0000
0000
0001
0000
0000
0010
0000
0000
0100
,
0000
0000
1000
0000
0000
0010
0000
0000
0100
0000
0000
0001
0000
0000
1000
0000
,
0001
0100
0001
0100
0001
0100
0001
0100
,
0010
1000
0010
1000
0010
1000
0010
1000
,
0100
0010
0001
1000
0100
0010
0001
1000
,
0010
0100
0001
1000
0010
0100
0001
1000
,
0001
0010
0001
0100
0010
1000
0010
0100
,
0001
1000
0001
1000
0010
0100
0001
1000
,
0002
1003
0010
0100
,
0002
0000
0000
0000
2003
0000
0000
3000
,
2002
0000
0000
0000
,
0000
0000
0000
0000
,
0000
0000
3003
0000
;

//---------------dance-single - ----------------
#NOTES:
     dance-single:
     :
     Medium:
     10:
     0.970,1.000,0.339,0.136,0.272,465.000,25.000,10.000,0.000,0.000:
1000
0100
1000
0100
,
1000
0000
0001
1000
0000
0000
1001
0000
,
0001
0100
0001
0100
,
0001
0000
1000
0001
0000
0000
1001
0000
,
1000
0010
1000
0001
,
1000
0000
0001
1000
0000
0000
1001
0000
,
0001
0000
0000
0100
0000
0000
0010
0000
0000
1000
0000
0000
0100
0000
0000
0010
,
0000
0000
0001
0000
0000
0100
0000
0000
0010
0000
0000
1000
0000
0000
0001
0000
,
1000
0010
0100
0001
,
1000
0000
0001
1000
0000
0000
1001
0000
,
0001
0100
0010
1000
,
0001
0000
1000
0001
0000
0000
1001
0000
,
1000
0100
0010
0001
,
1000
0000
0001
1000
0000
0000
1001
0000
,
0001
0000
0000
1000
0000
0000
0001
0000
0000
0100
0000
0000
0010
0000
0000
1000
,
0000
0000
0010
0000
0000
0100
0000
0000
0001
0000
0000
1000
0000
0000
0001
0000
,
1000
0010
1000
0000
0001
0100
0001
0000
,
1000
0010
1000
0100
0010
0001
0010
0000
,
0001
0100
0001
0000
1000
0001
1000
0000
,
0001
0100
0010
1000
0010
1000
0001
0000
,
1000
0100
1000
0000
0001
0100
0001
0000
,
0100
0010
1000
0100
0010
0001
1000
0001
,
2000
0001
0001
0001
,
0001
0000
0000
0000
3002
0000
0000
0003
,
0001
0010
0001
0010
,
0001
0000
1000
0001
0000
0000
1001
0000
,
1000
0010
1000
0010
,
1000
0000
0001
1000
0000
0000
1001
0000
,
0001
0100
0001
1000
,
0001
0000
1000
0001
0000
0000
1001
0000
,
1000
0000
0000
0010
0000
0000
0100
0000
0000
0001
0000
0000
0010
0000
0000
0100
,
0000
0000
1000
0000
0000
0010
0000
0000
0100
0000
0000
0001
0000
0000
1000
0000
,
0001
0100
0010
1000
,
0001
0000
1000
0001
0000
0000
1001
0000
,
1000
0010
0100
0001
,
1000
0000
0001
1000
0000
0000
1001
0000
,
0001
0010
0100
1000
,
0001
0000
1000
0001
0000
0000
1001
0000
,
1000
0000
0000
0001
0000
0000
1000
0000
0000
0010
0000
0000
0100
0000
0000
0001
,
0000
0000
0100
0000
0000
0010
0000
0000
1000
0000
0000
0001
0000
0000
1000
0000
,
0001
0100
0001
0000
1000
0010
1000
0000
,
0001
0100
0001
0010
0100
1000
0100
0000
,
1000
0010
1000
0000
0001
1000
0001
0000
,
1000
0010
0100
0001
0100
0001
1000
0000
,
0001
0010
0001
0000
1000
0010
1000
0000
,
0010
0100
0001
0010
0100
1000
0001
1000
,
0002
1000
1000
1000
,
1000
0000
0000
0000
2003
0000
0000
3000
,
1000
0100
1000
0100
,
1000
0000
0001
1000
0000
0000
1001
0000
,
0001
0100
0001
0100
,
0001
0000
1000
0001
0000
0000
1001
0000
,
1000
0010
1000
0001
,
1000
0000
0001
1000
0000
0000
1001
0000
,
0001
0000
0000
0100
0000
0000
0010
0000
0000
1000
0000
0000
0100
0000
0000
0010
,
0000
0000
0001
0000
0000
0100
0000
0000
0010
0000
0000
1000
0000
0000
0001
0000
,
1000
0010
0100
0001
,
1000
0000
0001
1000
0000
0000
1001
0000
,
0001
0100
0010
1000
,
0001
0000
1000
0001
0000
0000
1001
0000
,
1000
0100
0010
0001
,
1000
0000
0001
1000
0000
0000
1001
0000
,
0001
0000
0000
1000
0000
0000
0001
0000
0000
0100
0000
0000
0010
0000
0000
1000
,
0000
0000
0010
0000
0000
0100
0000
0000
0001
0000
0000
1000
0000
0000
0001
0000
,
1000
0010
1000
0000
0001
0100
0001
0000
,
1000
0010
1000
0100
0010
0001
0010
0000
,
0001
0100
0001
0000
1000
0001
1000
0000
,
0001
0100
0010
1000
0010
1000
0001
0000
,
1000
0100
1000
0000
0001
0100
0001
0000
,
0100
0010
1000
0100
0010
0001
1000
0001
,
2000
0001
0001
0001
,
0001
0000
0000
0000
3002
0000
0000
0003
,
0001
0010
0001
0010
,
0001
0000
1000
0001
0000
0000
1001
0000
,
1000
0010
1000
0010
,
1000
0000
0001
1000
0000
0000
1001
0000
,
0001
0100
0001
1000
,
0001
0000
1000
0001
0000
0000
1001
0000
,
1000
0000
0000
0010
0000
0000
0100
0000
0000
0001
0000
0000
0010
0000
0000
0100
,
0000
0000
1000
0000
0000
0010
0000
0000
0100
0000
0000
0001
0000
0000
1000
0000
,
0001
0100
0010
1000
,
0001
0000
1000
0001
0000
0000
1001
0000
,
1000
0010
0100
0001
,
1000
0000
0001
1000
0000
0000
1001
0000
,
0001
0010
0100
1000
,
0001
0000
1000
0001
0000
0000
1001
0000
,
1000
0000
0000
0001
0000
0000
1000
0000
0000
0010
0000
0000
0100
0000
0000
0001
,
0000
0000
0100
0000
0000
0010
0000
0000
1000
0000
0000
0001
0000
0000
1000
0000
,
0001
0100
0001
0000
1000
0010
1000
0000
,
0001
0100
0001
0010
0100
1000
0100
0000
,
1000
0010
1000
0000
0001
1000
0001
0000
,
1000
0010
0100
0001
0100
0001
1000
0000
,
0001
0010
0001
0000
1000
0010
1000
0000
,
0010
0100
0001
0010
0100
1000
0001
1000
,
0002
1000
1000
1000
,
1000
0000
0000
0000
2003
0000
0000
3000
,
2002
0000
0000
0000
,
0000
0000
0000
0000
,
0000
0000
3003
0000
;

//---------------dance-single - ----------------
#NOTES:
     dance-single:
     :
     Easy:
     9:
     0.729,0.736,0.448,0.244,0.000,325.000,33.000,18.000,0.000,0.000:
1000
0100
0010
0001
,
1000
0000
0000
1001
0000
0000
0000
0000
,
0001
0100
0010
1000
,
0001
0000
0000
1001
0000
0000
0000
0000
,
1000
0010
0100
0001
,
1000
0000
0000
1001
0000
0000
0000
0000
,
0001
0100
0010
1000
,
0100
0010
0001
0100
,
0010
1000
0001
1000
,
0001
0000
0000
1001
0000
0000
0000
0000
,
0001
0010
0100
1000
,
0001
0000
0000
1001
0000
0000
0000
0000
,
1000
0100
0010
0001
,
1000
0000
0000
1001
0000
0000
0000
0000
,
1000
0001
0010
0100
,
1000
0001
0100
0010
,
1000
0100
1000
0010
,
1000
0000
0100
0000
1000
0100
1000
0000
,
0001
0100
0001
0010
,
0001
0000
0100
0000
0001
0100
0001
0000
,
1000
0001
0100
0010
,
1000
0000
0001
0000
1000
0001
1000
0000
,
2002
0000
0000
0000
,
3003
0000
0220
0330
,
0001
0010
0100
1000
,
0001
0000
0000
1001
0000
0000
0000
0000
,
1000
0010
0100
0001
,
1000
0000
0000
1001
0000
0000
0000
0000
,
0001
0100
0010
1000
,
0001
0000
0000
1001
0000
0000
0000
0000
,
1000
0010
0100
0001
,
0010
0100
1000
0010
,
0100
0001
1000
0001
,
1000
0000
0000
1001
0000
0000
0000
0000
,
1000
0100
0010
0001
,
1000
0000
0000
1001
0000
0000
0000
0000
,
0001
0010
0100
1000
,
0001
0000
0000
1001
0000
0000
0000
0000
,
0001
1000
0100
0010
,
0001
1000
0010
0100
,
0001
0010
0001
0100
,
0001
0000
0010
0000
0001
0010
0001
0000
,
1000
0010
1000
0100
,
1000
0000
0010
0000
1000
0010
1000
0000
,
0001
1000
0010
0100
,
0001
0000
1000
0000
0001
1000
0001
0000
,
2002
0000
0000
0000
,
3003
0000
0220
0330
,
1000
0100
0010
0001
,
1000
0000
0000
1001
0000
0000
0000
0000
,
0001
0100
0010
1000
,
0001
0000
0000
1001
0000
0000
0000
0000
,
1000
0010
0100
0001
,
1000
0000
0000
1001
0000
0000
0000
0000
,
0001
0100
0010
1000
,
0100
0010
0001
0100
,
0010
1000
0001
1000
,
0001
0000
0000
1001
0000
0000
0000
0000
,
0001
0010
0100
1000
,
0001
0000
0000
1001
0000
0000
0000
0000
,
1000
0100
0010
0001
,
1000
0000
0000
1001
0000
0000
0000
0000
,
1000
0001
0010
0100
,
1000
0001
0100
0010
,
1000
0100
1000
0010
,
1000
0000
0100
0000
1000
0100
1000
0000
,
0001
0100
0001
0010
,
0001
0000
0100
0000
0001
0100
0001
0000
,
1000
0001
0100
0010
,
1000
0000
0001
0000
1000
0001
1000
0000
,
2002
0000
0000
0000
,
3003
0000
0220
0330
,
0001
0010
0100
1000
,
0001
0000
0000
1001
0000
0000
0000
0000
,
1000
0010
0100
0001
,
1000
0000
0000
1001
0000
0000
0000
0000
,
0001
0100
0010
1000
,
0001
0000
0000
1001
0000
0000
0000
0000
,
1000
0010
0100
0001
,
0010
0100
1000
0010
,
0100
0001
1000
0001
,
1000
0000
0000
1001
0000
0000
0000
0000
,
1000
0100
0010
0001
,
1000
0000
0000
1001
0000
0000
0000
0000
,
0001
0010
0100
1000
,
0001
0000
0000
1001
0000
0000
0000
0000
,
0001
1000
0100
0010
,
0001
1000
0010
0100
,
0001
0010
0001
0100
,
0001
0000
0010
0000
0001
0010
0001
0000
,
1000
0010
1000
0100
,
1000
0000
0010
0000
1000
0010
1000
0000
,
0001
1000
0010
0100
,
0001
0000
1000
0000
0001
1000
0001
0000
,
2002
0000
0000
0000
,
3003
0000
0220
0330
,
2002
0000
0000
0000
,
0000
0000
0000
0000
,
0000
0000
3003
0000
;

//---------------dance-single - ----------------
#NOTES:
     dance-single:
     :
     Beginner:
     4:
     0.345,0.391,0.122,0.000,0.000,169.000,9.000,0.000,0.000,0.000:
1000
0000
0001
0000
,
1000
0000
0001
0000
,
0100
0000
0010
0000
,
0100
0000
0010
0000
,
1000
0000
0001
0000
,
1000
0000
0001
0000
,
1000
0000
0000
0000
,
0001
0000
0000
0000
,
1000
0000
0010
0000
,
0100
0000
0001
0000
,
0010
0000
0100
0000
,
1000
0000
0001
0000
,
1000
0000
0001
0000
,
0100
0000
0010
0000
,
1000
0000
0000
0000
,
0001
0000
0000
0000
,
1000
0000
0001
0000
,
0100
0000
0010
0000
,
1000
0000
0100
0000
,
0010
0000
0001
0000
,
0100
0000
0010
0000
,
1000
0000
0001
0000
,
1001
0000
0000
0000
,
0000
0000
1001
0000
,
0001
0000
1000
0000
,
0001
0000
1000
0000
,
0010
0000
0100
0000
,
0010
0000
0100
0000
,
0001
0000
1000
0000
,
0001
0000
1000
0000
,
0001
0000
0000
0000
,
1000
0000
0000
0000
,
0001
0000
0100
0000
,
0010
0000
1000
0000
,
0100
0000
0010
0000
,
0001
0000
1000
0000
,
0001
0000
1000
0000
,
0010
0000
0100
0000
,
0001
0000
0000
0000
,
1000
0000
0000
0000
,
0001
0000
1000
0000
,
0010
0000
0100
0000
,
0001
0000
0010
0000
,
0100
0000
1000
0000
,
0010
0000
0100
0000
,
0001
0000
1000
0000
,
1001
0000
0000
0000
,
0000
0000
1001
0000
,
1000
0000
0001
0000
,
1000
0000
0001
0000
,
0100
0000
0010
0000
,
0100
0000
0010
0000
,
1000
0000
0001
0000
,
1000
0000
0001
0000
,
1000
0000
0000
0000
,
0001
0000
0000
0000
,
1000
0000
0010
0000
,
0100
0000
0001
0000
,
0010
0000
0100
0000
,
1000
0000
0001
0000
,
1000
0000
0001
0000
,
0100
0000
0010
0000
,
1000
0000
0000
0000
,
0001
0000
0000
0000
,
1000
0000
0001
0000
,
0100
0000
0010
0000
,
1000
0000
0100
0000
,
0010
0000
0001
0000
,
0100
0000
0010
0000
,
1000
0000
0001
0000
,
1001
0000
0000
0000
,
0000
0000
1001
0000
,
0001
0000
1000
0000
,
0001
0000
1000
0000
,
0010
0000
0100
0000
,
0010
0000
0100
0000
,
0001
0000
1000
0000
,
0001
0000
1000
0000
,
0001
0000
0000
0000
,
1000
0000
0000
0000
,
0001
0000
0100
0000
,
0010
0000
1000
0000
,
0100
0000
0010
0000
,
0001
0000
1000
0000
,
0001
0000
1000
0000
,
0010
0000
0100
0000
,
0001
0000
0000
0000
,
1000
0000
0000
0000
,
0001
0000
1000
0000
,
0010
0000
0100
0000
,
0001
0000
0010
0000
,
0100
0000
1000
0000
,
0010
0000
0100
0000
,
0001
0000
1000
0000
,
1001
0000
0000
0000
,
0000
0000
1001
0000
,
1001
0000
0000
0000
;
