#TITLE:A.Q. Children;
#SUBTITLE:;
#ARTIST:t+pazolite;
#TITLETRANSLIT:;
#SUBTITLETRANSLIT:;
#ARTISTTRANSLIT:;
#CREDIT:;
#BANNER:../fallback-bn.png;
#BACKGROUND:../fallback-bg.png;
#LYRICSPATH:;
#CDTITLE:;
#MUSIC:aq.ogg;
#OFFSET:-0.000;
#SAMPLESTART:73.726;
#SAMPLELENGTH:12.000;
#SELECTABLE:YES;
#BPMS:0.000=260.000,93.000=520.000,95.000=260.000,98.000=520.000,100.000=260.000,208.000=520.000,209.000=260.000,218.000=520.000,220.000=260.000,237.000=520.000,239.000=130.000,259.500=260.000,297.500=520.000,299.000=260.000;
#STOPS:93.000=0.058
,93.500=0.058
,94.000=0.058
,94.500=0.058
,98.000=0.058
,98.500=0.058
,99.000=0.058
,99.500=0.058
,208.000=0.116
,218.000=0.058
,218.500=0.058
,219.000=0.058
,219.500=0.058
,237.000=0.058
,237.500=0.058
,238.000=0.058
,238.500=0.058
,297.500=0.058
,298.000=0.058
,298.500=0.058
;
#BGCHANGES:;
// cache tags:
#FIRSTBEAT:20.000;
#LASTBEAT:448.000;
#SONGFILENAME:Songs/SSSC PACK/[Aoreo] - A.Q. Children/aq.sm;
#HASMUSIC:1;
#HASBANNER:1;
#MUSICLENGTH:105.000;
// end cache tags

//---------------dance-single - Aoreo----------------
#NOTES:
     dance-single:
     Aoreo:
     Hard:
     16:
     1.000,1.000,0.495,0.314,1.000,1043.000,52.000,33.000,8.000,14.000:

0000
0000
0000
0000
,
0000
0000
0000
0000
,
0000
0000
0000
0000
,
0000
0000
0000
0000
,
0000
0000
0000
0000
,
1000
0000
0001
0100
0000
0010
1000
0000
,
0100
0000
1000
0000
0001
0100
0001
0000
,
1000
0000
0010
0000
1000
0000
0001
0100
,
0010
0100
0001
1000
,
0100
1000
0010
0000
0100
0000
0001
0000
,
1000
0000
0010
0000
0100
0000
0001
0000
1000
0100
0000
0100
1000
0000
0010
0000
,
0100
0001
0100
0000
0010
0000
1000
0000
0100
0000
1000
0000
0010
0000
1000
0000
,
0001
0100
0001
0000
1000
0000
0010
0000
1000
0010
1000
0000
0100
0000
1000
0000
,
0001
0100
0000
0100
0010
0000
1000
0000
0100
1000
0100
1000
0010
0000
0010
0000
,
0100
0000
0001
0000
0100
0001
0000
0100
0001
0100
0001
0100
0001
0100
0001
0000
,
1000
0000
0100
0000
1000
0000
0010
0000
0100
0001
0100
0000
0001
0000
1000
0000
,
0010
0100
0010
1000
0100
0000
1000
0000
0001
0000
0001
0000
0100
0000
0100
0000
,
0010
0100
0010
0000
1000
0000
0100
1000
0100
0000
1000
0010
0100
0000
0001
0000
,
1000
0000
0100
0000
1000
0001
0010
0000
0001
0000
0100
0010
0100
0000
0010
0000
,
1000
0000
0100
0000
1000
0000
0010
0000
0100
0010
0100
0010
0100
0010
0100
0000
,
1001
0000
0100
0010
0000
1000
0100
1000
,
0010
0100
0001
1000
0100
1000
0000
0010
,
0100
0001
0100
0010
1000
0100
1000
0001
,
1000
0100
2000
3020
0230
0320
0230
0300
,
0101
0110
0000
1010
0110
0001
1000
0100
,
0010
0000
0100
0000
1000
0000
0010
0000
0100
0010
1000
0010
0100
0000
0010
0000
,
1000
0000
0100
0000
0010
0000
0100
0000
1000
0000
0001
0000
0100
0000
0010
1000
,
0100
1000
0001
0000
0100
0000
0100
0000
0010
0000
1000
0000
1000
0000
0010
0100
,
0001
0100
0010
1000
1010
0010
0110
0100
,
0101
0000
0001
0000
1000
0100
1000
0010
,
0100
0000
0001
0000
1000
0000
0100
0000
1000
0000
0100
1000
0100
0000
1000
0000
,
0010
0100
0010
0100
0010
0000
0100
0000
0001
0000
1000
0000
0100
0000
1000
0100
,
1000
0000
0100
0000
1000
0010
0100
0000
0110
0000
0010
0000
0100
0000
0001
0000
,
1000
0100
0010
0000
0100
1000
0010
0000
0100
0010
0100
0010
0100
0000
0010
0000
,
0100
0100
0001
0001
1100
0000
1010
0110
,
0101
0000
0001
0000
1000
0000
0100
0000
1000
0000
0010
0100
0001
0000
0010
0000
,
0100
0010
1000
0100
1000
0000
0010
0000
0100
0000
0001
0000
0001
0000
1000
0000
,
0010
0100
0010
0100
0010
0000
0100
0000
0001
0000
1000
0000
0100
0000
1000
0000
,
0010
0000
0100
0001
1000
0000
0100
0000
1000
0010
0100
0010
0100
0000
0001
0000
,
1000
0010
0100
1000
1010
0101
0011
1001
,
2200
3300
1000
0000
0100
0000
0010
0000
0001
0000
0010
0000
0100
0000
1000
0000
,
0010
1000
2010
3010
0120
0231
0301
1000
,
2010
0000
0000
3010
0000
0000
0120
0000
0000
0130
0000
0000
0202
0000
0303
0001
0000
0000
1000
0000
0000
0100
0000
0000
,
1000
0010
0100
0001
0010
0001
1002
1003
,
1010
0000
2100
3000
1200
0000
0310
0000
0120
0000
0130
0000
0201
0000
0301
0000
,
2002
0000
0000
0000
,
3003
0000
0000
0000
1110
0001
1000
0001
1000
0001
1000
0001
1000
0001
1000
0001
,
1000
0001
1000
0001
1000
0001
1000
0001
1110
0001
1000
0001
1000
0001
1000
0001
,
1000
0001
1000
0001
1110
0001
1000
0001
1110
0001
1000
0001
1110
0001
1000
0001
,
1000
0000
0001
0000
1000
0000
0001
0000
1000
0000
0001
0000
1000
0000
0001
0000
1000
0000
0001
0000
1000
0001
1000
0001
1000
0001
1000
0001
1000
0001
1000
0001
,
1000
0000
0000
0000
0001
0000
1000
0000
0000
0000
0001
0000
1000
0000
0100
1000
,
0100
0000
1000
0010
1000
0000
0010
0000
0100
0000
0001
0000
1000
0000
0100
0000
,
11MM
0000
MMMM
0000
1MM1
0000
0000
0000
0001
0000
0000
0000
0100
0000
0001
0100
,
0001
0000
1000
0000
0010
0000
1000
0000
0001
0100
0001
0000
1000
0000
0100
0000
,
1000
0010
0100
0001
0100
1000
0100
0001
,
0101
0000
0000
0000
1000
0000
0100
0000
1000
0001
0100
0000
0100
0000
0100
0000
,
0001
0100
0001
0100
0010
0000
1000
0000
0100
0000
1000
0000
0001
0000
0100
0000
,
0010
1000
0010
1000
0010
1000
0010
0000
1000
0000
1000
0000
0001
0100
0001
0000
,
1000
0000
0000
0000
0010
0000
0000
0000
1000
0000
0000
0000
0001
0000
0000
0000
0100
0000
0010
0000
0100
0000
0000
0000
0001
1000
0001
0000
0000
0000
0000
0000
,
1000
0100
0010
0000
0000
0000
0000
0000
0001
0000
0000
0000
1000
0000
0000
0000
0001
0000
0000
0000
1000
0000
0000
0000
0001
0000
1000
0000
0100
0000
1000
0000
,
0010
0100
0001
1000
0100
1000
0001
1000
0100
0010
0001
1000
0100
1000
0010
0100
,
0001
0010
0100
0010
0001
0100
0010
0100
0010
1000
0100
1000
0010
0100
0001
0010
,
1000
0000
0010
0000
0001
0000
0010
0000
0001
0000
1000
0000
0100
0000
0010
0000
0100
0000
0010
0000
1000
0000
0001
0000
1000
0100
1000
0100
1000
0010
1000
0010
,
0100
0010
0100
0010
0100
0010
0100
0001
0100
0001
0100
0010
1000
0100
0010
0001
1000
0100
0010
0001
1000
0100
1000
0010
1000
0001
1000
0001
0100
0001
0010
0001
,
0100
0010
1000
0001
1000
0100
1000
0010
0100
0010
0100
0001
1000
0100
0010
0100
1000
0010
1000
0010
0100
0010
0100
0001
0100
0010
1000
0100
1000
0000
0000
0000
,
0100
0000
1000
0000
0010
0100
0010
0000
0100
0000
0001
0000
1000
0100
1000
0100
,
1000
0000
0010
0000
0100
0001
0010
0000
0001
0000
1000
0000
0100
0000
1000
0100
,
1000
0100
1000
0000
0010
0000
0100
0000
0001
0000
1000
0000
0010
0000
0100
0001
,
0100
0000
0010
1000
0010
1000
0010
0000
0100
0000
0001
0000
1000
0000
0100
1000
,
0100
0000
1000
0001
1000
0000
0010
0100
0010
0100
0010
0100
0010
0100
0010
0000
,
1000
0000
0100
0000
1000
0000
0001
0100
0001
0000
1000
0010
1000
0000
0010
0100
,
0010
0000
0100
0001
0100
0000
0010
0000
0100
0000
0010
0000
1000
0000
0100
1000
,
0100
0000
1000
0001
1000
0001
1000
0000
0010
0000
0100
0001
0000
0001
0100
0000
,
0010
0000
1000
0010
0100
0000
0010
0000
1000
0000
0100
0000
2000
0000
0000
0000
,
0000
0000
0000
0000
0000
0000
0002
3000
0203
0000
0320
0000
0230
0000
0301
0000
,
1000
0000
0010
1000
0000
0010
0100
0000
0010
0000
1000
0001
1000
0000
0010
0000
,
0100
0000
0001
1000
0010
0000
0100
0000
0001
0000
1000
0000
0100
0000
1000
0010
,
1000
0010
1000
0000
0001
0000
0100
0000
0010
0000
1000
0000
0001
0000
0100
0010
,
0100
0000
0001
0000
1000
0000
0100
0000
1000
0000
0001
0010
0001
0000
1000
0100
,
1000
0000
0010
0100
0010
0000
0100
0001
0100
0001
0100
0001
0100
0001
0100
0000
,
0010
0000
1000
0000
0100
0000
1000
0100
1000
0000
0010
0000
0100
0000
0010
0000
,
1000
0000
0001
0100
0001
0000
1000
0000
0100
0000
1000
0000
0010
0000
0100
0001
,
0100
0001
0100
0000
0010
0000
0100
0000
0010
0000
1000
0000
0001
0000
1000
0100
,
1000
0000
0010
0000
1000
0000
0100
1000
0100
0000
2000
0000
0000
0000
0000
0000
,
0000
0000
3000
0010
0100
0001
1000
0200
,
0000
0000
0000
0000
0000
0000
0000
1000
,
0000
1000
0000
0000
0000
0000
0000
0000
,
0000
0001
0000
0001
0000
0000
0000
0000
,
0000
1000
0000
1000
0000
0020
0000
0300
,
0000
0000
0000
0000
0000
0030
0000
1001
,
0000
1001
0000
1100
0000
1100
0000
0010
,
0100
0010
0000
0100
0000
0001
0000
1000
,
0000
0010
1000
0010
1000
0100
1000
0001
,
0100
0000
0000
0010
0000
0000
0100
0000
0000
0001
0000
0000
1000
0000
0000
0100
1000
0100
1000
0100
1000
0100
1000
0100
,
1000
0100
1000
0100
1000
0100
1000
0100
1000
0100
1000
0100
1000
0100
1000
0100
1000
0100
1000
0100
1000
0100
0000
0000
,
0000
0000
1000
0000
0001
0000
0100
0010
0000
0100
0010
0000
1000
0000
0100
1000
,
0100
0000
1000
0000
0001
0000
0100
0010
0100
0000
0001
0000
1000
0000
0100
1000
,
0100
0000
1000
0000
0001
0000
1000
0000
0010
0000
0100
0010
0100
0000
0001
0100
,
0001
0000
1000
0100
1000
0000
0010
0100
0010
0100
0010
0000
1000
0000
0010
0000
,
1000
0000
0100
0000
1000
0000
0001
0100
0010
1000
0100
1000
0100
0000
1000
0100
,
0010
0001
1000
0100
0010
0001
0010
0100
1000
0001
0010
0100
1000
0010
0100
0010
,
0100
0001
0010
0001
0010
0001
1000
0100
1000
0100
1000
0010
1000
0100
1000
0001
,
1000
0001
0010
0001
0100
0010
0100
0001
0100
0001
0100
0010
1000
0100
1000
0100
,
1000
0010
0100
0010
0100
0001
0010
0001
1000
0100
0010
0100
1000
0010
0100
0010
,
0100
0001
0010
0001
1000
0100
0010
0001
0010
0100
1000
0100
0010
0001
1001
0000
,
0001
1000
0100
0010
0100
1111
0001
0010
,
1000
0100
0010
1111
0010
0100
1000
0100
,
1000
1111
0010
0100
0001
1000
0100
1111
,
1000
0010
0100
0001
1000
1111
0100
1000
,
0001
0010
0100
1111
0001
1000
0100
1000
,
0100
1111
1000
0010
0100
0001
0010
2222
,
0000
0000
0000
0000
,
3333
0000
0000
0000
;

//---------------dance-single - Aoreo----------------
#NOTES:
     dance-single:
     Aoreo:
     Challenge:
     14:
     1.000,1.000,0.381,0.495,0.862,853.000,40.000,52.000,8.000,7.000:

0000
0000
0000
0000
,
0000
0000
0000
0000
,
0000
0000
0000
0000
,
0000
0000
0000
0000
,
0000
0000
0000
0000
,
1000
0000
0001
0100
0000
0010
1000
0000
,
0100
0000
1000
0000
0001
0100
0001
0000
,
1000
0000
0010
0000
1000
0000
0001
0100
,
0010
0100
0001
1000
,
0100
1000
0010
0000
0100
0000
0001
0000
,
1000
0000
0010
0000
0100
0000
0001
0000
1000
0100
0000
1000
0100
0000
1000
0000
,
0010
0100
0010
0000
0100
0000
0001
0000
0100
0000
0010
0000
1000
0000
0001
0000
,
0100
0010
0100
0000
0010
0000
1000
0000
0001
0010
0001
0000
1000
0000
0010
0000
,
0100
0010
0000
0100
0010
0000
1000
0000
0100
1000
0100
1000
0010
0000
0100
0000
,
0001
0000
0100
0000
0001
0100
0000
0001
0100
0001
0100
0001
0100
0001
0100
0000
,
0010
0000
1000
0000
0010
0000
0100
0000
0001
1000
0001
0000
0100
0000
0010
0000
,
1000
0100
1000
0100
1000
0000
0010
0000
0100
0000
0010
0000
0100
0000
0001
0000
,
1000
0001
1000
0000
0001
0000
0100
0010
0100
0000
0010
1000
0010
0000
0100
0000
,
0001
0000
0100
0000
0001
1000
0001
0000
0100
0000
0001
0100
0001
0000
1000
0000
,
0100
0000
1000
0000
0001
0000
0100
0000
0010
0100
0010
0100
0010
0100
0010
0000
,
0110
0000
0100
0010
0000
1000
0100
1000
,
0010
0100
0001
1000
0100
1000
0000
0010
,
0100
0001
0100
0010
1000
0100
1000
0001
,
1000
0100
2000
3020
0230
0320
0230
0300
,
0101
0110
0000
0110
1010
0010
1000
0100
,
1000
0000
0010
0000
1000
0000
0001
0000
0100
0010
0100
0010
0100
0000
0010
0000
,
1000
0000
0001
0000
1000
0000
0100
0000
1000
0000
0001
0000
0100
0000
0010
1000
,
0010
1000
0010
0000
0100
0000
0001
0000
1000
0000
0100
0000
1000
0000
0010
0100
,
0010
0100
0010
1000
1010
0010
0110
0100
,
0101
0000
0001
0000
1000
0100
1000
0010
,
0100
0000
0001
0000
1000
0000
0100
0000
1000
0000
0100
1000
0100
0000
1000
0000
,
0010
0100
0010
0100
0010
0000
0100
0000
0001
0000
1000
0000
0100
0000
1000
0100
,
1000
0000
0100
0000
1000
0010
0100
0000
0010
0000
0100
0000
0001
0000
1000
0000
,
0010
0100
0010
0000
0100
0001
0100
0000
0010
1000
0010
1000
0010
0000
0100
0000
,
0001
0000
0100
0000
0001
0000
1000
0000
0010
0100
0010
0100
0010
0000
0100
0000
,
0001
0000
1000
0000
0010
0000
0100
0000
0001
0000
1000
0100
1000
0000
0010
0000
,
0100
0010
1000
0100
1000
0000
0010
0000
0100
0000
0001
0000
1000
0000
0010
0000
,
0100
0010
0100
0010
0100
0000
0001
0000
1000
0000
0010
0000
1000
0000
0100
0000
,
1000
0000
0001
0100
0001
0000
0100
0000
0010
1000
0010
1000
0010
0000
0100
0000
,
0001
0000
1000
0000
0010
0000
1000
0000
0020
0030
0200
0300
0020
0030
2000
3000
,
0200
0000
0000
0000
,
0300
0000
0000
0000
2200
0000
3300
0000
0220
0330
0022
0000
0033
0000
0000
0000
,
2002
3003
2020
3030
2222
0303
0000
0000
,
0000
0000
0000
0000
3030
0000
2002
3003
,
2020
3030
2200
0000
3300
0000
0000
0000
0220
0000
0330
0000
0202
0000
0303
0000
,
2222
3030
0000
0000
,
0303
1111
0000
0000
,
0000
0000
1111
0000
,
0000
1111
1111
1111
,
0000
0000
0000
0000
0000
0000
0000
0000
0000
0000
0000
0000
0000
0000
0000
0000
0000
0000
0000
0000
1000
0001
1000
0001
1000
0001
1000
0001
1000
0001
1000
0001
,
1000
0000
0000
0000
0001
0000
1000
0000
0000
0000
0001
0000
1000
0000
0100
1000
,
0100
0000
1000
0010
1000
0000
0010
0000
0100
0000
0001
0000
1000
0000
0100
0000
,
11MM
0000
MMMM
0000
1MM1
0000
0000
0000
0001
0000
0000
0000
0100
0000
0001
0100
,
0001
0000
1000
0000
0010
0000
1000
0000
0001
0100
0001
0000
1000
0000
0100
0000
,
1000
0000
0010
0000
0100
0000
0001
0000
2000
3000
0020
0030
0200
0300
0002
0003
,
0200
0300
0000
0000
0010
0000
0100
0000
0001
1000
0001
0000
0100
0000
0010
0000
,
1000
0100
1000
0100
1000
0000
0010
0000
0100
0000
0010
0000
1000
0000
0001
0000
,
1000
0010
1000
0010
1000
0010
1000
0000
0001
0000
1000
0000
0010
0100
0010
0000
,
1000
0000
0000
0000
0001
0000
0000
0000
0100
0000
0000
0000
0001
0000
0000
0000
0100
0000
0010
0000
0100
0000
0000
0000
0001
1000
0001
0000
0000
0000
0000
0000
,
1000
0100
0010
0000
0000
0000
0000
0000
0001
0000
0000
0000
1000
0000
0000
0000
0001
0000
0000
0000
1000
0000
0000
0000
0001
0000
1000
0000
0100
0000
1000
0000
,
0010
0100
0001
1000
0100
1000
0001
1000
0100
0010
0001
1000
0100
1000
0010
0100
,
0001
0010
0100
0010
0001
0100
0010
0100
0010
1000
0100
1000
0010
0100
0001
1000
,
0010
0100
0001
0010
0001
1000
0010
0100
0010
1000
0001
1000
0010
1000
0001
0010
,
0001
1000
0100
0010
0001
0010
0100
1000
0100
0010
0001
0010
0100
1000
0010
0100
,
0010
1000
0001
0010
0001
1000
0100
1000
0010
0100
0001
0010
0001
1000
0100
0000
,
1000
0000
0001
0000
0100
0010
0100
0000
0001
0000
1000
0000
0100
1000
0100
1000
,
0100
0000
1000
0000
0001
0010
0001
0000
0100
0000
0010
0000
0100
0000
0010
0100
,
0010
0100
0010
0000
1000
0000
0001
0000
1000
0000
0010
0000
0100
0000
0001
0100
,
0001
0000
1000
0010
1000
0010
1000
0000
0001
0000
1000
0000
0010
0000
0100
0001
,
0100
0000
0010
1000
0010
0000
0100
0010
0100
0010
0100
0010
0100
0010
0100
0000
,
0001
0000
0010
0000
0001
0000
1000
0010
1000
0000
0010
1000
0010
0000
0100
0010
,
0100
0000
0001
0100
0001
0000
1000
0000
0100
0000
1000
0000
0010
0000
0100
0001
,
0100
0000
0001
1000
0001
1000
0001
0000
0100
0000
0001
0100
0000
0001
0100
0000
,
0010
0000
1000
0010
1000
0000
0010
0000
1000
0000
2000
0000
0000
0000
0000
0000
,
0000
0000
0000
0000
0000
0000
0002
3000
0203
0000
0320
0000
0230
0000
0301
0000
,
1000
0000
0010
1000
0000
0010
0100
0000
0010
0000
1000
0001
1000
0000
0010
0000
,
0100
0000
0001
1000
0010
0000
0100
0000
0001
0000
1000
0000
0100
0000
1000
0010
,
1000
0010
1000
0000
0001
0000
0100
0000
0010
0000
1000
0000
0001
0000
0100
0010
,
0100
0000
0001
0000
1000
0000
0100
0000
1000
0000
0001
0010
0001
0000
1000
0100
,
1000
0000
0010
0100
0010
0000
0100
0001
0100
0001
0100
0001
0100
0001
0100
0000
,
0010
0000
1000
0000
0100
0000
1000
0100
1000
0000
0010
0000
0100
0000
0010
0000
,
1000
0000
0001
0100
0001
0000
1000
0000
0100
0000
1000
0000
0010
0000
0100
0001
,
0100
0001
0100
0000
0010
0000
0100
0000
0010
0000
1000
0000
0001
0000
1000
0100
,
1000
0000
0010
0000
1000
0000
0100
1000
0100
0000
2000
0000
0000
0000
0000
0000
,
0000
0000
3000
0010
0100
0001
1000
0200
,
0000
0000
0000
0000
0000
0000
0000
1000
,
0000
1000
0000
0000
0000
0000
0000
0000
,
0000
0001
0000
0001
0000
0000
0000
0000
,
0000
1000
0000
1000
0000
0020
0000
0300
,
0000
0000
0000
0000
0000
0030
0000
1001
,
0000
1001
0000
1100
0000
1100
0000
0010
,
0100
0010
0000
0100
0000
0001
0000
1000
,
0000
0010
1000
0010
1000
0100
1000
0001
,
0100
0000
0000
0010
0000
0000
0100
0000
0000
0001
0000
0000
1000
0000
0000
0400
4000
0000
0000
0000
0000
0000
0000
0000
,
0000
0000
0000
0000
0000
0000
0000
3300
,
0000
0000
1000
0000
0001
0000
0100
0010
0000
0100
0010
0000
1000
0000
0100
1000
,
0100
0000
1000
0000
0001
0000
0100
0010
0100
0000
0001
0000
1000
0000
0100
1000
,
0100
0000
1000
0000
0001
0000
1000
0000
0010
0000
0100
0010
0100
0000
0001
0100
,
0001
0000
1000
0100
1000
0000
0010
0100
0010
0100
0010
0000
1000
0000
0010
0000
,
1000
0000
0100
0000
1000
0000
0001
0100
0010
1000
0100
1000
0100
0000
1000
0000
,
0000
0010
0100
0010
0000
0100
0000
0010
,
1000
0010
0000
0000
0000
1000
0000
0010
,
0100
0010
0000
1000
0000
0001
0010
0100
,
0000
1000
0000
0100
0010
0100
0000
0000
,
0000
0000
0000
0000
0000
0000
0000
0000
0000
1000
0001
1000
0001
1000
0001
1000
0001
1000
0001
1000
0001
1000
0000
0000
,
0001
0100
0010
1000
0100
1100
1000
0010
,
1000
0010
0100
0110
0010
0100
0001
0100
,
0001
0101
0100
0010
1000
0100
1000
1010
,
0010
0100
0001
1000
0010
1010
1000
0001
,
0100
0010
0100
0101
0001
1000
0100
1000
,
0001
1001
1000
0010
0100
0120
0000
0000
,
0000
0000
0000
0000
,
0030
0000
0000
0000
;
