#TITLE:Blue;
#SUBTITLE:;
#ARTIST:Eifel 65;
#TITLETRANSLIT:;
#SUBTITLETRANSLIT:;
#ARTISTTRANSLIT:;
#CREDIT:;
#BANNER:banner.JPG;
#BACKGROUND:;
#LYRICSPATH:;
#CDTITLE:!tizaTitle.png;
#MUSIC:Eifel 65 - I'm Blue.ogg;
#OFFSET:-0.440;
#SAMPLESTART:48.601;
#SAMPLELENGTH:17.200;
#SELECTABLE:YES;
#BPMS:0.000=128.000;
#STOPS:;
#BGCHANGES:;
// cache tags:
#FIRSTBEAT:3.000;
#LASTBEAT:459.500;
#SONGFILENAME:Songs/Reggaeton and more/Blue/blue.sm;
#HASMUSIC:1;
#HASBANNER:1;
#MUSICLENGTH:220.692;
// end cache tags

//---------------dance-single - ----------------
#NOTES:
     dance-single:
     :
     Challenge:
     9:
     0.543,0.781,0.494,0.018,0.129,726.000,109.000,4.000,175.000,0.000:

0000
0000
0000
0MM0
,
100M
M100
0010
0M01
1000
001M
01M0
0M01
,
M000
1M00
0010
010M
00M1
0M10
M100
0M10
,
00M1
1000
010M
M010
0100
10M0
0001
1M00
,
0M00
0001
M010
0100
0010
00M1
1M00
0010
,
M10M
M010
1M00
0001
M1M0
001M
M100
0M01
,
00M0
100M
0100
M010
0001
100M
M100
0010
,
MM01
0010
M10M
1000
0MM1
0010
0100
100M
,
0000
00M1
0100
1M00
M000
0001
0M10
1000
,
01M0
0000
001M
0000
0000
0010
MM01
0000
0000
0000
01M0
0000
0000
0100
001M
0000
,
0M00
0000
1000
0000
00M0
1000
010M
0000
0M00
0000
M010
0000
0M00
0010
M001
0000
,
0M00
0000
M010
0000
0000
0010
010M
0000
0000
0000
10M0
0000
000M
1000
0M10
0000
,
000M
0000
M100
0000
0000
0100
00M1
0000
0000
0000
1M00
0000
0000
1000
00M1
0000
,
0000
0000
0M01
0000
00M0
0001
M100
0000
0000
0000
M100
0000
0M00
0010
100M
0000
,
0M00
0000
10M0
0000
000M
0100
M010
0000
0000
0000
0M01
0000
M000
0010
010M
0000
,
0M00
0000
0010
0000
0000
0001
01M0
0000
M000
0000
001M
0000
0000
1000
00M1
0000
,
1M01
00M0
0000
M000
0M00
00M0
0000
000M
,
0M00
00M0
0000
M000
000M
M000
1100
0000
,
0011
0000
1000
0010
0100
0001
0010
0100
,
0000
0000
1000
0100
0010
0000
0001
0100
,
0010
0000
1000
0010
0001
1000
0100
0001
,
0000
0000
0001
0010
0001
0000
0100
1000
,
0100
0000
0001
0010
0001
0100
1000
0100
,
0000
0000
0001
0010
0100
0000
1000
0010
,
0001
0000
1000
0100
0001
0010
0100
1000
,
0000
0000
0000
0000
0000
0000
1000
0100
1000
0000
0000
0001
0100
0000
0001
0000
,
1001
0000
1000
0100
0010
0001
0010
0100
,
0000
0000
1000
0010
0100
0000
0001
0100
,
0010
0000
1000
0100
0010
0001
1000
0010
,
0000
0000
0010
1000
0100
0000
0010
0001
,
0100
0000
0100
0001
0010
0100
1000
0001
,
0000
0000
1000
1000
1000
0000
0001
0001
,
0001
0000
0010
0010
0010
0100
0100
0100
,
0000
0000
0000
0000
0000
0000
0001
0100
0001
0000
0000
0000
1000
0000
0100
0000
,
0010
1000
0001
0100
1000
0010
0100
0001
,
0000
1000
0010
0001
1000
0001
1000
0100
,
0001
0010
1000
0001
0100
1000
0010
0100
,
0000
0001
0001
0010
0100
1000
0100
0010
,
0001
0100
0010
1000
0100
0010
0100
0100
,
0000
1000
0010
0100
0001
0001
0001
0001
,
0010
0100
1000
0100
0010
0001
1000
1001
,
0000
0101
0000
0110
0000
1010
0000
0101
,
1001
1100
0110
1100
,
0110
0000
0000
0000
0011
0000
0000
0000
1001
0000
1000
0000
0100
0010
0000
0010
,
0100
1000
0001
0100
0010
0100
0001
0010
,
0100
1000
1001
0000
0000
0000
1000
0010
,
0000
1000
0010
0100
0010
1000
0000
0001
,
0100
0010
1000
0100
0010
0000
0001
1000
,
0000
1000
0100
1000
0010
0100
0001
0010
,
1000
0010
0001
0000
0000
1000
0010
0100
,
0000
0001
0100
0010
1000
0010
0000
0100
,
0001
0010
0100
1001
0000
1100
0010
0101
,
1001
1000
0100
0010
0001
1000
0010
0100
,
0001
1000
1001
0000
0000
0000
1100
0000
,
0101
0001
0100
0010
1000
0100
0000
0010
,
0001
0010
0100
1001
0000
0000
0011
0000
,
1010
1000
0010
0100
0001
0010
0100
1000
,
0100
0010
0001
0000
0000
0000
1100
0000
,
0011
0001
0010
0100
1000
0010
0000
0100
,
0001
0000
0010
0000
0100
0000
1001
0000
0000
0000
0000
1000
0010
0000
0100
0000
,
0101
0000
1100
0100
0010
0001
0010
0110
,
0000
0000
0101
0010
1100
0000
1010
0100
,
0011
0000
1100
0010
0101
1000
1100
1001
,
0000
0000
0011
1000
1010
0000
1010
0010
,
0110
0000
0110
0100
0101
0011
0110
1100
,
0000
0000
1100
0110
0011
0000
0101
0110
,
1010
0000
1100
0011
0101
1010
0110
1001
,
0000
0000
0000
1000
,
0001
0000
1000
0100
0010
0001
0100
1000
,
0000
0000
0001
0010
1000
0000
0001
0100
,
1000
0000
1000
0100
0001
1000
0010
0001
,
0000
0000
1000
0100
0001
0000
0001
0010
,
0100
0000
0100
1000
0010
0100
0001
1000
,
0000
0000
1000
0100
0010
0000
0001
0100
,
0010
0000
1000
0100
0010
0100
1000
1001
,
0000
0000
0000
0000
0000
0000
1000
0100
0010
0000
0000
0000
1000
0000
1000
0000
,
0100
0010
0001
0010
0100
1000
0010
0020
,
M000
010M
M100
010M
M100
010M
M100
010M
,
M100
010M
M100
010M
M100
010M
M100
023M
,
M000
0000
00M0
0001
M000
0000
00M1
0000
M000
0001
00M0
0000
M001
0000
00M0
0001
M000
0000
00M1
0000
M000
0001
00M0
0000
,
M001
0000
00M0
0001
M000
0000
00M1
0000
M000
0001
00M0
0000
M001
0000
00M0
0001
M000
0000
00M1
0000
M000
0302
00M0
0000
,
M000
00M0
1M00
0M00
0M10
0M00
1M00
0M00
0M10
0M00
1M00
0M00
0M10
0M00
1M00
0M00
,
0M10
0M00
1M00
0M00
0M10
0M00
1M00
0M00
0M10
0M00
1M00
0M00
0M10
0M00
2M03
0M00
,
0M00
0000
0100
0000
0000
0000
0010
0000
0000
0000
3001
0000
1000
0100
0000
0100
,
0001
1000
0010
0001
0010
0100
1000
0010
,
0100
0001
1001
0000
0000
1000
0010
0100
,
0000
0001
0010
0100
1000
0001
0000
1000
,
0010
0100
0001
0010
0100
0000
1000
0001
,
0000
0001
0001
0010
0010
0100
0100
1000
,
1000
0001
1000
0000
0000
0001
0100
0001
,
0000
1000
0100
1000
0010
1000
0000
1000
,
0100
0000
0010
0000
0001
0000
0010
0000
0000
0000
0000
0100
1000
0000
0001
0000
,
1001
1000
0100
0010
0100
1000
0010
0001
,
1000
0100
0001
0000
0000
0000
1100
0000
,
0011
0001
0010
0001
0010
0001
0000
0010
,
1000
0010
0001
0010
0000
0000
0110
0000
,
1001
1000
0100
0001
1000
0010
0001
0100
,
1000
0001
0010
0000
0000
0000
1000
0000
,
0001
0010
0100
0010
0001
1000
0000
1000
,
1001
0000
0001
0000
0100
0000
0010
0000
0000
0000
0000
1000
0100
0000
1000
0000
,
0010
0000
1000
0100
0010
0100
1000
0001
,
0000
0000
0001
0100
0001
0000
1000
0010
,
1000
0000
0001
0100
0001
0010
0100
1000
,
0000
0000
1000
0010
1000
0000
0100
0001
,
0100
0000
1000
0010
1000
0100
0010
0001
,
0000
0000
1000
0010
0100
0000
0001
0010
,
0100
0000
1000
1000
1000
1000
1000
1000
,
0000
0000
0000
0000
0000
0000
1100
0100
,
0110
0010
0011
0101
0110
1001
1100
0110
,
0100
1000
0010
0001
1000
0100
0001
0010
,
0110
0010
0101
0110
1010
1100
0110
0011
,
0001
0010
0110
1100
1001
0001
0101
0110
,
1010
1000
1100
0110
1100
1001
0101
1001
,
1000
0100
0110
0011
1100
0100
0110
1001
,
0110
0010
0011
1100
1010
0101
0110
1001
;
