#TITLE:BRING HER DOWN;
#SUBTITLE:;
#ARTIST:AKIRA YAMAOKA;
#TITLETRANSLIT:;
#SUBTITLETRANSLIT:;
#ARTISTTRANSLIT:;
#CREDIT:;
#BANNER:Bring Her Down.png;
#BACKGROUND:Bring Her Down-bg.png;
#LYRICSPATH:;
#CDTITLE:!toph-cdtitle.png;
#MUSIC:Akira Yamaoka - Bring Her Down.mp3;
#OFFSET:-0.412;
#SAMPLESTART:14.920;
#SAMPLELENGTH:14.600;
#SELECTABLE:YES;
#BPMS:0.000=132.000;
#STOPS:;
#BGCHANGES:;
// cache tags:
#FIRSTBEAT:0.000;
#LASTBEAT:240.500;
#SONGFILENAME:Songs/Community Keyboard Megapack - Volume 2/(Toph) Bring Her Down/Bring Her Down.sm;
#HASMUSIC:1;
#HASBANNER:1;
#MUSICLENGTH:114.057;
// end cache tags

//---------------dance-single - ----------------
#NOTES:
     dance-single:
     :
     Easy:
     5:
     0.354,0.446,0.149,0.053,0.136,260.000,17.000,6.000,10.000,0.000:
0000
0000
0000
0000
,
0000
0000
0000
0000
,
0000
0000
0000
0000
,
0000
0000
0000
0000
,
1001
0000
0000
0000
,
1000
0000
0000
0000
0000
0000
0001
0100
,
1001
0000
0000
0000
,
2000
3200
0320
0032
,
1003
0000
0001
0100
0000
0001
1000
0000
,
0010
0000
1000
0001
0000
1000
0100
0000
,
0010
0000
0001
1000
0000
0001
0100
0000
,
0010
0000
0000
0000
1000
0000
0001
0000
0000
0010
0000
0000
0010
0000
0000
0010
,
0001
0000
0000
0100
0000
0000
0001
0000
0000
0100
0000
0000
0001
0000
0100
0000
,
0001
0000
0000
0100
0000
0000
0001
0000
0000
0100
0000
0000
0001
0000
0100
0000
,
0010
0000
0000
1000
0000
0000
0010
0000
0000
1000
0000
0000
0010
0000
1000
0000
,
0010
0000
0000
1000
0000
0000
0010
0000
0000
1000
0000
0000
0001
0000
0001
0000
,
0010
0000
0100
0000
1000
0001
0100
0000
,
0010
1000
0010
0000
1000
0001
0100
0000
,
0010
0000
1000
0000
0001
0010
0100
0000
,
1000
0100
1000
0000
0001
0010
0100
0000
,
1001
0000
0100
0000
0010
1000
0001
0000
,
1000
0100
1000
0000
0001
1000
0100
0000
,
0010
0000
0001
0000
1000
0010
0100
0000
,
0001
1000
0001
0000
1000
0100
0010
00M0
,
0001
0000
0000
0000
,
0100
0000
0000
0000
0000
0000
0100
0010
,
1000
0000
0000
0000
0100
0100
0100
0000
,
0010
0000
0000
0000
0001
0000
0000
1000
,
0010
0000
0000
0000
0100
0000
0000
0000
0001
0000
1000
0000
0000
1000
0000
0000
,
0010
0000
0000
0000
0100
0000
0000
0000
0001
0000
1000
0000
0000
1000
0000
0000
,
0100
0000
0000
0000
0010
0000
0000
0000
0001
0000
0100
0000
0000
0100
0000
0000
,
0010
0000
0000
0000
1000
0000
0000
0000
0001
0000
0010
0000
0000
0010
0000
0000
,
0100
0000
0000
1000
0000
0000
0001
0000
0000
0000
0100
0000
0001
0000
0100
0000
,
0010
0000
0000
0010
0000
0000
1000
0000
0000
0000
0001
0000
0100
0000
0010
0000
,
1000
0000
0000
0100
0000
0000
0010
0000
0000
0000
0001
0000
1000
0000
0001
0000
,
0010
0000
0000
0010
0000
0000
0100
0000
0000
0000
0000
0000
0000
0000
0000
0000
,
1001
0000
0000
0000
,
1000
0000
0000
0000
0000
0000
0001
0100
,
1001
0000
0000
0000
,
1000
0000
0000
0000
0000
0000
0001
0100
,
1001
0010
1000
0001
,
1000
0000
0100
0000
1000
0000
0001
0100
,
1001
0010
1000
0001
,
1000
0000
0110
0000
0001
1000
0020
0000
,
0130
0000
0001
0000
1000
0100
0010
0000
,
1001
0000
0000
0000
1001
0000
0000
0000
1001
0000
0000
1001
0000
0000
1001
0000
,
1001
0000
0100
0000
0010
0001
1000
0000
,
0010
1000
0010
0000
0100
0001
1000
0000
,
0100
0000
0000
0100
0000
0000
0100
0000
0000
0100
0000
0000
0010
0000
0001
0000
,
1000
0000
0000
1000
0000
0000
1000
0000
0000
1000
0000
0000
1000
0000
0010
0000
,
0100
0000
0000
0100
0000
0000
0100
0000
0000
0100
0000
0000
0100
0000
0001
0000
,
1100
0000
00M0
000M
0000
M000
00M0
0000
0M00
000M
0000
0M00
00M0
0000
M000
0000
,
0011
0000
1000
0000
0001
0100
0010
1000
,
0001
0000
0100
0000
0001
1000
0100
0000
,
1000
0000
0001
0000
1000
0010
0100
0001
,
1000
0000
0100
0000
1000
0001
0100
0000
,
0010
0000
1000
0000
0000
0001
0000
0000
0100
0000
0010
0000
0000
0000
1000
0000
,
0001
0000
1000
0000
0100
0010
0100
0010
,
0001
0000
1000
0000
0000
0010
0000
0000
0100
0000
0001
0000
0000
0000
1000
0000
,
0100
0000
0010
0000
2001
0000
0000
3010
;

//---------------dance-single - ----------------
#NOTES:
     dance-single:
     :
     Medium:
     8:
     0.606,0.630,0.351,0.158,0.535,426.000,40.000,18.000,39.000,0.000:
0000
0000
0000
0000
,
0000
0000
0000
0000
,
0000
0000
0000
0000
,
0000
0000
0000
0000
,
1000
0100
1000
0001
0000
0100
0000
0010
,
1000
0000
0001
0000
1000
0000
0100
0010
0000
0010
0100
0000
1000
0000
1000
0000
,
1000
0010
1000
0001
0000
0100
0000
0010
,
2000
0000
0M00
3000
0200
0000
M0M0
0300
0020
0000
0M0M
0030
0002
0000
00M0
0003
,
1100
0000
0000
0100
0010
0000
0000
0010
0000
0001
1000
0000
0010
0000
0000
0010
,
0100
0000
0000
0001
1000
0000
0000
1000
0000
0100
0010
0000
0001
0000
0000
0001
,
0100
0000
0000
0010
1000
0000
0000
1000
0000
0001
0010
0000
0100
0000
0000
0100
,
1000
0000
0000
0001
0100
0000
0000
0100
0000
0010
1000
0000
0010
1000
0000
0010
,
0100
0000
0000
0010
0000
0000
0001
0000
0000
1000
0000
0000
0010
0000
1000
0000
,
0001
0000
0000
0010
0000
0000
0100
0000
0000
0010
0000
0000
0001
0000
1000
0000
,
0010
0000
0000
0100
0000
0000
0010
0000
0000
1000
0000
0000
0100
0000
1000
0000
,
0001
0000
0000
0010
0000
0000
0001
0000
0000
0100
0000
0000
1001
0000
1001
0000
,
0110
0000
1000
0000
0001
0010
0100
1001
,
0100
0010
0100
0000
0001
0000
0000
0000
1000
0000
0100
0000
0010
0000
1001
0000
,
0100
0000
0010
0000
1000
0001
0010
1100
,
0001
0010
0001
0000
0100
0000
0000
0000
0010
0000
1000
0000
0100
0000
0011
0000
,
1000
0000
0000
0000
0100
0000
0000
0100
0010
0000
1001
0000
0110
0000
0010
0000
,
2000
0000
3000
0000
0011
0000
0000
1000
0001
0000
1000
0000
0010
0000
0100
0000
,
1001
0000
0100
0010
0000
0010
0100
0000
0001
0000
1010
0000
0000
1010
0000
0000
,
0001
0000
1000
0000
0010
0100
0000
0100
0010
1000
0010
1000
0010
1000
0001
0000
,
0010
0000
0000
0001
0000
0000
0100
0000
0000
0100
0000
0000
0100
0000
0100
0000
,
0010
0000
0000
0010
0000
0000
0010
0000
0000
0010
0000
0000
0010
0000
1000
0000
,
0001
0000
0000
0010
0000
0000
0100
0000
1000
0001
1000
0000
1000
0001
0000
0000
,
0100
0000
0000
0100
0000
0000
0100
0000
0000
0100
0000
0000
0010
0000
1000
0000
,
0001
0000
0100
0000
0010
0000
0000
0010
0000
0000
0101
0000
0000
0101
0000
0000
,
1000
0000
0100
0000
0010
0000
0000
0010
0000
0000
1001
0000
0000
1001
0000
0000
,
0001
0000
0100
0000
0010
0000
0000
0010
0000
0000
1100
0000
0000
1000
0200
0000
,
0310
0000
0001
0000
0100
0000
0020
0100
0030
0000
2000
3000
0200
0300
0020
0030
,
1001
0000
0000
0011
0000
0000
1100
0000
0000
0000
0010
0000
0001
0000
1000
0000
,
0110
0000
0000
0110
0000
0000
1001
0000
0000
0000
1000
0000
0100
0000
0010
0000
,
1001
0000
0000
1010
0000
0000
0101
0000
0000
0000
0010
0000
0100
0000
0010
0000
,
1001
0000
0000
1001
0000
0000
0110
0000
0000
0000
1100
0000
0000
1000
0200
0000
,
0310
0001
0010
0100
0000
1000
0000
0001
,
0100
0000
0001
0000
1000
0000
0010
0100
0000
0100
0010
0000
1000
0000
1000
0000
,
1000
0100
1000
0010
0000
0100
0000
0001
,
1000
0000
0100
0000
1000
0000
0001
0100
0000
0100
0001
0000
1000
0000
1000
0000
,
1000
0000
0010
0000
0000
0100
0000
0001
0010
0000
0100
0000
0000
0000
1001
0000
,
0010
0000
0000
0100
0000
0000
0010
0000
0000
0100
0000
0000
0010
0000
0100
0000
,
0001
0000
1000
0000
0000
0100
0000
0010
0001
0000
1000
0000
0000
0000
0110
0000
,
0001
0000
0000
1000
0010
0000
0100
0000
0001
1000
0020
0000
0200
0000
0000
0330
,
1001
0000
0000
0100
0010
0000
0000
0010
0000
0001
1000
0000
0010
0000
0000
0100
,
MMM1
0000
0100
0000
1MMM
0000
0100
0000
MMM1
0000
0100
0010
1000
0001
0100
0000
,
1001
0000
0000
0010
1000
0000
0000
1000
0000
0001
0010
0000
0100
0000
0000
0100
,
1000
0000
0001
0100
0000
0001
0100
0010
2000
0000
3200
0000
0320
0000
0031
0000
,
1000
0000
0100
1000
0000
0100
1000
0000
0100
1000
0000
0100
0010
0000
0001
0000
,
0100
0000
0010
0100
0000
0010
0100
0000
0010
0100
0000
0010
1000
0000
0001
0000
,
1000
0000
0010
1000
0000
0010
1000
0000
0010
1000
0000
0010
0100
0000
0001
0000
,
11MM
0000
M00M
0MM0
0000
MM00
00MM
0000
0M0M
M0M0
0000
M00M
0MM0
0000
MM00
0000
,
0011
0000
1000
0000
0100
0000
1000
0000
0001
0000
0100
0000
0010
1000
0001
0000
,
0010
0100
0010
0000
0001
0000
1000
0000
0010
0000
0100
0000
0001
1000
0100
0000
,
0011
0000
1000
0000
0100
0000
1000
0000
0001
0000
0100
0000
0010
1000
0001
0000
,
0010
0100
0010
0000
0001
0000
1000
0000
0010
0100
0010
0100
0010
0100
0010
0100
,
0001
0000
1000
0000
0100
1000
0000
1000
0001
0000
0100
0000
0010
1000
0001
0000
,
1000
0100
1000
0000
0010
0000
0100
0000
0001
1000
0001
1000
0001
1000
0001
1000
,
0010
0000
0100
0000
0001
1000
0000
1000
0100
0000
0010
0000
0001
1000
0010
0000
,
1000
0100
1000
0000
0001
0000
0010
0000
2200
0000
0000
0000
0000
3300
MMMM
0000
;

//---------------dance-single - ----------------
#NOTES:
     dance-single:
     :
     Hard:
     10:
     0.814,0.843,0.517,0.245,0.903,562.000,59.000,28.000,123.000,5.000:
0000
0000
0000
0000
,
0000
0000
0000
0000
,
0000
0000
0000
0000
,
0000
0000
0000
0000
,
0001
1000
0000
0000
0100
0000
0000
0010
0001
0000
1000
0000
0000
0000
0010
0000
,
0100
0000
0000
0000
0001
0000
0000
1000
0000
0100
0010
0000
0001
0000
0001
0000
,
0001
1000
0000
0000
0100
0000
0000
0010
0001
0000
1000
0000
0000
0000
0010
0000
,
2000
0000
0200
0000
0020
0000
0002
3333
,
MM11
0000
0000
1000
0001
0000
0000
0100
0000
0010
1000
0001
0010
0000
0000
0100
,
1M00
0000
0000
0001
0100
0000
0000
0010
0000
1000
0100
0010
0001
0000
0000
1000
,
M010
0000
0000
0100
0001
0000
0000
0010
0000
0001
0100
0010
1000
0000
0000
0100
,
0M10
0000
0000
0001
1000
0000
0000
0010
1M00
0001
0010
0100
1M00
0000
0000
0001
,
001M
0000
0100
1000
0000
0001
0010
0000
0100
1000
0000
0010
0100
0001
1000
0100
,
0M10
0000
0001
1000
0000
0010
0100
0000
0001
0010
0000
0100
1000
0010
0100
0001
,
001M
0000
0001
0100
0000
0001
1000
0000
0100
1000
0000
0010
0100
0001
1000
0100
,
0M10
0000
0001
0100
0000
0001
0010
0000
0100
1000
0000
0010
M1MM
0000
MMM1
0000
,
1010
0000
0001
0000
1100
0000
0010
0000
1001
0000
0110
0000
0001
1000
0010
0000
,
0100
0001
0100
0000
1010
0000
0001
0000
1100
0000
0011
0000
1000
0001
0010
0000
,
1100
0000
0001
0000
1010
0000
0001
0010
0001
0000
1100
0000
0001
1000
0100
0000
,
0010
0001
0200
0300
1M10
0000
0002
0003
110M
0000
0011
0000
1100
0000
0101
0000
,
1001
0000
0000
0000
0110
0000
0000
0001
1000
0000
0010
0000
0101
0000
MMMM
0000
,
0001
1000
0001
0000
0010
0000
0001
0100
0010
0000
1100
0000
0011
0000
MMMM
0000
,
0110
0000
0001
1000
0001
0100
0010
1000
0001
0000
0110
0000
0001
100M
M100
0000
,
0010
0001
1000
0000
0110
0000
0001
1000
0010
0100
0001
1000
0100
0010
MMM1
0000
,
1000
0000
0001
0100
0000
0001
0010
0000
0001
0010
0000
0001
0010
0001
0010
0001
,
0100
0000
0010
0100
0000
0010
0100
0000
0010
0100
0000
0010
0100
0001
1000
0100
,
0010
0000
0001
0100
0000
0001
1000
0000
1000
0100
0010
0001
1000
0010
0100
0001
,
0010
0000
0001
0010
0000
0001
0010
0000
0001
0100
0000
0010
1000
0100
0010
0001
,
100M
0000
0010
0100
0001
0000
1000
0100
0000
0010
0001
1000
0010
0100
0001
1000
,
M100
0000
0010
0001
1000
0000
0010
0100
0000
0010
1000
0001
1000
0100
1000
0001
,
001M
0000
0001
1000
0010
0000
1000
0001
0000
0010
0001
0100
0010
1000
0002
0013
,
01MM
0000
1000
0001
0010
0000
0002
0103
000M
0010
2000
3100
0020
0031
0200
0310
,
1MMM
0000
0001
1000
0010
0000
0101
0000
1000
0000
0011
0000
1100
0000
0011
0000
,
1010
0000
0001
0100
0010
0000
1001
0000
0010
0000
0101
0000
0110
0000
1010
0000
,
1001
0000
0100
0010
0001
0000
1100
0000
0010
0000
1100
0000
0011
0000
1100
0000
,
0101
0000
0010
1000
0001
0000
0110
0000
1000
0001
0100
0000
0010
1000
0200
0300
,
0MM1
1000
0000
0000
0100
0000
0000
0010
0001
0000
1000
0000
0000
0000
0010
0000
,
0100
0000
0000
0000
0001
0000
0000
1000
0000
0100
0010
0000
0001
0000
0001
0000
,
0001
1000
0000
0000
0100
0000
0000
0010
0001
0000
1000
0000
0000
0000
0010
0000
,
0100
0000
0000
0000
0001
0000
0000
1000
0000
0100
0010
0000
0001
0000
0001
0000
,
0001
0000
0110
0000
1000
0010
0100
0001
1000
0000
0110
0000
0001
0000
1100
0000
,
0010
0000
0001
1000
0000
0001
0010
0000
0001
1000
0000
0001
0010
0001
1000
0001
,
0100
0000
1010
0000
0001
0100
0010
1000
0001
0000
1100
0000
0010
0000
1002
0000
,
0100
0000
0000
0000
1010
0000
0100
0000
0103
M010
2000
00MM
0002
0000
0000
3003
,
MM1M
0000
0000
1000
0001
0000
0000
0010
0000
0001
0100
0010
1000
0000
0000
0100
,
MM11
0000
0100
0000
1M1M
0000
0100
0000
1MM1
0000
0010
00M1
1000
M010
01M0
0000
,
1001
0000
0000
0010
0001
0000
0000
0100
0000
0010
1000
0001
0010
0000
0000
0100
,
1M00
0000
0001
0100
0010
1000
0001
0010
0002
0003
020M
0300
0M20
0030
20M0
3000
,
M011
0000
1000
0001
0100
0010
1000
0000
0001
1000
0100
0010
0001
0200
0310
2000
,
3001
0000
0100
0001
1000
0100
0010
0000
0002
0003
020M
0300
0M20
0030
20M0
3000
,
M001
0000
1000
0010
0100
0001
0010
0000
0001
0100
0M1M
1000
0100
0M1M
0001
1000
,
M01M
0000
0000
0000
0000
0000
0000
0000
0200
0000
0000
0000
0000
0300
MMMM
0000
,
1001
0000
0010
1000
0001
0000
0010
0001
0000
1000
0010
0100
0001
1000
MMMM
0000
,
0001
0100
0010
1000
0001
0000
0010
0001
0100
0001
1000
0100
0010
0001
MMMM
0000
,
1100
0000
0001
0100
0010
0000
1000
0001
0000
0010
0001
0100
0010
1000
MMMM
0000
,
1000
0100
1000
0010
0100
0000
0001
1000
00M1
M100
001M
1M00
010M
M010
0M01
10M0
,
M01M
0000
1000
0100
1000
0010
0100
0001
1000
0000
0110
0000
0001
0000
2MMM
0000
,
0100
0000
0M0M
0000
0M11
0000
000M
0010
3001
010M
0M10
10M0
M100
0M10
00M1
100M
,
M010
0000
0100
0001
0100
0010
1000
0001
0010
0000
1100
0000
0001
0000
MMMM
0000
,
0100
0010
1000
0001
0010
0000
0001
1000
1020
0000
0000
0000
0000
0030
11M1
0000
,
0000
MMMM
0000
0000
0000
0000
0000
0000
;

//---------------dance-single - ----------------
#NOTES:
     dance-single:
     :
     Challenge:
     12:
     1.000,1.000,1.000,0.272,1.000,708.000,293.000,31.000,0.000,0.000:
1100
0001
0000
0000
0100
0000
0000
0010
1000
0000
0001
0000
0000
0000
1000
0000
,
0100
0000
0000
0000
0010
0000
0000
0001
0000
1000
0010
0000
1010
0000
1010
0000
,
1100
0001
0000
0000
0100
0000
0000
0010
1000
0000
0001
0000
0000
0000
1000
0000
,
0100
0000
0000
0000
0010
0000
0000
0001
0000
1000
0010
0000
1010
0000
1010
0000
,
1100
0001
0010
0000
1100
0000
0001
1000
0010
0000
0100
0000
0000
0000
0001
0000
,
1100
0000
0001
0000
1010
0000
0001
1000
0000
0001
0010
0000
1010
0000
1010
0000
,
1100
0001
0010
0000
1100
0000
0001
1000
0010
0000
0100
0000
0000
0000
0001
0000
,
2010
0000
0000
0000
0000
0000
0000
0000
0001
0000
0000
0000
0000
0000
0000
3000
0210
0000
0000
0000
0000
0000
0000
0000
0001
0000
0000
0000
0000
0000
0000
0300
0020
0000
0000
0000
0000
0000
0000
0000
0000
0000
0000
0000
0000
0000
0000
0030
0002
0000
0000
0000
0000
0000
0000
0000
0000
0000
0000
0000
0000
0000
0000
0003
,
1010
0000
0100
0000
1001
0000
0001
1010
0000
1000
0001
1100
0011
0100
0010
1001
,
0110
1000
0001
0000
1100
0000
0001
1010
0000
1000
0001
1100
0011
0100
0001
1010
,
0101
1000
0010
0000
1001
0000
0010
1100
0000
0100
0010
1001
0110
0001
0100
1010
,
0101
1000
0010
0000
1001
0000
1000
0110
0001
1100
0001
0010
1100
0001
0010
1100
,
0011
0000
0100
0000
1010
0000
0001
1100
0000
0001
1000
0101
1010
0001
1000
0110
,
1001
0100
0010
0000
0101
0000
1000
0011
0000
1000
0001
1100
0011
1000
0001
0100
,
1010
0000
0000
0000
0001
0000
0000
0000
0100
0000
0000
0000
0000
0000
0000
0000
0011
0000
0000
0000
0000
0000
0000
0000
0100
0000
0000
0000
1010
0000
0000
0000
0101
0000
0000
0000
1000
0000
0000
0000
0200
0000
0000
0000
0000
0000
0000
0300
0010
0000
0000
0000
1001
0000
0000
0000
0110
0000
0000
0000
0001
0000
0000
0000
,
1100
0000
0000
0000
0010
0000
0000
0000
0001
0000
0000
0000
0000
0000
0000
0000
0200
0000
0000
0000
0000
0000
0000
0300
1001
0000
0000
0000
0000
0000
0000
0000
0100
0000
0000
0000
0000
0000
0000
0000
0100
0000
0000
0000
0000
0000
0000
0000
2002
0000
0000
0000
3003
0000
0000
0000
2002
0000
0000
0000
3003
0000
0000
0000
,
0110
0000
1000
0000
0101
0000
0010
0101
1000
0001
0110
1000
0011
1100
0011
0100
,
1001
0010
0100
0000
1001
0000
0010
0101
1000
0001
1100
0001
0110
1001
0110
1000
,
0011
0000
0000
0000
1000
0000
0000
0000
0100
0000
0000
0000
0020
0000
0000
0000
0000
0000
0000
0030
0000
0000
0000
0000
1100
0000
0000
0000
0011
0000
0000
0000
1000
0000
0000
0000
0001
0000
0000
0000
0110
0000
0000
0000
1000
0000
0000
0000
0011
0000
0000
0000
1100
0000
0000
0000
0011
0000
0000
0000
0100
0000
0000
0000
,
1001
0000
0000
0000
0010
0000
0000
0000
0200
0000
0000
0000
0000
0000
0000
0300
1001
0000
0000
0000
0000
0000
0000
0000
0020
0000
0000
0000
0000
0000
0000
0030
1001
0000
0000
0000
0010
0000
0000
0000
1100
0000
0000
0000
0001
0000
0000
0000
0110
0000
0000
0000
1001
0000
0000
0000
0100
0000
0000
0000
0000
0000
0000
0000
,
1010
0000
0001
0000
1100
0000
0010
0101
1010
0001
0110
1000
0101
1010
0101
0010
,
1002
0000
0000
0000
0000
0000
0000
0003
0000
0000
0000
0000
0000
0000
0000
0000
1010
0000
0000
0000
0000
0000
0000
0000
0110
0000
0000
0000
2000
0000
0000
3000
0110
0000
0000
0000
0001
0000
0000
0000
1100
0000
0000
0000
0001
0000
0000
0000
1010
0000
0000
0000
0101
0000
0000
0000
1010
0000
0000
0000
0001
0000
0000
0000
,
1100
0000
0010
0001
0010
0001
0100
0001
0010
0001
1100
0001
1010
0101
1010
0100
,
1001
0000
0010
0001
0010
0001
0100
0010
1001
1010
1100
1010
1001
1010
1100
0000
,
0001
0000
1000
0010
0000
1000
0100
0000
1000
0100
0010
0001
0100
0010
1000
0001
,
0100
0000
0001
0100
0000
0001
0100
0000
0001
0100
0010
1000
0001
1000
0010
1000
,
0001
0000
1000
0010
0000
1000
0100
0000
1001
0110
1001
0010
0101
1010
0100
0001
,
0100
0000
0001
0100
0000
0001
0100
0000
0001
0100
0010
1000
0001
1000
0010
1000
,
0101
0010
1000
0000
1100
0000
0001
1010
0000
0001
0100
0010
1000
0001
0010
0100
,
1001
0100
0010
0000
0101
0000
1000
0101
0000
1000
0100
0010
0001
1000
0110
0000
,
1001
0000
0000
0000
0100
0000
0000
0000
0010
0000
0000
0000
0000
0000
0000
0000
1100
0000
0000
0000
0000
0000
0000
0000
0001
0000
0000
0000
1010
0000
0000
0000
0000
0000
0000
0000
0001
0000
0000
0000
1000
0000
0000
0000
0010
0000
0000
0000
1000
0000
0000
0000
0100
0000
0000
0000
0020
0000
0000
0000
0001
0000
0000
0030
,
1100
0000
0000
0000
0001
0000
0000
0000
0010
0000
0000
0000
0000
0000
0000
0000
0010
0000
0000
0000
0000
0000
0000
0000
0002
0000
0000
0000
0000
0000
0000
0003
1000
0000
0000
0000
0001
0000
0000
0000
0200
0000
0000
0000
0010
0000
0000
0300
2000
0000
0000
0000
0001
0000
0000
3000
0020
0000
0000
0000
0100
0000
0000
0030
,
1001
0100
0010
0001
1100
0000
0101
1010
0000
0010
1100
0011
1100
0001
1100
0011
,
1001
0100
0010
1000
0101
0000
1010
0101
0000
0110
1001
0110
1001
0100
0011
0000
,
1001
0100
1000
0001
0110
0000
1000
0101
0000
1000
0011
1100
0010
0101
1010
0001
,
0110
0000
0000
0000
1000
0000
0000
0000
0001
0000
0000
0000
0010
0000
0000
0000
1100
0000
0000
0000
0000
0000
0000
0000
0110
0000
0000
0000
1001
0000
0000
0000
0000
0000
0000
0000
1000
0000
0000
0000
0110
0000
0000
0000
1001
0000
0000
0000
0100
0000
0000
0000
1010
0000
0000
0000
0002
0000
0000
0000
0000
0000
0000
0003
,
1100
0001
0010
0000
1100
0000
0001
1000
0010
0000
0100
0000
0000
0000
0001
0000
,
1100
0000
0001
0000
1010
0000
0001
1000
0000
0001
0010
0000
1010
0000
1010
0000
,
1100
0001
0010
0000
1100
0000
0001
1000
0010
0000
0100
0000
0000
0000
0001
0000
,
1100
0000
0001
0000
1010
0000
0001
1000
0000
0001
0010
0000
1010
0000
1010
0000
,
1100
0001
0110
0000
1100
0010
0001
1100
0011
0000
1100
0000
0010
0000
0101
0000
,
1100
0000
0001
0000
1010
0000
0001
1000
0100
0001
0010
0000
1010
0000
1010
0000
,
1100
0001
0110
0000
1100
0010
0001
1100
0011
0000
1100
0000
0010
0000
0101
0000
,
1100
0000
0000
0000
0000
0000
0000
0000
0001
0000
0000
0000
0000
0000
0000
0000
1010
0000
0000
0000
0000
0000
0000
0000
0101
0000
0000
0000
0000
0000
0000
0000
1100
0000
0000
0000
0001
0000
0000
0000
1010
0000
0000
0000
0000
0000
0000
0000
0200
0000
0000
0000
0000
0000
0000
0000
0000
0000
0000
0000
0000
0000
0000
0300
,
1001
0000
0010
0001
1100
0000
0001
1010
0000
1000
0001
1100
0011
1000
0001
0110
,
1001
0010
0100
0000
1010
0000
0100
0000
1001
0000
0110
1001
0100
0011
1100
0000
,
1001
0000
0010
0100
1001
0000
0001
1100
0000
0010
0001
1100
0011
1000
0001
1100
,
0011
0000
0000
0000
1000
0000
0000
0000
0100
0000
0000
0000
1010
0000
0000
0000
0001
0000
0000
0000
1000
0000
0000
0000
0010
0000
0000
0000
0101
0000
0000
0000
2000
0000
0000
0000
0000
0000
0000
3000
0200
0000
0000
0000
0000
0000
0000
0300
0020
0000
0000
0000
0000
0000
0000
0030
0001
0000
0000
0000
0000
0000
0000
0000
,
1100
0000
0000
0000
0000
0000
0000
0000
0001
0000
0000
0000
0010
0000
0000
0000
1100
0000
0000
0000
0000
0000
0000
0000
0001
0000
0000
0000
1010
0000
0000
0000
0000
0000
0000
0000
0001
0000
0000
0000
0100
0000
0000
0000
0010
0000
0000
0000
1000
0000
0000
0000
0002
0000
0000
0003
0010
0000
0000
0000
0002
0000
0000
0003
,
1100
0000
0000
0000
0000
0000
0000
0000
0010
0000
0000
0000
1001
0000
0000
0000
0000
0000
0000
0000
0100
0000
0000
0000
0010
0000
0000
0000
1001
0000
0000
0000
0020
0000
0000
0000
0000
0000
0000
0030
0200
0000
0000
0000
0000
0000
0000
0300
0002
0000
0000
0000
0000
0000
0000
0003
1000
0000
0000
0000
0000
0000
0000
0000
,
0110
1000
0001
1000
0101
0000
0010
1001
0100
1001
0110
0001
1000
0101
0010
0100
,
0011
0000
1000
0100
0000
1000
0010
0000
1000
0100
0000
1000
0001
0000
0100
0000
,
1001
0000
0010
0000
1100
0000
0001
1100
0001
1010
0101
0010
1000
0011
1100
0010
,
1001
0100
0010
0000
1001
0000
0010
0101
1000
0011
1000
0100
0010
1001
0110
1000
,
0101
0010
0001
0000
1100
0000
0001
1100
0010
1100
0001
0100
0010
1001
0110
0001
,
1100
0010
0001
0000
1100
0000
0001
0110
1000
1000
1100
1000
1010
1100
1000
1000
,
1001
0000
0011
0000
1100
0001
0010
1001
0011
1100
0011
1000
0100
1010
0101
0010
,
1001
0100
0010
0000
1100
0000
0010
0101
1010
1010
1010
1010
1010
1010
1010
1010
,
1001
0100
0011
0000
1100
0001
0010
1001
0101
1010
0101
0010
0100
1010
0101
0010
,
1001
0100
0010
0000
0101
0000
0010
1100
0012
1000
0100
0010
0100
1003
0001
0000
;
