#TITLE:Poem Downloader;
#SUBTITLE:;
#ARTIST:pianoid;
#TITLETRANSLIT:;
#SUBTITLETRANSLIT:;
#ARTISTTRANSLIT:;
#CREDIT:;
#BANNER:poem-bn.png;
#BACKGROUND:poem-bg.png;
#LYRICSPATH:;
#CDTITLE:;
#MUSIC:13 - pianoid -  Poem Downloader.ogg;
#OFFSET:-0.098;
#SAMPLESTART:41.612;
#SAMPLELENGTH:12.000;
#SELECTABLE:YES;
#DISPLAYBPM:200.000;
#BPMS:0.000=180.000,25.000=153.000,26.000=133.000,27.000=117.300,28.000=105.000,29.000=95.000,30.000=86.500,30.500=85.000,31.000=82.375,32.000=200.011;
#STOPS:;
#BGCHANGES:;
// cache tags:
#FIRSTBEAT:0.000;
#LASTBEAT:539.500;
#SONGFILENAME:Songs/SPEEEDCOOOORE 4/Poem Downloader - [Rynker]/poem downloader.sm;
#HASMUSIC:1;
#HASBANNER:1;
#MUSICLENGTH:169.053;
// end cache tags

//---------------dance-single - Rynker----------------
#NOTES:
     dance-single:
     Rynker:
     Challenge:
     16:
     1.000,1.000,0.000,0.095,1.000,1794.000,0.000,16.000,0.000,0.000:
0001
0010
0100
1000
0001
0010
0100
1000
,
0001
0010
0100
1000
0001
0010
0100
1000
,
0001
0100
0010
1000
0001
0100
0010
1000
,
0001
0100
0010
1000
0001
0100
0010
1000
,
0001
1000
0010
0100
0010
1000
0001
0010
0100
1000
0100
0010
0001
1000
0010
0100
,
0010
1000
0001
0010
0001
1000
0100
0010
0001
1000
0010
0100
0001
0100
0010
1000
,
0001
0010
0001
1000
0010
0100
0001
0100
0010
1000
0001
1000
0100
0010
0001
1000
,
0001
0100
0010
1000
0010
0100
0001
1000
0100
0010
0001
1000
0002
0000
0000
0000
,
1003
0100
0010
0001
0010
0100
1000
0001
0100
0001
0010
0001
0100
0010
1000
0001
,
0100
0010
1000
0100
0010
0001
1000
0001
0100
0001
0010
0100
1000
0001
0100
0010
,
1000
0001
0010
0100
1000
0100
0010
0001
1000
0100
1000
0010
0100
0001
1000
0010
,
0100
0001
0010
0100
1000
0100
0010
0001
0100
0010
1000
0001
0010
0100
1000
0010
,
0100
0001
1000
0100
0010
0001
1000
0001
0100
0010
1000
0100
0010
0100
1000
0001
,
0010
0001
0100
0010
1000
0010
0100
0001
1000
0100
0010
0001
0100
0010
1000
0001
,
0010
0100
1000
0001
0100
0010
1000
0001
0100
0010
1000
0100
0010
0001
1000
0001
,
0100
0001
0010
0100
1000
0001
0100
0010
1000
0001
0010
0100
1000
0001
0100
0010
,
0100
0001
0010
0100
1000
0100
0010
0001
0100
0001
0010
0001
0100
0010
1000
0001
,
0100
0010
1000
0100
0010
0001
1000
0001
0100
0001
0010
0100
1000
0001
0100
0010
,
1000
0001
0010
0100
1000
0100
0010
0001
1000
0100
1000
0010
0100
0001
1000
0010
,
0100
0001
0010
0100
1000
0100
0010
0001
0100
0010
1000
0001
0010
0100
1000
0010
,
0100
0001
1000
0100
0010
0001
1000
0001
0100
0010
1000
0100
0010
0100
1000
0001
,
0010
0001
0100
0010
1000
0010
0100
0001
1000
0100
0010
0001
0100
0010
1000
0001
,
0010
0100
1000
0001
0100
0010
1000
0001
0100
0010
1000
0100
0010
0001
1000
0001
,
0100
0001
0010
0100
1000
0001
0100
0010
1000
0001
0010
0100
1000
0001
0100
0010
,
2000
0000
0000
0000
3001
0010
0100
1000
0020
0000
0000
0000
1030
0100
0010
0001
,
0200
0000
0000
0000
0301
0010
0100
1000
0020
0000
0000
0000
0130
0001
0010
0100
,
2000
0000
0000
0000
3001
0010
0001
0100
0020
0000
0000
0000
0130
0001
0010
0100
,
2000
0000
0000
0000
3001
0100
0010
0100
0001
1000
0100
1000
0001
0010
0100
1000
,
0100
1000
0000
0100
0000
1000
0000
0100
,
1000
0000
0100
0000
0000
1000
0001
0000
0100
0000
0001
0000
0100
0001
0100
0001
,
2000
0000
0000
3000
,
0001
0000
0100
0000
0001
0100
0000
0001
1000
0100
0010
0001
0010
0100
1000
0001
,
0100
0000
0001
1000
0001
0000
1000
0100
1000
0000
0001
1000
0001
0000
1000
0100
,
1000
0000
0001
0100
0001
0000
1000
0010
0100
0000
0001
0010
0100
0000
1000
0010
,
0100
0000
0001
0100
0001
0000
1000
0001
1000
0000
0100
1000
0100
0000
0010
0001
,
0010
0000
0001
1000
0001
0000
1000
0010
0100
0000
0001
0010
0100
0000
1000
0100
,
0010
0000
0001
1000
0001
0000
1000
0010
1000
0000
0001
0100
0001
0000
1000
0100
,
1000
0000
0001
0010
0001
0000
1000
0100
0010
0000
0001
0100
0010
0000
1000
0100
,
0010
0000
0001
1000
0001
0000
1000
0100
1000
0000
0100
0010
0100
0000
0010
0001
,
0010
0000
0001
1000
0001
0000
1000
0010
0100
0000
0001
0100
0010
0000
1000
0001
,
0010
0000
0100
1000
0100
0000
1000
0001
1000
0000
0001
0100
0001
0000
0100
0010
,
0100
0000
0010
1000
0010
0000
1000
0001
0010
0000
0001
1000
0010
0000
0100
0001
,
1000
0000
0001
0100
0001
0000
1000
0010
1000
0000
0001
0100
0001
0000
1000
0001
,
1000
0000
0100
1000
0100
0000
0010
0001
1000
0000
0010
0100
0001
0000
1000
0001
,
0100
0000
0010
1000
0010
0000
0100
0001
0100
0000
0001
1000
0001
0000
1000
0100
,
1000
0000
0001
0010
0001
0000
1000
0001
0100
0000
0001
1000
0010
0000
0100
0001
,
1000
0000
0100
1000
0100
0000
1000
0001
1000
0000
0001
0100
0001
0000
0100
0010
,
0100
0000
0010
1000
0010
0000
1000
0001
0010
0100
0010
0001
1000
0001
0100
0010
,
1000
0010
0100
0001
0100
0001
1000
0100
1000
0001
0010
0100
0010
0001
0100
0010
,
1000
0010
0100
0001
1000
0100
1000
0001
0010
0100
1000
0001
1000
0000
1000
0000
,
0001
0100
0010
0100
0001
1000
0100
1000
0010
0100
0001
0100
0010
1000
0001
0010
,
0100
0010
0001
1000
0001
0100
0010
0100
0001
1000
0100
1000
0400
0000
0300
0000
,
1000
0100
0010
0001
0010
0100
1000
0010
0100
0001
0100
0010
1000
0001
0010
0100
,
0010
0001
1000
0001
0100
0010
0100
0001
1000
0100
1000
0000
0000
0000
0000
0000
,
0001
0100
0010
1000
0010
0100
0001
1000
0100
1000
0001
0010
0100
0010
0001
0100
,
0010
1000
0010
0100
0001
1000
0100
1000
0010
0100
0001
0100
0010
1000
0001
0010
,
0100
0010
0001
1000
0100
1000
0001
0100
0010
0100
0001
1000
0100
1000
0010
0100
,
0001
0100
0010
1000
0001
1000
0100
0010
0001
0010
0100
1000
0001
0000
0001
0000
,
0100
0010
0100
0001
1000
0100
0010
0001
0010
0100
1000
0001
0100
0010
0100
0001
,
1000
0100
1000
0001
0010
0100
0010
0001
0100
0010
1000
0010
0400
0000
0300
0000
,
0001
0100
0010
1000
0010
0100
0001
0010
0100
0010
0100
1000
0100
0010
0001
1000
,
0001
0100
0010
0100
0001
1000
0100
1000
0001
0010
0100
0000
1000
0000
0000
0000
,
0001
0100
0010
0100
0001
1000
0100
1000
0001
0010
0100
0010
0001
1000
0001
0100
,
0010
0100
0001
1000
0100
1000
0001
0010
0100
1000
0001
0100
0010
0100
0010
0100
,
0010
1000
0100
0010
0100
1000
0010
0100
0001
0100
0010
1000
0100
0010
0001
0010
,
0100
1000
0010
0100
0001
0100
0010
1000
0010
0100
0001
0010
0100
1000
0010
0100
,
0001
0100
0010
1000
0010
0100
0001
0010
0100
1000
0100
0010
0001
0100
0010
1000
,
0010
0100
0001
0010
0100
1000
0100
0010
0001
0100
0010
1000
0100
0010
0001
0100
,
0010
1000
0001
0100
0001
1000
0100
0010
0001
0010
0100
1000
0010
0100
0001
0100
,
0010
1000
0100
0010
0001
0010
0100
1000
0010
0100
0001
0010
0100
1000
0010
0100
,
0001
0010
0100
1000
0010
0100
0001
0010
0001
0100
0010
0100
0001
0010
0100
1000
,
0100
0010
0001
0100
0010
1000
0010
0100
0001
0010
0100
1000
0010
0100
0001
0010
,
0001
1000
0100
0010
0100
1000
0010
0100
0001
0100
0010
1000
0100
0010
0001
0010
,
0100
1000
0010
0100
0001
0100
0010
1000
0010
0100
0001
0010
0100
1000
0010
0100
,
0001
0100
0010
1000
0010
0100
0001
0010
0100
1000
0100
0010
0001
0100
0010
1000
,
0010
0100
0001
0010
0100
1000
0100
0010
0001
0100
0010
1000
0100
0010
0001
0100
,
0010
1000
0001
0100
0001
1000
0100
0010
0001
0010
0100
1000
0010
0100
0001
0100
,
0010
1000
0100
0010
0001
0010
0100
1000
0010
0100
0001
0010
0100
1000
0010
0100
,
0001
0000
0000
1000
0000
0000
0100
0000
0000
0000
0010
0000
0001
0000
1000
0000
,
0001
0100
0000
0001
0000
0000
1000
0000
0100
0000
0010
0000
0001
1000
0010
0000
,
0100
0000
0100
0000
,
0001
0010
0100
1000
0010
0000
0000
0000
,
1000
0000
0001
0100
0001
0000
1000
0000
,
0100
0000
0000
0000
0000
0000
0010
0000
0000
0000
0000
0000
0001
0000
0000
0000
0000
0000
1000
0000
0000
0000
0000
0000
0100
0000
0000
0000
0000
0000
0000
0000
0000
0000
0000
0000
1000
0000
0000
0001
0000
0000
4000
0000
0000
0000
3000
0000
,
0001
0100
0010
1000
0010
0100
0001
1000
0100
1000
0001
0010
0100
0010
0001
1000
,
0001
0100
0010
0100
0001
1000
0100
0010
0001
0010
0100
1000
0010
0100
0001
0100
,
0010
1000
0100
1000
0001
0010
0100
0010
0001
1000
0001
0100
0010
0100
0001
1000
,
0100
1000
0001
0010
0100
0010
0001
1000
0001
0100
0010
0100
0001
1000
0100
1000
,
0001
0010
0100
0010
0001
1000
0001
0100
0010
0100
0001
1000
0100
1000
0001
0010
,
0100
0010
0001
0010
0100
1000
0001
0100
0010
0100
0001
1000
0100
1000
0001
0010
,
0100
1000
0100
0010
0001
1000
0001
0100
0010
0100
0001
0010
0100
1000
0100
0010
,
0001
1000
0001
0100
0010
1000
0100
1000
0001
0100
0010
0100
0001
1000
0100
1000
,
0001
0010
0100
0010
0001
1000
0001
0100
0010
0100
0001
1000
0001
0100
0010
1000
,
0001
0100
0001
1000
0100
1000
0001
0010
0100
0010
0001
1000
0010
0100
0001
0010
,
0001
0100
0010
1000
0001
1000
0100
0010
0100
1000
0010
0100
0001
0100
0010
1000
,
0001
0010
0100
0010
0001
0100
0010
1000
0010
0100
0001
1000
0100
1000
0001
0010
,
0100
0010
0001
1000
0001
0100
0010
0100
0001
1000
0100
1000
0001
0010
0100
0010
,
0001
1000
0001
0100
0010
0100
0001
1000
0100
1000
0001
0010
0100
0010
0001
1000
,
0001
1000
0001
0100
0010
0100
0001
1000
0100
1000
0001
0010
0100
0010
0001
1000
,
0001
0100
0010
1000
0010
0100
0001
0100
0001
1000
0001
1000
0001
1000
0100
1000
,
0100
1000
0100
0010
0001
1000
0100
0010
,
0001
1000
0100
0010
0001
1000
0100
0010
,
0001
1000
0010
0100
0001
1000
0010
0100
,
0001
1000
0010
0100
0001
1000
0010
0100
,
0001
1000
0100
0010
0001
1000
0100
0010
,
0001
1000
0100
0010
0001
1000
0010
0100
,
0001
0010
0100
1000
0001
0010
0100
1000
,
0001
0010
0100
1000
0010
0100
0001
0010
,
0001
1000
0100
0010
0001
0010
0100
1000
0001
0100
0001
1000
0010
0100
0010
1000
,
0001
1000
0100
1000
0100
0010
0001
0010
0100
1000
0001
0100
0010
0100
0001
1000
,
0001
0100
0010
0100
0001
1000
0100
1000
0001
0010
0100
0010
0001
1000
0001
1000
,
0010
0100
0010
1000
0001
1000
0001
0100
0010
0000
1000
0000
0000
0000
0000
0000
,
0000
0000
0000
0000
,
0001
0010
0100
1000
0100
0010
0001
1000
0010
1000
0100
1000
0010
0100
0001
1000
,
0010
0100
0001
0010
0100
1000
0001
1000
0010
1000
0100
0010
0001
1000
0010
0100
,
0001
1000
0100
0010
0001
0010
0100
1000
0001
0010
0001
0100
0010
1000
0001
0100
,
0010
1000
0100
0010
0001
0010
0100
1000
0010
0100
0001
1000
0100
0010
0001
0100
,
0010
1000
0001
0010
0100
1000
0001
1000
0010
0100
0001
0010
0100
0010
0001
1000
,
0100
1000
0010
0100
0001
0100
0010
1000
0001
0010
0100
1000
0010
0100
0001
1000
,
0100
0010
0001
1000
0010
0100
0001
1000
0010
0100
0001
0010
0100
1000
0001
1000
,
0010
1000
0100
0010
0001
1000
0010
0100
0001
1000
0100
0010
0001
1000
0010
0100
,
0010
1000
0100
0010
0100
1000
0010
0100
0001
0100
0010
1000
0100
0010
0001
0010
,
0100
1000
0010
0100
0001
0100
0010
1000
0010
0100
0001
0010
0100
1000
0010
0100
,
0001
0100
0010
1000
0010
0100
0001
0010
0100
1000
0100
0010
0001
0100
0010
1000
,
0010
0100
0001
0010
0100
1000
0100
0010
0001
0100
0010
1000
0100
0010
0001
0100
,
0010
1000
0001
0100
0001
1000
0100
0010
0001
0010
0100
1000
0010
0100
0001
0100
,
0010
1000
0100
0010
0001
0010
0100
1000
0010
0100
0001
0010
0100
1000
0010
0100
,
0001
0010
0100
1000
0010
0100
0001
0010
0001
0100
0010
0100
0001
0010
0100
1000
,
0100
0010
0001
0100
0010
1000
0010
0100
0001
0010
0100
1000
0010
0100
0001
0010
,
0002
0000
0000
0000
1003
0100
0010
0001
2000
0000
0000
0000
3001
0100
0010
0100
,
0002
0000
0000
0000
1003
0100
0010
0001
0200
0000
0000
0000
0310
1000
0100
0010
,
0002
0000
0000
0000
0103
0001
0010
0100
2000
0000
0000
0000
3010
0100
0001
0010
,
0200
0000
0000
0000
0310
0001
0100
0010
1000
0010
0100
0001
0010
0100
1000
0100
,
0010
0001
0000
1000
0000
0001
0000
1000
,
0000
0001
0000
1000
0000
0001
0000
1000
;
