#TITLE:MAXX Nintendo;
#SUBTITLE:(done right);
#ARTIST:dj tepples;
#TITLETRANSLIT:;
#SUBTITLETRANSLIT:;
#ARTISTTRANSLIT:;
#CREDIT:;
#BANNER:maxxnintendo.png;
#BACKGROUND:maxxnintendo-bg.png;
#LYRICSPATH:;
#CDTITLE:d2rcr-black.png;
#MUSIC:maxxnintendo.mp3;
#OFFSET:-1.640;
#SAMPLESTART:13.600;
#SAMPLELENGTH:15.000;
#SELECTABLE:YES;
#BPMS:0.000=300.000,156.000=280.000,188.000=300.000,220.000=150.000,236.000=300.000,268.000=140.000,277.063=75.000,277.438=50.000,277.688=25.000,278.000=320.000;
#STOPS:278.000=1.440
;
#BGCHANGES:;
// cache tags:
#FIRSTBEAT:24.000;
#LASTBEAT:452.000;
#SONGFILENAME:Songs/mike songs/MAXX Nintendo/maxxnintendo.sm;
#HASMUSIC:1;
#HASBANNER:1;
#MUSICLENGTH:98.463;
// end cache tags

//---------------dance-single - D2RCR----------------
#NOTES:
     dance-single:
     D2RCR:
     Hard:
     10:
     0.985,1.000,0.620,0.345,0.081,584.000,61.000,34.000,0.000,0.000:
0000
0000
0000
0000
,
0000
0000
0000
0000
,
0000
0000
0000
0000
,
0000
0000
0000
0000
,
0000
0000
0000
0000
,
0000
0000
0000
0000
,
0000
0000
0000
0000
,
1000
0100
1000
0010
,
0100
0000
0001
0000
0010
0001
0010
0000
,
0001
0100
0010
1000
,
0100
0000
0010
0001
0010
0001
0010
0100
,
1000
0000
0010
0000
0100
0001
0010
0000
,
0100
1000
0001
0010
0001
0100
0010
0000
,
1000
0100
0010
0001
,
1000
0100
0010
0001
0100
0010
1000
0100
,
0010
0000
0001
2000
0000
3100
0000
0010
,
0001
0000
0100
0020
0000
1030
0000
0100
,
0010
0001
1000
0100
1000
0000
0010
0000
,
0001
0000
1000
0000
0100
0010
0001
0000
,
1000
0100
1000
0100
0000
0010
0000
0001
,
0010
0001
0010
0001
0000
0010
0000
0100
,
1000
0001
0010
0001
0000
1000
0000
0100
,
0010
0100
0010
0000
0220
0000
0330
0000
,
0001
0010
0100
1000
0010
0100
0001
0000
,
0010
0100
1000
0010
0100
0001
0010
0000
,
0001
0010
0001
0000
1000
0100
1000
0100
,
1100
1100
0011
0011
,
0010
0100
1000
0010
0000
0100
0001
0010
,
0001
0100
0010
1000
0000
0100
1000
0000
,
0010
0100
0001
0010
0000
0100
1000
0001
,
1001
1001
0110
0110
,
1000
0100
1000
0100
0000
0010
0001
0000
,
0100
0010
0100
0010
0000
0001
1000
0000
,
0100
0010
0001
0100
0000
0010
1000
0100
,
1100
1100
0011
0011
,
0001
0010
0100
1000
0010
0100
0001
0000
,
1000
0100
0010
0001
0100
0010
1000
0100
,
0010
0001
1000
0100
1000
0001
0010
0001
,
0011
0011
1100
1100
,
0100
0020
0000
0031
1000
0000
0100
0020
,
0000
0031
1000
0000
0100
1000
0100
0000
,
0010
0002
0000
1003
0200
0000
0310
0002
,
0000
0103
0020
0000
1030
0100
1000
0000
,
0100
0010
0001
0000
0110
0000
1001
0000
,
0100
0010
0100
0000
1001
0000
0110
0000
,
1000
0100
0010
0001
0100
0010
1000
0000
,
0100
0010
0001
0100
0010
0000
0110
0000
,
1000
0100
1000
0000
0001
0010
0001
0000
,
1000
0100
0010
0000
0001
0100
0010
0000
,
1000
0100
0010
0001
0100
0000
0010
0000
,
1000
0100
1000
0010
0100
0000
0001
0000
,
0010
0100
1000
0000
0001
0010
0100
1000
,
0010
0100
0001
1000
0100
0010
0001
0100
,
0010
1000
0100
0000
0010
0000
0001
0100
,
0010
1000
0100
0010
0001
0100
0010
1000
,
0100
0000
0020
0000
0000
0032
0000
0000
2003
0000
0000
3200
0000
0000
0320
0000
,
0000
0000
0032
0000
0000
0200
0003
0000
0320
0000
0000
2030
0000
0000
3100
0000
,
0010
0000
0002
0000
0000
2003
0000
0000
3002
0000
0000
2003
0000
0000
3200
0000
,
0000
0000
0320
0000
0000
0032
0000
0000
2003
0000
0000
3200
0000
0000
0310
0000
,
0001
0000
1000
0100
0000
0100
1000
0000
,
0001
0010
0000
0010
0001
0000
1001
0000
,
0100
0000
0010
0001
0000
1000
0100
0010
,
0001
0100
0010
1000
0100
0010
0001
0000
,
1000
0100
0010
0001
0100
0000
0110
0000
,
0001
0010
0100
1000
0010
0000
0110
0000
,
0001
0010
0001
0000
1000
0100
0010
0001
,
0100
0010
1000
0001
0010
0100
1000
0010
,
0100
0000
0001
0010
0000
0010
0001
0000
1000
0100
0000
0100
0010
0000
0001
0000
,
1000
0000
0100
0010
0000
0010
0001
0000
1000
0100
0000
0100
1000
0000
0001
0000
,
2002
0000
3003
0100
,
0010
0001
1000
0100
,
1000
0001
0010
0100
,
1000
0010
0100
0001
,
0010
0100
1000
0010
0100
0001
0010
0000
,
0001
0000
1000
0100
1000
0000
0001
0000
,
0010
0000
0001
0010
0100
0000
1000
0000
,
0010
0000
0100
0001
0010
0000
0100
1000
,
0010
0100
0001
0010
0100
1000
0010
0000
,
0100
0000
0001
0010
0001
0000
0010
0000
,
0001
0000
1000
0100
1000
0000
0010
0000
,
0100
0000
0001
0010
0100
1000
0010
0100
,
0001
1000
0100
0010
0001
0100
0010
0000
,
1000
0000
0100
0010
0001
0000
1000
0100
,
1000
0000
1000
0100
1000
0000
0001
0010
,
0001
0000
0001
0010
0001
0010
0100
1000
,
0100
1000
0010
0100
0001
0010
0011
0000
,
0000
1001
0000
0000
1001
0000
1010
0000
,
0000
1010
0000
0000
1001
0000
0011
0000
,
0000
1001
0000
0000
0100
0010
0001
1000
,
0200
0000
0300
0110
,
0000
0101
0000
0000
0011
0000
1010
0000
,
0000
1100
0000
0000
0101
0000
0011
0000
,
0000
1001
0000
0000
0100
0010
0110
0000
,
0110
0000
1001
0000
1001
0000
0010
0100
,
0010
0100
0000
0000
0110
0000
1000
0001
,
1000
0001
0000
0000
1001
0000
0100
0010
,
0000
0010
0100
0000
1000
0001
0010
0001
,
0010
0110
0110
1001
,
0000
1100
0000
0000
0101
0000
0101
0000
,
0000
0011
0000
0000
0010
1000
1010
0000
,
0000
1001
0000
0000
0010
0100
1000
0001
,
0020
0000
0000
0000
0000
0000
0130
1000
,
0001
0000
0010
0100
1000
0000
0001
0010
,
0100
0000
1000
0010
0100
0000
0001
0010
,
0001
0000
1000
0100
1000
0000
0010
0000
,
0100
0000
0001
0010
0001
0010
0001
0100
,
0010
0000
1000
0000
0100
0000
1000
0001
,
0010
0000
0100
0000
1000
0000
0001
0010
,
0001
0010
0000
0000
0110
0000
1000
0100
,
1000
0100
0000
0000
1001
0000
0110
0000
,
0000
1000
0100
0000
0000
0001
0010
0000
,
0000
1000
0100
0000
0000
0001
2002
0000
,
0000
0000
0000
0000
,
3003
0000
0000
0000
;

//---------------dance-single - D2RCR----------------
#NOTES:
     dance-single:
     D2RCR:
     Challenge:
     11:
     1.000,1.000,0.650,0.102,0.127,636.000,64.000,10.000,0.000,0.000:
0000
0000
0000
0000
,
0000
0000
0000
0000
,
0000
0000
0000
0000
,
0000
0000
0000
0000
,
0000
0000
0000
0000
,
0000
0000
0000
0000
,
2002
0000
3003
0000
,
1000
0100
1000
0000
1000
0010
0100
0000
,
0001
0000
0010
0000
0001
0010
0001
0000
,
0010
0000
0100
0000
1000
0100
1000
0000
,
1000
0100
1000
0010
0100
0001
0010
0000
,
0001
0010
0100
0000
1000
0010
0100
0000
,
0001
0010
0100
1000
0010
0100
0001
0000
,
0010
0100
1000
0010
0100
0001
0010
0001
,
1000
0100
0010
0001
0100
0010
1000
0001
,
0010
0000
0100
1000
0000
1100
0000
1000
,
0100
0000
0010
0001
0000
0011
0000
0001
,
0010
0100
1000
0001
0000
1001
0000
0010
,
0100
0000
1000
0000
0001
0010
0001
0000
,
0010
0000
0100
1000
0000
1001
0000
0001
,
0010
0000
0100
0010
0000
0110
0000
0010
,
0100
1000
0001
0010
0000
0100
0000
1000
,
0001
0010
0001
0000
2002
0000
3003
0000
,
1000
0100
0010
0001
0100
0010
1000
0001
,
0010
0100
1000
0010
0100
0000
0001
0000
,
0010
0100
1000
0001
0010
0100
1000
0000
,
1001
1001
0110
0110
,
1000
0100
0010
0001
1000
0100
0010
0000
,
0001
0100
0010
1000
0100
0010
0001
0000
,
0100
0010
1000
0100
0000
0010
0000
0001
,
0011
1100
0011
1100
,
0001
0010
0100
1000
0010
0100
0001
0000
,
1000
0100
0010
0001
1000
0100
0010
0000
,
0001
0100
0010
1000
0100
1000
0010
0100
,
0110
0110
1001
1001
,
0010
0100
1000
0010
0000
0100
0000
0001
,
0010
0001
0100
0010
0000
1000
0000
0100
,
0010
0001
0100
0010
1000
0100
0010
0001
,
0011
0011
1100
1100
,
0001
0010
0000
0100
1000
0000
0001
0010
,
0000
0001
1000
0100
1000
0010
0100
0000
,
0001
0010
0000
0001
0100
0000
0001
0010
,
0001
1000
0100
0010
0001
0000
1001
0000
,
0100
0010
0000
1000
0001
0000
0100
0010
,
0000
1000
0100
0010
0001
0100
0010
0000
,
1000
0100
1000
0000
1000
0100
1000
0000
,
0001
0010
0100
1000
0001
0010
0100
0000
,
1000
0100
1000
0000
1000
0100
1000
0000
,
0001
0010
0001
0000
0001
0010
0001
0000
,
1000
0100
0010
0001
0100
0000
0010
0000
,
1000
0001
0010
0100
1000
0000
0010
0000
,
0100
0001
0010
0001
0100
0010
1000
0000
,
0100
0010
0001
0100
0010
1000
0100
0000
,
0010
0001
0100
0010
1000
0001
0010
0100
,
1000
0010
0100
0001
0010
0100
1000
0010
,
0100
0000
0001
0010
0000
0010
0001
0000
1000
0100
0000
0100
1000
0000
0010
0000
,
0100
0000
0001
0010
0000
0010
0100
0000
1000
0001
0000
0001
1000
0000
0100
0000
,
0100
0000
0010
0001
0000
1000
0100
0000
0010
0001
0000
1000
0100
0000
0010
0001
,
1000
0000
0100
1000
0000
1000
0100
0000
0010
0001
0000
0001
0010
0000
0001
0000
,
0010
0100
1000
0000
0010
0100
0001
0000
,
0010
0100
1000
0010
0100
0001
0010
0000
,
0100
1000
0010
0000
0100
0001
0010
0000
,
0100
1000
0001
0010
0001
0000
0110
0000
,
1000
0100
1000
0100
1000
0000
1001
0000
,
0100
0010
0001
0100
0010
0000
0110
0000
,
1000
0100
0010
0000
0001
0000
0100
0010
,
1000
0100
0010
0001
0100
0010
1000
0100
,
0010
0000
0001
0100
0000
0010
1000
0000
0100
0010
0000
0010
0001
0000
1000
0000
,
0100
0000
0010
0001
0000
0001
0010
0000
0100
1000
0000
1000
0001
0000
0010
0000
,
2002
0000
3003
1000
,
0100
0000
0010
0001
1000
0000
0100
0000
,
0010
0000
0001
1000
0100
0000
0010
0001
,
1000
0000
0100
0010
0001
0000
1000
0100
,
1000
0010
0100
0001
0010
0000
0100
1000
,
0001
0000
0010
0100
1000
0000
0010
0100
,
0001
0000
0010
0100
1000
0000
0010
0100
,
0001
0000
1000
0000
0100
0010
0001
0100
,
0010
1000
0100
0010
0001
0100
0010
1000
,
0100
0000
1000
0100
1000
0000
1000
0100
,
1000
0000
0001
0010
0001
0000
0001
0010
,
0001
0000
1000
0100
0010
0000
0001
0100
,
0010
1000
0100
0010
0001
0100
0010
1000
,
0001
0000
0010
0100
1000
0000
0010
0100
,
0001
0000
0010
0100
1000
0000
0010
0100
,
0001
0000
1000
0100
1000
0010
0100
0001
,
0010
0100
1000
0010
0100
0000
0011
0000
,
0000
1001
0000
0000
1100
0000
1010
0000
,
0000
1001
0000
0000
0011
0000
0101
0000
,
0000
1001
0000
0000
0100
0010
0001
1000
,
0200
0000
0000
0300
0000
0000
1001
0000
,
0000
0110
0000
0000
1010
0000
0101
0000
,
0000
0011
0000
0000
1010
0000
1100
0000
,
0000
1001
0000
0000
0110
0000
1001
0000
,
1001
0000
0110
0000
0110
0000
1000
0100
,
0010
0001
0000
0000
1001
0000
0010
0100
,
0010
0100
0000
0000
0110
0000
1000
0100
,
0000
0100
1000
0000
0001
0010
0100
1000
,
0020
0000
0000
0030
0000
0000
0100
1000
,
0001
0010
0000
0000
1001
0000
0100
0010
,
0100
0010
0000
0000
0110
0000
1001
0000
,
0000
0110
0000
0000
1001
0000
1001
0000
,
0110
0000
1001
0000
0110
0000
1000
0100
,
1000
0000
0100
0010
0001
0000
1000
0100
,
0010
0001
0100
0010
1000
0000
0100
0010
,
0001
0000
1000
0000
0100
0010
0001
0100
,
0010
1000
0100
0010
0001
0100
0010
1000
,
0100
0000
0010
0001
0100
0000
0010
1000
,
0100
0010
0001
0100
0010
1000
0100
1000
,
0100
1000
0000
0000
1001
0000
0100
0010
,
0100
0010
0000
0000
1001
0000
0110
0000
,
0000
1000
0001
0000
0000
0001
1000
0010
,
0100
0001
1000
0100
1000
0001
0220
0000
,
0000
0000
0000
0330
;
