#TITLE:Children of the Night;
#SUBTITLE:;
#ARTIST:Crazy Mashcore Mafia;
#TITLETRANSLIT:;
#SUBTITLETRANSLIT:;
#ARTISTTRANSLIT:;
#CREDIT:Rynker;
#BANNER:Bn-Children.png;
#BACKGROUND:Bg-Children.png;
#LYRICSPATH:;
#CDTITLE:;
#MUSIC:Crazy Mashcore Mafia - Children Of The Night.ogg;
#OFFSET:-0.013;
#SAMPLESTART:54.875;
#SAMPLELENGTH:12.000;
#SELECTABLE:YES;
#DISPLAYBPM:240.000;
#BPMS:0.000=240.000,420.000=105.000,420.250=419.000,421.000=105.000,421.250=420.000,422.000=240.000;
#STOPS:;
#BGCHANGES:;
// cache tags:
#FIRSTBEAT:22.500;
#LASTBEAT:751.500;
#SONGFILENAME:Songs/SPEEEDCOOOORE/Children of the Night - [Rynker]/Children of the Night.sm;
#HASMUSIC:1;
#HASBANNER:1;
#MUSICLENGTH:189.048;
// end cache tags

//---------------dance-single - Rynker----------------
#NOTES:
     dance-single:
     Rynker:
     Challenge:
     17:
     1.000,1.000,0.201,0.143,1.000,1691.000,38.000,27.000,24.000,0.000:

0000
0000
0000
0000
,
0000
0000
0000
0000
,
0000
0000
0000
0000
,
0000
0000
0000
0000
,
0000
0000
0000
0000
,
0000
0000
0000
0000
0000
1000
0100
1000
,
0100
0000
0000
0000
0000
0010
0001
0010
,
0001
0000
0000
0000
0000
0100
0010
0100
,
0110
0000
0000
0000
1001
0000
0000
0001
1000
0000
0010
0000
0100
0001
0100
0001
,
0100
0000
0000
0000
0001
0000
0000
1000
0100
0000
0010
0000
0010
0000
0001
0000
,
1000
0000
1000
0000
1010
0000
0000
0001
0100
0000
0001
0000
1000
0100
1000
0100
,
1000
0000
0000
0000
1100
0000
0000
0001
1000
0010
1000
0001
0100
0010
1000
0001
,
1000
0001
0001
0010
0011
0000
0011
0001
,
1000
0000
0010
0000
0010
0000
0100
0001
0100
0000
0001
0000
1000
0100
0010
0001
,
0010
0000
0001
0000
0001
0000
0100
0010
0100
0000
0010
0000
1000
0001
1000
0001
,
1000
0000
0001
0000
0001
0000
1000
0000
0001
0100
0010
1000
0001
0100
0010
1000
,
0002
0003
0000
0000
0202
0303
0000
0000
,
2200
0000
3300
0000
0220
0000
0330
0000
0001
0010
0100
1000
0100
0010
0001
1000
,
0001
1000
0001
0100
,
0100
0010
0000
1000
1000
0001
0001
0010
,
0100
0000
1000
0000
0001
0001
0100
0100
,
0010
1000
0000
1000
0100
0100
0010
0010
,
0001
0000
0100
0000
0010
0010
1000
1000
,
0100
0000
0010
0000
0000
0000
0001
0000
0100
0000
0000
0000
0100
0010
0100
0010
,
1000
0000
0001
0000
0001
0010
0000
0010
,
0000
0000
0010
0000
0000
0000
0100
0000
1000
0001
0100
0001
1000
0010
1000
0001
,
0100
0001
1000
0100
1000
0100
0010
0001
1000
0001
1000
0010
0100
0001
0100
0001
,
1000
0100
0010
0001
1000
0001
0010
0100
2000
0000
0000
0000
3004
0000
0000
0003
,
1000
0100
0010
0100
1000
0001
0010
0100
0010
0001
1000
0100
1000
0001
1000
0001
,
0200
0000
0000
0000
0301
0000
0000
0000
4000
0000
0001
3000
0001
0000
0001
0000
,
0100
0001
1000
0001
0010
0100
0010
0100
1000
0001
0010
0001
1000
0100
0010
0100
,
1000
0001
1000
0100
0010
0001
1000
0004
0400
0000
0000
0000
0000
0000
0003
0000
,
0310
1000
0010
0100
0001
1000
0010
0100
0010
1000
0001
0100
0010
0100
0010
0100
,
0001
1000
0100
0010
0001
1000
0100
0010
0001
1000
0001
0010
0100
1000
0100
1000
,
0100
0010
0001
1000
0001
0100
0010
0100
0001
1000
0010
1000
0004
0000
0000
0003
,
1000
0001
0010
0001
1000
0001
0100
0010
0100
0001
1000
0010
0100
0001
1000
0001
,
0010
0100
1000
0100
0010
0001
0010
0001
1000
0100
0010
0100
4000
0000
0000
3000
,
0001
0001
0010
0001
1000
1000
0100
1000
,
0001
0100
0010
0100
0001
1000
0010
0100
0001
1000
0001
1000
0100
0010
0100
1000
,
0001
0010
0100
1000
0001
0100
0010
1000
0010
0100
0001
1000
0004
0000
0000
0000
,
1003
0100
1000
0001
0100
0001
0100
0010
1000
0010
0100
0001
1000
0001
1000
0100
,
0010
0001
0100
0100
0010
0010
1000
1000
,
1001
0000
0000
0000
0001
0100
0010
1000
,
0000
0001
0000
0010
0000
0100
0000
1000
,
0000
0000
0000
0100
0010
0001
1000
0001
,
0000
0100
0000
0010
0000
1000
0000
0001
,
0011
0000
0000
0000
0000
0001
0100
0010
,
1001
0000
0000
0000
,
1100
0000
1001
0000
,
0011
0000
0110
0000
1100
1000
0100
0010
,
0001
0000
0000
0000
0101
0000
0000
0100
0001
0000
1000
0000
0100
0010
0001
0010
,
0001
0000
0000
0000
0100
0000
0010
1000
0010
1000
0010
0100
0001
1000
0001
1000
,
0100
0000
0010
0000
0001
0000
0000
0000
0001
0000
1000
0000
0100
1000
0100
1000
,
0001
0000
0010
0000
0001
0000
0000
0000
0010
0001
1000
0001
0100
0010
1000
0001
,
1000
1000
0001
0001
0010
0010
0010
0100
,
1000
0000
0001
0000
0001
0000
1000
0100
1000
0000
0001
0010
0001
1000
0001
0100
,
0010
0000
0100
0000
0001
1000
0001
0000
1000
0100
1000
0000
0001
0010
0001
0000
,
1000
0010
0100
0100
0001
1000
1000
0100
,
0010
0001
0010
0001
0010
0000
0001
0000
0100
0000
0010
0000
1000
0001
1000
0001
,
1000
0001
0010
0100
0010
0010
0100
0100
,
1000
0001
0100
0001
1000
1000
0100
0100
,
0010
0000
0001
0000
1000
0000
0010
0000
0100
0000
0001
0000
1000
0001
1000
0001
,
1000
0010
1000
0100
0010
0001
0100
0001
,
0010
0100
1000
0010
0100
0100
0001
0001
,
1000
0001
0100
0010
1000
0100
0010
0001
,
2002
3003
2002
3003
,
1000
0000
0100
0000
0010
0000
0001
0000
0100
0000
0010
0000
1000
0001
1000
0001
,
1000
0001
0010
0100
1000
1000
0001
0001
,
0100
0010
0100
0001
0010
0010
0100
0100
,
1000
0000
0000
0000
0001
0000
0000
0000
0400
0000
0000
0300
0001
1000
0001
1000
,
0010
0100
0001
1000
0100
0010
0001
1000
,
0001
0000
0100
0000
0010
0000
0000
1000
0001
0000
0001
0000
0010
0000
0010
0000
,
0100
1000
0001
1000
0100
0000
0000
0010
0001
0000
0000
0000
1000
0001
0010
0001
,
2000
0000
0000
3000
,
0001
0100
0010
0100
0001
1000
0010
0100
0001
1000
0001
0100
0010
1000
0001
0010
,
0001
1000
0100
0010
0001
0010
0100
1000
0001
1000
0100
0010
0400
0000
0000
0300
,
1000
0001
0100
0001
1000
0010
1000
0001
0010
0001
1000
0100
0010
0100
1000
0001
,
0010
0001
1000
0100
1000
0100
0010
0001
2000
0000
0000
0000
3040
0000
0000
0030
,
0100
0001
1000
0010
0100
0001
1000
0001
0100
0001
1000
0010
1000
0001
0010
0100
,
2000
0000
0000
3000
0100
0010
0100
0010
0200
0000
0000
0300
0010
0001
0010
0001
,
0010
0100
1000
0100
0010
0001
1000
0001
1000
0010
0100
0001
0100
0010
1000
0010
,
0100
0000
0001
0000
0010
0000
0001
0000
1000
0100
0010
0001
0010
0100
1000
0001
,
1000
0001
0100
0001
0100
0000
0000
0001
0010
0000
0000
0000
0100
1000
0100
1000
,
0100
0000
0000
0000
0010
0000
0001
0000
1000
0010
1000
0010
1000
0000
0001
0000
,
0100
0010
0100
0001
1000
0000
0000
0100
0010
0000
0001
0000
1000
0001
0100
0010
,
1000
0001
0100
0010
0100
0001
1000
0100
0010
0100
1000
0001
0100
0010
1000
0001
,
1000
0001
0100
0010
1000
0100
0010
0001
,
0010
0001
0010
0001
0010
0000
0000
0001
1000
0010
0100
0010
0100
0001
1000
0001
,
1000
0001
0100
0010
0100
0100
0100
0100
,
0002
0000
0000
0000
1003
0000
0000
1000
0001
0000
0000
1000
0001
0100
0001
1000
,
0100
0000
0000
0000
1000
0000
0100
0000
0000
0010
0001
0010
0001
0000
1000
0000
,
0000
0001
0100
0001
1000
0010
0200
0300
,
0101
0000
0001
0000
0010
0000
0100
0000
0000
1000
0100
1000
0100
0000
0010
0000
,
0000
0001
0000
0100
0001
0000
1000
0000
,
0100
0000
1000
0000
0010
0000
0100
0000
0000
0001
0100
0001
0000
1000
0100
1000
,
0000
0000
0001
0000
0010
0000
0000
0000
0100
1000
0100
1000
0001
0010
0001
0010
,
0001
1000
1001
0001
1000
1000
0010
0010
,
0100
0000
0001
0000
0000
0000
0001
0000
1000
0001
1000
0001
0100
0010
0100
0010
,
1000
0000
0001
0000
0100
0000
0001
0000
0000
0000
0010
0000
0001
0100
0001
0100
,
0001
1000
0100
0100
0010
0010
0001
1000
,
0100
1000
0100
1000
0001
0000
0000
0010
0001
1000
0001
0100
0010
0100
0010
0100
,
0001
0000
1000
0000
0100
0000
0010
0000
0100
1000
0001
0100
0010
1000
0010
0100
,
0001
1000
0100
0010
0100
0000
0000
0010
0001
1000
0001
0100
0010
0100
0010
1000
,
0001
1000
0001
1000
0001
1000
0001
1000
,
1001
0000
0001
0000
0000
0000
0100
0000
0000
0000
0010
0000
1000
0001
1000
0001
,
1000
0000
0000
0000
1001
0000
0000
0000
0001
0100
0001
0100
0010
1000
0010
1000
,
0001
0000
0000
0000
1000
0100
0010
0100
,
0000
1000
0000
0001
0000
0100
0000
0010
,
0000
0000
0000
1000
0100
1000
0100
0010
,
0000
0001
0000
0100
0000
0001
0000
1000
,
0001
1000
0010
1000
0001
0010
0001
1000
0001
0000
1000
0000
0100
0000
0010
0000
,
0001
0100
0000
0001
0000
1000
0000
0100
,
0000
0000
0000
0000
0010
0001
1000
0001
,
0100
0000
0010
0000
0000
0000
0100
0001
0100
0000
0001
0000
0001
0000
1000
0000
,
0001
0100
0001
0100
0001
0000
0000
1000
0100
0000
0000
0000
0010
0100
0010
0100
,
1000
0001
1000
0001
0100
0000
0000
0000
0001
0000
0000
0000
1000
0000
0000
0000
,
0100
0010
0100
0010
0001
0000
0000
0010
0001
0000
0000
0000
1000
0010
1000
0010
,
0100
0000
0000
0000
0001
0000
0000
0000
0001
1000
0100
1000
0001
0010
0001
1000
,
0001
0100
0010
1000
0001
0100
0010
1000
0001
0000
0000
0000
1000
0100
1000
0100
,
0010
0001
1000
0001
0100
0000
0000
0000
0001
0000
1000
0000
0100
0000
0010
0000
,
0001
0100
0001
1000
0001
0000
1000
0000
0100
0000
0010
0000
0001
0100
0001
0100
,
0010
0000
1000
0000
0100
0100
0010
0010
,
0001
0100
0010
1000
0001
0100
0001
0010
,
0010
0000
0100
0000
1000
0000
0001
0000
0100
0010
0100
0010
1000
0001
0010
0001
,
1000
0100
0020
0000
0130
1000
1000
0001
,
0100
0000
0001
0000
0010
0000
0001
0000
1000
0000
0100
0000
0010
0001
0010
0001
,
1000
0001
0010
0100
1000
0001
0100
0001
,
0001
1000
0100
0010
0001
0001
0001
0001
,
1000
0100
0010
0001
1000
1000
1000
1000
,
0001
0100
0010
0100
0001
0001
0001
0001
,
1000
0100
0010
0100
1000
0001
0100
0010
,
0010
0100
0001
1000
0100
0010
0010
0001
,
0001
0000
0100
0000
0010
0000
1000
0000
0001
0010
0001
1000
0100
0010
0001
1000
,
0001
1000
0010
0100
0001
0001
0001
0001
,
1000
0010
0100
0001
1000
0100
0010
0100
,
1000
0000
0001
0000
0100
0000
0001
1000
0001
0000
1000
0000
1000
0000
1000
0000
,
0100
0010
0001
1000
0001
0000
0000
0100
0001
0000
0000
0000
0100
0010
0100
0010
,
1000
0000
0001
0000
0001
0000
0010
0000
0100
1000
0100
0010
0001
0010
0100
1000
,
0100
1000
0001
0100
0110
0010
1000
0100
,
0010
0001
1000
0001
0101
0100
0010
1000
,
0010
0000
1000
0000
1000
0000
0010
0100
0010
0000
0100
0000
0001
0000
0100
0000
,
0001
0001
0100
0001
1000
1000
0010
1000
,
1100
0100
0010
0001
1000
0001
0010
0100
,
0010
0000
0001
0000
0100
0000
0010
0000
1000
0001
0010
0001
1000
0001
0100
0010
,
0100
0001
1000
0010
0100
0001
1000
0010
,
0100
0000
0001
0000
1000
0000
0001
0000
0010
0100
1000
0001
0010
0100
1000
0001
,
0010
0001
0100
0010
1000
0000
0000
0001
0100
0001
0100
0001
1000
0100
1000
0100
,
1000
0000
0100
0000
0010
0001
0010
0000
0001
0100
0010
0100
0001
1000
0010
0100
,
0001
0010
0100
1000
0100
0000
0000
1000
0001
0100
0010
0100
0010
1000
0001
0010
,
0100
0010
0110
0100
1100
1000
1000
0001
,
0101
0100
0010
1000
0001
0010
0010
0100
,
0100
1000
1000
0001
0001
0100
0100
0100
,
0001
0100
0001
0100
0010
0000
0000
1000
0010
0100
0001
1000
0100
0010
0001
0010
,
0001
0000
1000
0000
0001
0000
0100
0000
0010
1000
0001
1000
0001
0010
0100
1000
,
0100
0000
0000
0000
1000
0100
0010
0100
,
0000
1000
0000
0001
0000
0100
0000
0020
,
0000
0000
0030
1000
0001
0010
0001
0010
,
0000
0001
0000
0100
0000
0010
0000
1000
,
0000
0200
0000
0300
0000
1000
0100
1000
,
0010
0100
0000
0001
0000
0010
0000
0002
,
0000
0003
0000
1000
0001
0010
0100
1000
,
0001
0100
0000
0020
0000
0030
0000
0000
,
1001
0000
1000
0000
0100
0000
0000
0010
0001
0000
1000
0000
0001
0100
0001
1000
,
0001
0000
1000
0000
0100
0000
0010
0000
0001
0100
0010
1000
0010
1000
0001
0010
,
0001
1000
1000
0100
0110
0010
0010
0001
,
1001
0000
1000
0000
0010
0000
0100
0001
0100
0000
0001
0100
0001
1000
0100
1000
,
0100
0000
1000
0000
0001
0000
0000
0010
0001
0000
0100
0000
0010
1000
0010
1000
,
0010
0000
0100
0000
0001
0000
1000
0100
1000
0000
0100
0000
0100
0000
0010
0000
,
0010
0000
0001
0000
1000
0000
0010
0100
0010
0000
0100
0000
0001
1000
0001
1000
,
0001
0000
1000
0000
0100
0000
0000
0000
1000
0100
0010
0001
1000
0001
0010
0100
,
1000
0001
0010
0001
1000
0010
0100
0001
1000
0010
1000
0001
0100
0010
1000
0001
,
0100
0010
1000
0010
1000
0001
0100
0010
0100
0000
M00M
0000
0010
0100
0001
1000
,
0100
0010
0001
0010
0100
1000
0001
1000
0100
0010
0001
1000
0001
1000
0001
0010
,
0100
0010
0001
1000
0010
0100
0010
4000
0004
0000
0000
0000
0000
0000
3000
0003
,
1000
0100
0010
0001
0010
0001
1000
0010
1000
0010
0100
0001
1000
0010
0100
0010
,
1000
0001
0100
0001
1000
0010
1000
0001
0100
0010
1000
0001
0010
0001
1000
0100
,
1000
0001
0010
0001
0010
0100
0010
0001
1000
0001
0100
0010
1000
0010
0100
0040
,
4000
0000
0000
0000
0000
0000
0030
3000
0002
0000
0000
0000
0003
0000
0000
0000
,
1000
0100
0010
0001
1000
0001
0010
0100
1000
0001
0010
0100
0010
0001
1000
0001
,
0100
0010
1000
0001
0100
0010
1000
0001
1000
0001
0010
0100
1000
0001
1000
0100
,
0010
0100
1000
0001
0010
0100
1000
0100
0010
0001
1000
0010
0100
0010
1000
0001
,
1000
0001
0100
0010
1000
0100
0010
0100
,
1000
0001
0100
0001
1000
0010
0100
0001
0100
0001
1000
0100
1000
0001
0010
0001
,
1000
0100
1000
0001
0010
0100
0010
0001
1000
0001
0100
0001
4000
0000
3004
0000
,
1003
0100
0010
0001
0010
0100
1000
0001
0100
0010
1000
0010
0100
0001
1000
0100
,
0040
0000
0000
0000
0000
0000
0000
0000
0430
0000
0000
0000
0000
0000
0000
0300
,
0110
0000
0000
0000
0000
1000
0100
1000
,
M202
00M0
M000
00M0
M000
00M0
M000
00M0
M000
00M0
M000
00M0
M000
00M0
M000
00M0
M000
00M0
M000
00M0
M000
03M3
0000
0000
;
