#TITLE:Majoras Magic Emperor Battle;
#SUBTITLE:;
#ARTIST:近藤浩治;
#TITLETRANSLIT:;
#SUBTITLETRANSLIT:;
#ARTISTTRANSLIT:Koji Kondo;
#CREDIT:;
#BANNER:BN.PNG;
#BACKGROUND:BG.bmp;
#LYRICSPATH:;
#CDTITLE:white.bmp;
#MUSIC:Majora's Magic Emperor Battle.mp3;
#OFFSET:-4.780;
#SAMPLESTART:24.906;
#SAMPLELENGTH:12.000;
#SELECTABLE:YES;
#BPMS:0.000=155.020,4.000=310.041;
#STOPS:;
#BGCHANGES:4.000=white.bmp=1.000=0=0=1,
4.500=Majora.jpg=1.000=1=0=1,
548.000=white.bmp=1.000=0=0=1,
549.000=BG.bmp=1.000=1=0=1,
99999=-nosongbg-=1.000=0=0=0 // don't automatically add -songbackground-
;
// cache tags:
#FIRSTBEAT:4.000;
#LASTBEAT:556.000;
#SONGFILENAME:Songs/toune 2/Majoras Magic Emperor Battle/Majora's Magic Emperor Battle.sm;
#HASMUSIC:1;
#HASBANNER:1;
#MUSICLENGTH:120.032;
// end cache tags

//---------------dance-single - ----------------
#NOTES:
     dance-single:
     :
     Hard:
     10:
     0.847,0.856,0.108,0.916,0.000,589.000,13.000,110.000,0.000,12.000:
0000
0000
0000
0000
,
1001
0100
2000
0000
3001
0010
0001
0000
,
1000
0010
1000
0000
0010
0100
0010
0000
,
1001
0100
2000
0000
3001
0010
0001
0000
,
1000
0010
1000
0000
0010
0100
0010
0000
,
1002
0100
1000
0103
0000
0010
0100
0010
,
0000
0001
0010
0001
0000
0001
0010
0100
,
2001
0010
0001
3010
0000
0100
1000
0100
,
0000
0001
0010
0001
0000
1000
0100
0010
,
1001
0010
0002
0000
1003
0100
1000
0000
,
0001
0100
0001
0000
0100
0010
0100
0000
,
1001
0010
0002
0000
1003
0100
1000
0000
,
0001
0100
0001
0000
0100
0010
0100
0000
,
2000
0000
0001
3000
0100
1000
0200
0000
,
0010
1000
0010
0001
,
0302
0100
1000
0010
,
0203
0001
0320
1000
,
0031
0010
0002
0000
1000
0000
0010
0000
,
0100
0010
1000
0010
,
2000
0000
0100
0000
,
3013
0000
0100
0010
,
0002
1000
0100
1003
,
0010
0100
0020
0000
0001
0000
1000
0000
,
2030
0010
0001
0100
,
3020
1000
0230
0001
,
1300
0100
2000
0000
0001
0000
0100
0000
,
0010
0100
0001
0100
,
0002
0000
0010
0000
,
3103
0000
0010
0100
,
0200
1000
0010
1000
,
0301
0010
0002
0000
1000
0000
0100
0000
,
2003
0010
0100
0001
,
3020
1000
0032
0100
,
1003
0001
2000
0000
0100
0000
0001
0000
,
0010
0001
0100
0001
,
0200
0000
0010
0000
,
3301
0000
0010
0001
,
0002
1000
0100
1000
,
0023
0001
0032
0010
,
2003
0001
0100
0001
,
3020
0100
2030
0010
,
3002
0100
1000
0010
,
0100
1000
0100
1000
,
2003
0010
0001
0100
,
0010
0001
0100
0010
,
3200
0001
1000
0001
,
0320
1000
0100
1000
,
0032
0100
1000
0010
,
0103
0200
0001
0010
,
2300
0100
0001
0010
,
0100
0001
0100
0010
,
3020
1000
0100
1000
,
0230
0001
0010
1000
,
0302
0010
0100
1000
,
0013
0020
1000
0001
,
2030
0001
0100
0010
,
0100
0001
0010
0100
,
3002
1000
0100
1000
,
0023
0001
0100
1000
,
2030
0001
0100
0001
,
3100
0200
1000
0010
,
0302
0100
1000
0010
,
0100
1000
0100
1000
,
2003
0001
0100
0001
,
3020
0100
1000
0001
,
0230
1000
0010
1000
,
0301
0002
0100
1000
,
2003
0010
0001
0100
,
0010
0001
0100
3000
,
1100
0010
0200
0000
1300
0001
1000
0000
,
0100
0001
0100
0000
0001
0010
0001
0000
,
1100
0010
0200
0000
1300
0001
1000
0000
,
0100
0001
0100
0000
0001
0010
0001
0000
,
2100
0010
0100
3010
0000
0001
0010
0001
,
0000
1000
0001
1000
0000
1000
0001
0010
,
1200
0001
1000
0301
0000
0010
0100
0010
,
0000
1000
0001
1000
0000
0100
0010
0001
,
1100
0001
2000
0000
3100
0010
0100
0000
,
1000
0010
1000
0000
0010
0001
0010
0000
,
1100
0001
2000
0000
3100
0010
0100
0000
,
1000
0010
1000
0000
0010
0001
0010
0000
,
0200
0000
1000
0300
0010
0100
0020
0000
,
0001
0100
0001
1000
,
2030
0010
0100
0001
,
3020
1000
0032
0100
,
1003
0001
2000
0000
0100
0000
0001
0000
,
0010
0001
0100
0001
,
0200
0000
0010
0000
,
3301
0000
0010
0001
,
2000
0100
0010
3100
,
0001
0010
0002
0000
1000
0000
0100
0000
,
0203
0001
1000
0010
,
0302
0100
0023
1000
,
0130
0010
0200
0000
1000
0000
0010
0000
,
0001
0010
1000
0010
,
2000
0000
0001
0000
,
3310
0000
0001
0010
,
0020
0100
0001
0100
,
1030
0001
2000
0000
0100
0000
0010
0000
,
3200
0001
0010
1000
,
0302
0100
2003
0010
,
3100
1000
0200
0000
0010
0000
1000
0000
,
0001
1000
0010
1000
,
0020
0000
0001
0000
,
1330
0000
0001
1000
,
2000
0100
0010
0100
,
3002
1000
2003
0001
,
3200
1000
0010
1000
,
0302
0010
0203
0001
,
2300
0010
0100
0001
,
0010
0100
0010
0100
,
3200
0001
1000
0010
,
0001
1000
0010
0001
,
0320
1000
0100
1000
,
0032
0100
0010
0100
,
2003
0010
0100
0001
,
3010
0020
1000
0001
,
0230
0010
1000
0001
,
0010
1000
0010
0001
,
0302
0100
0010
0100
,
0023
1000
0001
0100
,
2030
0001
0010
0100
,
3001
0002
0100
1000
,
0203
1000
0010
0001
,
0010
1000
0001
0010
,
2300
0100
0010
0100
,
3002
1000
0010
0100
,
0203
1000
0010
1000
,
0310
0020
0100
0001
,
2030
0010
0100
0001
,
0010
0100
0010
0100
,
3200
1000
0010
1000
,
0302
0010
0100
1000
,
0023
0100
0001
0100
,
1030
2000
0010
0100
,
3200
0001
1000
0010
,
0001
1000
0010
0300
,
1001
0000
0000
0000
;

//---------------dance-single - ----------------
#NOTES:
     dance-single:
     :
     Medium:
     6:
     0.414,0.457,0.008,0.766,0.000,255.000,1.000,92.000,0.000,0.000:
0000
0000
0000
0000
,
1000
0001
1000
0000
,
0010
0000
0100
0000
,
0001
1000
0001
0000
,
0100
0000
0010
0000
,
1000
0001
1000
0000
,
0100
0000
0010
0000
,
0001
1000
0001
0000
,
0010
0000
0100
0000
,
0001
1000
0001
0000
,
0100
0000
0010
0000
,
1000
0001
1000
0000
,
0010
0000
0100
0000
,
0002
0000
0010
0000
,
1000
0000
0100
0000
,
0023
0000
0100
0000
,
2030
0000
3020
0000
,
0230
0000
1000
0000
,
0010
0000
0001
0000
,
2300
0000
0001
0000
,
0010
0000
0100
0000
,
0002
0000
0000
0000
,
0000
0000
0000
3000
,
0023
0000
1000
0000
,
0230
0000
0302
0000
,
2003
0000
0001
0000
,
0010
0000
0100
0000
,
0002
0000
0000
0000
,
0000
0000
0000
3000
,
0203
0000
0001
0000
,
1000
0000
0010
0000
,
2300
0000
0001
0000
,
3020
0000
0230
0000
,
0302
0000
1000
0000
,
0100
0000
0010
0000
,
2000
0000
0000
0000
,
0000
0000
0000
0003
,
3020
0000
1000
0000
,
0032
0000
0023
0000
,
0230
0000
0001
0000
,
2300
0000
3200
0000
,
0320
0000
0001
0000
,
0100
0000
1000
0000
,
0032
0000
0010
0000
,
1000
0000
0010
0000
,
2003
0000
0001
0000
,
3020
0000
0100
0000
,
2030
0000
0001
0000
,
3002
0000
0010
0000
,
0203
0000
1000
0000
,
0001
0000
0010
0000
,
0302
0000
1000
0000
,
0023
0000
0001
0000
,
0230
0000
1000
0000
,
2300
0000
0010
0000
,
0002
0000
0000
0000
,
0000
0000
0000
3000
,
0203
0000
0001
0000
,
0320
0000
1000
0000
,
2030
0000
0010
0000
,
3002
0000
0010
0000
,
2003
0000
0001
0000
,
0010
0000
0100
0000
,
3002
0000
0100
0000
,
0023
0000
1000
0000
,
0230
0000
0001
0000
,
2300
0000
0010
0000
,
0002
0000
0000
0000
,
0000
0000
3003
0000
,
0001
1000
0001
0000
,
0100
0000
0010
0000
,
1000
0001
1000
0000
,
0010
0000
0100
0000
,
0001
1000
0001
0000
,
0010
0000
0100
0000
,
1000
0001
1000
0000
,
0100
0000
0010
0000
,
1000
0001
1000
0000
,
0010
0000
0100
0000
,
0001
1000
0001
0000
,
0100
0000
0010
0000
,
2000
0000
0001
0000
,
0100
0000
0010
0000
,
3200
0000
0001
0000
,
0302
0000
0203
0000
,
0320
0000
1000
0000
,
0001
0000
0100
0000
,
0032
0000
0010
0000
,
1000
0000
0100
0000
,
2000
0000
0000
0000
,
0000
0000
0000
0003
,
3200
0000
0001
0000
,
0320
0000
2030
0000
,
3002
0000
0010
0000
,
1000
0000
0100
0000
,
2000
0000
0000
0000
,
0000
0000
0000
0003
,
3020
0000
0001
0000
,
1000
0000
0100
0000
,
0032
0000
1000
0000
,
0203
0000
0320
0000
,
2030
0000
0001
0000
,
0100
0000
0010
0000
,
0002
0000
0000
0000
,
0000
0000
0000
3000
,
0203
0000
0001
0000
,
2300
0000
3200
0000
,
0320
0000
1000
0000
,
0032
0000
0023
0000
,
0230
0000
1000
0000
,
0001
0000
0010
0000
,
2300
0000
0001
0000
,
0100
0000
0010
0000
,
3002
0000
1000
0000
,
0203
0000
0001
0000
,
0302
0000
0010
0000
,
2003
0000
0001
0000
,
3020
0000
0100
0000
,
1000
0000
0001
0000
,
2030
0000
0001
0000
,
3200
0000
1000
0000
,
0320
0000
0100
0000
,
0032
0000
0100
0000
,
2000
0000
0000
0000
,
0000
0000
0000
0003
,
3020
0000
0001
0000
,
0230
0000
1000
0000
,
0302
0000
0010
0000
,
2003
0000
0100
0000
,
3002
0000
0100
0000
,
1000
0000
0010
0000
,
2003
0000
0001
0000
,
3200
0000
0010
0000
,
0320
0000
1000
0000
,
0032
0000
0100
0000
,
2000
0000
0000
0000
,
0000
0000
3003
0000
,
1001
0000
0000
0000
;

//---------------dance-single - ----------------
#NOTES:
     dance-single:
     :
     Easy:
     3:
     0.179,0.232,0.008,0.017,0.000,147.000,1.000,2.000,0.000,0.000:
0000
0000
0000
0000
,
1000
0000
0000
0000
,
0100
0000
0000
0000
,
1000
0000
0000
0000
,
0010
0000
0000
0000
,
0100
0000
0000
0000
,
0001
0000
0000
0000
,
1000
0000
0000
0000
,
0010
0000
0000
0000
,
0100
0000
0000
0000
,
0001
0000
0000
0000
,
1000
0000
0000
0000
,
0010
0000
0000
0000
,
0100
0000
0000
0000
,
0001
0000
0000
0000
,
1000
0000
0000
0000
,
0100
0000
1000
0000
,
0010
0000
0000
0000
,
0100
0000
0000
0000
,
0001
0000
0000
0000
,
1000
0000
0000
0000
,
0010
0000
0000
0000
,
0100
0000
0000
0000
,
0001
0000
0000
0000
,
0100
0000
0010
0000
,
0001
0000
0000
0000
,
0001
0000
0000
0000
,
1000
0000
0000
0000
,
0010
0000
0000
0000
,
1000
0000
0000
0000
,
0010
0000
0000
0000
,
0100
0000
0000
0000
,
0001
0000
1000
0000
,
0010
0000
0000
0000
,
0100
0000
0000
0000
,
0001
0000
0000
0000
,
1000
0000
0000
0000
,
0010
0000
0000
0000
,
1000
0000
0100
0000
,
0010
0000
0000
0000
,
0001
0000
0010
0000
,
0100
0000
0000
0000
,
1000
0000
0000
0000
,
0001
0000
0000
0000
,
0100
0000
0000
0000
,
1000
0000
0000
0000
,
0010
0000
0000
0000
,
1000
0000
0000
0000
,
0001
0000
0000
0000
,
1000
0000
0000
0000
,
0100
0000
0000
0000
,
1000
0000
0000
0000
,
0001
0000
0000
0000
,
0010
0000
0000
0000
,
1000
0000
0000
0000
,
0010
0000
0000
0000
,
1000
0000
0000
0000
,
0001
0000
0000
0000
,
0100
0000
0000
0000
,
0001
0000
0000
0000
,
1000
0000
0000
0000
,
0001
0000
0000
0000
,
0100
0000
0000
0000
,
1000
0000
0000
0000
,
0010
0000
0000
0000
,
0001
0000
0000
0000
,
1000
0000
0000
0000
,
0001
0000
0000
0000
,
0010
0000
0000
0000
,
1000
0000
0000
0000
,
0010
0000
0000
0000
,
0100
0000
0000
0000
,
0001
0000
0000
0000
,
1000
0000
0000
0000
,
0010
0000
0000
0000
,
0100
0000
0000
0000
,
0001
0000
0000
0000
,
1000
0000
0000
0000
,
0010
0000
0000
0000
,
0001
0000
0000
0000
,
1000
0000
0000
0000
,
0010
0000
0000
0000
,
0001
0000
0000
0000
,
1000
0000
0000
0000
,
0010
0000
0100
0000
,
1000
0000
0000
0000
,
0100
0000
0000
0000
,
0010
0000
0000
0000
,
0001
0000
0000
0000
,
0010
0000
0000
0000
,
0100
0000
0000
0000
,
1000
0000
0000
0000
,
0100
0000
0010
0000
,
0001
0000
0000
0000
,
0010
0000
0000
0000
,
0100
0000
0000
0000
,
1000
0000
0000
0000
,
0001
0000
0000
0000
,
1000
0000
0000
0000
,
0100
0000
0000
0000
,
0001
0000
1000
0000
,
0010
0000
0000
0000
,
0100
0000
0000
0000
,
0001
0000
0000
0000
,
0010
0000
0000
0000
,
0100
0000
0000
0000
,
0001
0000
0100
0000
,
0010
0000
0000
0000
,
1000
0000
0100
0000
,
0010
0000
0000
0000
,
0010
0000
0000
0000
,
1000
0000
0000
0000
,
1000
0000
0000
0000
,
0001
0000
0000
0000
,
1000
0000
0000
0000
,
0010
0000
0000
0000
,
0100
0000
0000
0000
,
1000
0000
0000
0000
,
0001
0000
0000
0000
,
1000
0000
0000
0000
,
0010
0000
0000
0000
,
0100
0000
0000
0000
,
0001
0000
0000
0000
,
1000
0000
0000
0000
,
0100
0000
0000
0000
,
1000
0000
0000
0000
,
0010
0000
0000
0000
,
0100
0000
0000
0000
,
0001
0000
0000
0000
,
1000
0000
0000
0000
,
0100
0000
0000
0000
,
1000
0000
0000
0000
,
0010
0000
0000
0000
,
1000
0000
0000
0000
,
0001
0000
0000
0000
,
0010
0000
0000
0000
,
0001
0000
0000
0000
,
2002
0000
0000
0000
,
0000
0000
0000
0000
,
3003
0000
0000
0000
;
