#TITLE:My Spirit Will Go On;
#SUBTITLE:;
#ARTIST:Dragonforce;
#TITLETRANSLIT:;
#SUBTITLETRANSLIT:;
#ARTISTTRANSLIT:;
#CREDIT:;
#BANNER:mswgo-bn.PNG;
#BACKGROUND:mswgo-bg.PNG;
#LYRICSPATH:;
#CDTITLE:OMEGAspike.PNG;
#MUSIC:My Spirit Will Go On.mp3;
#OFFSET:-7.100;
#SAMPLESTART:99.980;
#SAMPLELENGTH:11.780;
#SELECTABLE:YES;
#BPMS:0.000=200.000,868.000=170.000,964.000=200.000;
#STOPS:;
#BGCHANGES:;
// cache tags:
#FIRSTBEAT:0.000;
#LASTBEAT:1551.000;
#SONGFILENAME:Songs/toune 2/(OMEGAspike)My Spirit Will Go On/My Spirit Will Go On.sm;
#HASMUSIC:1;
#HASBANNER:1;
#MUSICLENGTH:478.336;
// end cache tags

//---------------dance-single - ----------------
#NOTES:
     dance-single:
     :
     Hard:
     12:
     1.000,1.000,1.000,0.581,1.000,3809.000,868.000,278.000,0.000,6.000:
0010
0010
0010
1000
1000
1000
0001
0100
,
1000
1000
1000
0100
0100
0100
0001
0010
,
1000
1000
1000
0001
0001
0001
0100
0010
,
0100
0100
0100
0010
0010
0010
1000
0100
,
0001
0001
0001
1000
1000
1000
0010
0100
,
1000
1000
1000
0010
0010
0010
0001
1000
,
0100
0100
0100
0001
0001
0001
1000
0100
,
0001
0001
0001
0100
0100
0100
1000
0001
,
1100
0000
0000
0101
0000
0000
1010
0000
,
0101
0000
0000
0110
0000
0000
1001
0000
,
0110
0000
0000
0011
0000
0000
1100
0000
,
1010
0000
0000
0110
0000
0000
0101
0000
,
1001
0000
0000
0110
0000
0000
0101
0000
,
1010
0000
0000
1010
0000
0000
0011
0000
,
1001
0000
0000
0110
0000
0000
1010
0000
,
0011
0000
0000
1001
0000
0000
0110
0000
,
0101
0010
1000
0010
0100
0001
1010
0000
,
0101
0100
0100
0100
1010
0100
1001
0000
,
1100
0001
0010
0100
1000
0001
0110
0000
,
1001
0001
0001
0001
1010
0100
0011
0000
,
1010
0100
0001
1000
0001
0010
1010
0000
,
1001
0100
0100
0100
0101
0010
1010
0000
,
1100
0001
0010
0001
0100
1000
0101
0000
,
1010
1000
1000
1000
1001
0100
1010
0000
,
1010
0001
0010
1100
0010
0001
1010
0100
,
1001
0010
0100
1010
0100
0001
1001
0100
,
0101
0010
1000
0110
0001
1000
0011
0100
,
1010
0001
0100
1010
0100
0001
1100
0010
,
0101
1000
0010
0101
1000
0010
1100
0010
,
1001
0010
0100
0011
0100
1000
0101
0010
,
1001
0100
0010
1100
0001
1000
0101
1000
,
0011
0100
1000
1001
0100
1000
0110
1000
,
0020
0230
0320
0230
0320
0230
0320
0230
0320
0230
0320
0230
0320
0230
0320
0230
,
1300
0011
0110
1001
,
0100
0010
0001
0100
0010
0100
0001
0010
0100
1000
0010
0100
0010
1000
0100
0010
,
0001
0010
0100
1000
0001
0100
0010
1000
0010
0100
0010
1000
0010
0100
0001
0100
,
0010
1000
0001
0010
0100
1000
0100
0010
0001
1000
0010
0100
0001
1000
0001
0100
,
0010
1000
0100
0010
0100
1000
0001
0010
0100
0010
0100
0010
0100
0010
0100
0010
,
0100
0010
0001
0100
0010
0100
0001
0010
0100
1000
0010
0100
0010
1000
0100
0010
,
0001
1000
0001
0100
0001
0010
0001
1000
0100
1000
0010
1000
0001
1000
0010
0100
,
0001
0010
0100
1000
0010
0100
0001
1000
0001
0010
0100
1000
0010
0100
0001
1000
,
0010
0100
0010
0100
0010
0100
0010
0100
0010
0100
0010
0100
0010
0100
0010
0100
,
0001
0010
0001
0100
0010
0100
0001
0010
0100
1000
0010
0100
0010
1000
0100
0010
,
0001
0010
0001
0100
0001
0010
0001
0100
0010
1000
0010
0100
0010
1000
0010
0100
,
0001
0010
0100
1000
0100
0010
0001
1000
0010
0100
0001
1000
0001
0010
0100
1000
,
0010
0100
0001
0010
0100
1000
0010
0100
0001
1000
0001
1000
0001
1000
0001
1000
,
0001
1000
0100
0010
0001
0100
0010
1000
0001
1000
0010
0100
0001
1000
0100
0010
,
0001
0100
0010
0100
0001
0010
0100
1000
0010
0100
0010
1000
0100
0010
0001
1000
,
0010
0100
0001
1000
0001
0010
0100
1000
0001
0010
0100
1000
0100
0010
0001
1000
,
0010
0100
0001
0100
0010
1000
0100
0010
0001
0010
0100
1000
0100
0010
0001
0100
,
1001
0000
0000
0000
,
1010
0000
0101
0000
1000
0100
1000
0000
0011
0000
0110
0000
1000
0001
1000
0000
,
0101
0000
1010
0000
0001
0100
0001
0000
1100
0000
0110
0000
0001
1000
0001
0000
,
0110
0000
1010
0000
0001
0100
0001
0000
0110
0000
1010
0000
0100
0001
0100
0000
,
1010
0000
0011
0000
1000
0100
0010
0000
0101
0000
1010
0000
0001
0010
0100
0000
,
1001
0000
0110
0000
0001
0100
0010
0000
1001
0000
1100
0000
0010
0100
0001
0000
,
1100
0000
0011
0000
1000
0001
1000
0000
0101
0000
1010
0000
0001
1000
0100
0000
,
0011
0000
1100
0000
0001
1000
0010
0000
1001
0000
0110
0000
0001
1000
0100
0000
,
0001
0010
0100
1000
0000
0000
0010
0100
0001
1000
0000
0000
0110
0000
0000
0000
,
1001
0000
1100
0000
0001
1000
0010
0000
1100
0000
0101
0000
0010
0001
1000
0000
,
0110
0000
0101
0000
1000
0010
1000
0000
0011
0000
1100
0000
0001
0100
0001
0000
,
1010
0000
1100
0000
0001
0010
0001
0000
0110
0000
1010
0000
0001
0100
0001
0000
,
1010
0000
0011
0000
1000
0001
1000
0000
0110
0000
0101
0000
1000
0001
0100
0000
,
1010
0000
0110
0000
0001
1000
0100
0000
1001
0000
0110
0000
0001
1000
0010
0000
,
1100
0000
0011
0000
1000
0001
0100
0000
0011
0000
1001
0000
0010
0100
0010
0000
,
1001
0000
1100
0000
0010
0100
0001
0000
1100
0000
0101
0000
0010
1000
0100
0000
,
0011
0000
1100
0000
0001
0010
0100
1000
0100
0010
0001
0010
0100
1000
0001
0000
,
0010
1000
0001
0100
0010
1000
0001
0100
0001
0010
0100
1000
0100
0010
0001
1000
,
0010
0100
0001
0100
0010
1000
0010
0100
0001
1000
0010
0100
0001
1000
0100
0010
,
1001
0000
1001
0000
0010
0100
0010
0000
1100
0000
0011
0000
1000
0100
1000
0000
,
0101
0000
0101
0000
1000
0010
1000
0000
0110
0000
1001
0000
1000
0001
0010
0000
,
0100
1000
0010
0100
0010
1000
0100
0010
0100
1000
0010
0100
0010
1000
0100
0010
,
0001
0010
0100
1000
0010
0100
0001
1000
0010
0100
0001
1000
0100
0010
0001
1000
,
0101
0000
1010
0000
0001
1000
0100
0000
0011
0000
0110
0000
1000
0001
0100
0000
,
0010
0100
0010
0100
0010
0100
0010
0100
0001
0010
0100
1000
0001
0010
0100
0000
,
1010
0000
0101
0000
1000
0010
1000
0000
0101
0000
0011
0000
1000
0100
1000
0000
,
0110
0000
0101
0000
1000
0010
1000
0000
0110
0000
1001
0000
0010
0100
0010
0000
,
0100
0010
0001
0010
0100
1000
0010
1000
0100
0010
0001
0010
0100
1000
0010
1000
,
0010
1000
0100
0010
0100
1000
0010
0100
0010
1000
0100
0010
0100
1000
0010
0100
,
1001
0000
0110
0000
0001
1000
0100
0000
0011
0000
1100
0000
0010
1000
0001
0000
,
1010
0000
0101
0000
1000
0010
1000
0000
0101
0000
0011
0000
1000
0100
0010
0000
,
0001
0010
0100
0010
0001
0100
0010
0100
0001
0010
0100
0010
0001
0100
0010
0100
,
0010
1000
0001
0100
0010
1000
0100
0010
0001
1000
0001
1000
0001
1000
0001
0000
,
1100
0000
0011
0000
1000
0100
1000
0000
0110
0000
0101
0000
1000
0010
1000
0000
,
0101
0000
1001
0000
0010
0100
0010
0000
1100
0000
0101
0000
0010
1000
0001
0000
,
0110
0000
1010
0000
0001
0100
0001
0000
1010
0000
0011
0000
1000
0100
0010
0000
,
1001
0000
0101
0000
1000
0010
0100
0000
0011
0000
1100
0000
0001
0100
0010
0000
,
1100
0010
1000
0101
1000
0010
0101
1000
,
0110
0001
1010
0110
1000
0001
0110
1000
,
0101
0000
0000
1000
0000
0000
0100
0000
,
0010
0000
0000
0001
0000
0000
1000
0000
,
0010
1000
0001
0100
0010
1000
0100
0010
0001
0010
0100
1000
0001
0100
0010
1000
,
0001
0010
0100
1000
0100
0010
0001
1000
0010
0100
0001
1000
0010
0100
0001
0010
,
0100
1000
0100
0010
0001
1000
0010
0100
0001
0010
0100
1000
0100
0010
0001
1000
,
0010
1000
0001
0100
0000
0000
0010
1000
0100
0010
0000
0000
0001
0010
0100
0000
,
1000
0100
0010
0001
0100
0010
1000
0010
0100
0001
0010
0100
1000
0100
0010
0001
,
1000
0100
0010
0100
1000
0010
0100
0010
1000
0100
0010
0100
1000
0010
0100
0001
,
0010
0100
0010
0001
0100
0010
0100
0001
0010
0100
0010
0001
0100
0010
0100
0001
,
1000
0100
0010
0001
0010
0100
1000
0001
0010
0100
0010
0100
0010
0100
1000
0000
,
0001
1000
0100
0010
0001
0010
0100
1000
0010
0100
0001
0100
0010
1000
0010
0100
,
0001
0010
0100
0010
0001
0100
0010
0100
0001
0010
0100
0010
0001
0100
0010
0100
,
0001
1000
0100
0010
0100
1000
0010
0100
0010
1000
0100
0010
0100
1000
0010
0100
,
0001
0010
0100
1000
0010
0100
0001
0100
0010
1000
0001
0010
0100
1000
0001
0100
,
1010
1000
0010
0101
0010
0001
1100
0100
,
0011
1100
0001
0110
1000
0100
0101
0010
,
0101
1000
0100
1000
0100
1000
0100
1000
0100
1000
0100
1000
0010
0000
0000
0000
,
0101
0000
0000
0010
0000
0000
0001
0000
,
1010
0000
0110
0101
1010
0110
0101
1010
,
0101
0000
1010
0000
0110
0000
1010
0101
,
0000
0011
1010
0101
0110
1010
1001
0110
,
1010
0000
0101
0000
0110
0000
1010
0202
,
0303
0000
1100
0011
0110
1001
0101
1010
,
0011
0000
1100
0000
0110
0000
0101
1010
,
0000
0101
1100
0011
0110
1001
0110
0101
,
0000
1100
0110
1001
0101
0011
1100
0011
,
0000
1100
0110
1100
0110
1100
0011
0110
,
0011
0000
0000
0000
1100
0000
0000
0000
0110
1000
0001
0000
1100
0000
0202
0000
,
0303
1100
1100
0110
0110
0011
0011
1100
,
0110
0000
0101
0000
1010
0100
0001
2200
,
0000
3300
0110
0110
0101
1010
0011
1100
,
1001
0000
1010
0000
0101
0110
1010
0011
,
0000
1001
1010
0101
1010
1001
0011
0110
,
0000
1010
0101
1010
0101
0110
1001
2001
,
0000
0000
0000
0000
,
3020
0030
0020
0030
0020
0030
0020
0030
0020
0030
0020
0030
0020
0030
0020
0030
0020
0030
0020
0030
0020
0030
0020
0030
,
2000
3000
2000
3000
2000
3000
2000
3000
2000
3000
2000
3000
2000
3000
2000
3000
2000
3000
2000
3000
2000
3000
2000
3000
,
0101
0000
1010
0000
0100
0001
0100
0000
0011
0000
1100
0000
0010
0100
0001
0000
,
1010
0000
1001
0000
0010
0100
0010
0000
1100
0000
0011
0000
1000
0001
0100
0000
,
1010
0000
0101
0000
1000
0100
0010
0000
1001
0000
0110
0000
0001
0010
0100
0000
,
1001
0000
0110
0000
1000
0001
0100
0000
0011
0000
1100
0000
0010
0100
0001
0000
,
1100
0000
0011
0000
1000
0100
0010
0000
0101
0000
1010
0000
0001
0100
0010
0000
,
1100
0000
0110
0000
0001
0100
0010
0000
1100
0000
0110
0000
0001
1000
0001
0000
,
1010
0000
0101
0000
1000
0010
1000
0000
0110
0000
0101
0000
0010
1000
0100
0000
,
0001
1000
0001
1000
0001
1000
0001
0000
0100
0010
0100
0010
0100
0010
0100
0000
,
1001
0000
1100
0000
0010
0001
0010
0000
1100
0000
1001
0000
0010
0100
0010
0000
,
1100
0000
0011
0000
1000
0001
0100
0000
1010
0000
0101
0000
1000
0010
0100
0000
,
0011
0000
1010
0000
0100
0001
1000
0000
0110
0000
0101
0000
1000
0010
0100
0000
,
0011
0000
1001
0000
0100
0010
0100
0000
1010
0000
0101
0000
1000
0010
1000
0000
,
0110
0000
0101
0000
1000
0010
1000
0000
0110
0000
0011
0000
1000
0100
1000
0000
,
0110
0000
1001
0000
0010
1000
0100
0000
0011
0000
1001
0000
0010
1000
0100
0000
,
0011
0000
1001
0000
0100
0010
1000
0000
0110
0000
0101
0000
1000
0001
1000
0000
,
0110
0000
0110
0000
0000
0000
0101
0000
1000
0100
0010
0001
0010
0100
1000
0000
,
0001
0010
0100
0010
0001
0100
0010
0100
0001
0010
0100
0010
0001
0100
0010
0100
,
0010
1000
0100
0010
0100
1000
0010
0100
0010
1000
0100
0010
0100
1000
0010
0100
,
1001
0000
0101
0000
1000
0010
0100
0000
0011
0000
1010
0000
0100
0001
0010
0000
,
1001
0000
0110
0000
1000
0001
1000
0000
0101
0000
1010
0000
0001
1000
0100
0000
,
0001
0010
0100
1000
0100
0010
0001
0100
0010
1000
0010
0100
0001
1000
0100
0010
,
0001
0100
0010
0100
0010
1000
0100
0010
0100
0010
0001
0100
0010
0100
0010
1000
,
0101
0000
0101
0000
1000
0010
1000
0000
0110
0000
0110
0000
1000
0001
1000
0000
,
0010
0100
0010
0100
0010
0100
0010
0100
0001
1000
0001
1000
0001
1000
0001
1000
,
0110
0000
0101
0000
1000
0010
1000
0000
0101
0000
1010
0000
0100
0001
0010
0000
,
1100
0000
0110
0000
0001
1000
0100
0000
0011
0000
0110
0000
1000
0001
0100
0000
,
0010
0100
1000
0100
0010
0001
0100
0001
0010
0100
1000
0100
0010
0001
0100
0001
,
0010
0100
0010
0001
0100
0010
0100
0001
0010
0100
0010
0001
0100
0010
0100
1000
,
0101
0000
1010
0000
0100
0001
1000
0000
0110
0000
0011
0000
1000
0100
0010
0000
,
0101
0000
1010
0000
0001
1000
0100
0000
0011
0000
1001
0000
0100
0010
0100
0000
,
0010
1000
0001
0100
0010
1000
0001
0100
0010
1000
0010
0100
0001
0100
0010
1000
,
0100
0010
0001
0010
0100
1000
0010
1000
0100
0010
0001
0010
0100
1000
0010
0100
,
1001
0000
0110
0000
0001
1000
0100
0000
0011
0000
1100
0000
0010
0100
0001
0000
,
1010
0000
0101
0000
1000
0010
0100
0000
0011
0000
1100
0000
0001
1000
0100
0000
,
1001
0000
0101
0000
1000
0010
1000
0000
0110
0000
0101
0000
1000
0100
0010
0000
,
1001
0000
0101
0000
0010
1000
0001
0000
0110
0000
1010
0000
0001
0010
0100
0000
,
1001
1000
0001
0110
1000
0001
1010
0010
,
0101
0010
1100
0011
1000
0001
0110
1000
,
1001
0000
0000
0010
0000
0000
1000
0000
,
0001
0000
0000
1000
0000
0000
0010
0000
,
1000
0100
0010
0001
0010
0100
1000
0001
0100
0010
1000
0010
0100
0001
1000
0001
,
0010
0100
1000
0100
0010
0100
1000
0010
1000
0100
0010
0100
1000
0010
0100
0001
,
0010
0100
0010
0001
0100
0001
0010
0100
0010
0001
0100
0001
0010
0100
0010
0001
,
1000
0010
0100
0001
0100
0001
0100
0010
1000
0010
1000
0100
0010
0001
0010
0100
,
1000
0100
0010
0001
0010
0100
1000
0010
1000
0100
0010
0001
0010
0100
1000
0010
,
0100
0001
0010
0100
1000
0100
0010
0001
0100
0001
0010
0100
1000
0100
0010
0001
,
0100
0010
1000
0001
0010
0100
1000
0001
1000
0001
0010
0100
1000
0010
0100
0001
,
1000
0001
1000
0010
0100
0001
1000
0001
0010
0100
0010
0100
0010
0100
0010
1000
,
0100
0010
0100
1000
0010
1000
0100
0010
0100
1000
0010
1000
0100
0010
0100
1000
,
0010
0100
0001
0010
0100
0010
0001
0100
0001
0010
0100
0010
0001
0100
0001
0010
,
0100
1000
0001
0100
0010
1000
0010
0100
0001
1000
0100
0010
0001
0010
0100
1000
,
0010
0100
0001
0100
0010
0100
0001
0100
0010
1000
0010
0100
0010
1000
0010
0100
,
1001
0010
0100
1010
0001
1000
0011
0100
,
1010
0101
1000
0110
0010
0100
1001
0010
,
1001
0010
0100
0010
0100
0010
0100
0010
0100
0010
0100
0010
1000
0000
0000
0000
,
0110
0000
0000
0001
0000
0000
1000
0000
,
0110
0000
0101
0101
1010
1010
0110
1001
,
0110
0000
0101
0000
1010
0000
0110
1001
,
0000
1100
1100
0110
0110
0011
0011
0101
,
1010
0000
0101
0000
0110
0000
0101
2200
,
0000
3300
0000
0101
1010
1010
0110
0101
,
1001
0000
0110
0000
0101
0000
1010
1010
,
0000
1100
0011
0110
0101
1010
1100
0110
,
0000
0101
0110
1100
0110
1010
0101
1001
,
0000
1010
0101
1010
0101
1100
0011
1100
,
0011
0000
0110
0000
1001
0000
1100
0220
,
0030
0310
1100
0110
0110
0011
0110
1010
,
0101
0000
1001
0000
0110
0000
1010
2200
,
0000
3300
0110
0110
1010
1001
0101
1001
,
1001
0000
0110
0000
1010
0000
0101
1010
,
0000
1100
1100
0011
0011
1001
0110
1001
,
0000
1010
0101
0110
1001
0101
0011
2100
,
0000
0000
0000
0000
,
3200
0000
0000
0000
,
0302
0000
0000
0000
,
1103
0010
0001
0100
0010
1000
0101
0000
,
1010
1000
1000
1000
1010
0100
1001
0000
,
0110
0001
1000
0001
0010
0100
1001
0000
,
0110
0010
0010
0010
1010
0100
0011
0000
,
1100
0001
0010
1000
0101
1000
0110
0000
,
1010
0001
0001
0001
1001
0010
1100
0000
,
0101
1000
0010
1000
0101
1000
0011
0000
,
1001
1000
1000
1000
1001
1000
0101
0000
,
1100
0010
0001
1010
0100
0001
1010
0001
,
0110
0000
1000
0000
0100
0000
0011
0000
0100
0000
0001
0000
1010
0000
0100
0010
,
1001
0010
1000
0110
0001
1000
0110
0001
,
1010
0000
0100
0000
0001
0000
1100
0000
0010
0000
0001
0000
1010
0000
0100
0010
,
1001
0100
0001
1010
0100
1000
0110
0001
,
1100
0000
0010
0000
0001
0000
1010
0000
0100
0000
0001
0000
1100
0000
0100
0010
,
1001
0100
0001
1010
0100
0001
1100
0010
,
1001
0000
0100
0000
0001
0000
1010
0000
1000
0000
0001
0000
0010
0100
0010
0100
,
2000
3200
0000
0320
0032
0023
0230
0000
,
2300
0000
3020
0000
0000
0000
0032
0000
1003
0100
0020
0000
0032
0000
0000
0000
,
2003
0000
3002
0000
0000
0000
0203
0000
1300
0010
0100
0000
0002
0000
0203
0000
,
2300
0000
3200
0000
0310
0001
0200
0000
0320
0000
0000
0000
2030
0000
0000
0000
,
3010
0100
0001
0100
0010
0000
0001
0000
0010
1000
0010
0100
0010
0000
0100
0000
,
0010
0100
0001
0100
0010
1000
0010
0100
0001
0010
0100
1000
0100
0010
0001
0010
,
2000
3200
0000
0320
0032
2003
3020
0230
,
0320
0000
0032
0000
0000
0000
2003
0000
3100
0010
0001
0010
2000
0000
0000
0000
,
3010
0100
0001
0100
0010
0100
0001
0100
0010
1000
0010
0100
0010
1000
0010
0100
,
0010
1000
0100
0010
0100
1000
0010
0100
0001
0010
0100
0010
0002
0000
0000
0000
,
1003
0100
0010
0001
0010
0100
1000
0010
0100
0001
0020
0000
0130
1000
0100
0010
,
0002
0000
0013
1000
0100
0010
0100
1000
0010
0100
0001
0100
0010
1000
0001
0010
,
0100
1000
0100
0010
0001
0010
0100
1000
0100
0010
0001
0010
0100
1000
0100
0010
,
0001
0100
0010
1000
0010
0100
0001
0100
0010
1000
0010
0100
0001
0100
0010
1000
,
0010
0100
0010
0100
0010
0100
0010
0100
0010
0100
0010
0100
0010
0100
0010
0100
,
0001
0000
1000
0000
0001
0000
1000
0000
0000
0000
0000
0000
1000
0000
0001
0000
1000
0000
0001
0000
0000
0000
0000
0000
0001
0000
0000
0010
0000
0000
0100
0000
0000
1000
0000
0000
0010
0000
0000
0100
0000
0000
0001
0000
0000
0000
0000
0000
,
1000
0100
0010
0001
0010
0100
1000
0010
0100
0001
0100
0010
1000
0100
0010
0001
,
1000
0000
0000
0000
0100
0000
0000
0000
0010
0000
0000
0000
0001
0000
0000
0000
1000
0000
0000
0000
0010
0000
0000
0000
0100
0000
0000
0000
0001
0000
0000
0000
2000
0000
0000
0000
0000
0000
0000
0000
0000
0000
0000
0000
0000
0000
0000
3000
2000
0000
0000
3000
2000
0000
0000
0000
0000
0000
0000
0000
0000
0000
0000
0000
,
3020
0030
0020
0030
0020
0030
0020
0030
0000
0020
0000
0000
0032
0003
0002
0003
0002
0003
0002
0003
0000
0002
0000
0000
,
0203
0300
0200
0300
0200
0300
0200
0300
0000
0200
0000
0000
0320
0000
0000
0000
0000
0000
0000
0000
0000
0000
0000
0000
,
1030
0010
0100
0001
1000
0100
0010
0100
1000
0010
0100
0001
1000
0010
0100
0001
,
0010
0000
0000
0100
0000
0000
1000
0000
0000
0010
0000
0000
0100
0000
0000
0001
0000
0000
1000
0000
0000
0010
0000
0000
0200
0000
0302
0000
0203
0000
0302
0000
0203
0000
0302
0000
0203
0000
0302
0000
0203
0000
0000
0000
0000
0000
0000
0000
,
0310
1000
0100
0010
0001
0010
0100
1000
0001
1000
0010
0100
0010
1000
0010
0100
,
0001
0010
0001
0010
0001
0000
0000
0000
0000
0100
1000
0100
1000
0100
0000
0000
0000
0000
0010
0100
0010
0100
0010
0100
,
1001
0000
1001
0000
,
1001
0000
1001
0000
,
2002
0000
0000
0000
0000
0000
0000
3003
,
1000
0100
0000
0000
1000
0100
0000
0000
0001
0010
0000
0000
0001
0010
0000
0000
1000
0100
0000
0000
1000
0100
0000
0000
0001
0010
0000
0000
0001
0010
0000
0000
,
1000
0010
0000
0000
1000
0010
0000
0000
0100
0001
0000
0000
0100
0001
0000
0000
1000
0001
0000
0000
1000
0001
0000
0000
0010
0100
0000
0000
0010
0100
0000
0000
,
2000
3200
2300
3200
0302
0023
0032
0023
,
0130
1000
0010
0100
0002
0000
0000
0000
0013
0100
1000
0010
0200
0000
0000
0000
,
1310
1010
0101
0101
0110
0110
1001
1001
,
1100
0110
0011
0110
1100
0110
0011
0110
,
2000
3020
0230
0301
0000
0002
0023
0230
,
2300
3020
0230
0302
0023
0000
0000
0030
,
0202
0000
0000
0303
0022
0000
0000
0033
0202
0000
0000
0303
0022
0033
1100
0000
,
0110
0101
1001
0210
0000
0302
0000
0000
,
1003
0100
0010
0100
1000
0010
0100
0010
1000
0100
0010
0100
1000
0010
0100
0001
,
0010
0100
0010
0001
0100
0010
1000
0100
0010
0100
1000
0010
0100
0001
0010
0100
,
1001
0000
1001
0000
0010
1000
0100
0000
0011
0000
0011
0000
0100
1000
0001
0000
,
0110
0000
0110
0000
1000
0001
0010
0000
1100
0000
0110
0000
0001
0010
0001
0000
,
2000
0000
3200
0000
0320
0000
0130
0001
1000
0010
0100
0001
1000
0001
0100
0000
,
0010
0100
2000
0000
3200
0000
0302
0000
0023
0000
0000
0000
0000
0000
0000
0000
,
1031
1001
1001
1001
1001
1001
1001
1001
,
0101
0101
0101
0101
0101
0101
0101
0101
,
1000
0100
0010
0001
0100
0000
1000
0000
0010
0000
0100
0000
0001
0000
0100
0000
,
1000
0100
0001
0010
2000
0000
0000
0000
,
3010
0100
0001
0100
0010
1000
0100
0010
0100
1000
0010
0100
0001
0010
0100
1000
,
0100
0010
0001
0100
0010
1000
0010
0100
0001
1000
0001
0010
0100
1000
0010
0100
,
2002
3003
0202
0000
0000
0303
2020
3030
0220
0330
0022
0033
0220
0330
2002
3003
,
0010
0100
0010
0100
0010
0100
0010
0100
0020
0000
0000
0000
0000
0000
0030
0000
,
1100
0110
1100
0101
0011
1001
0110
0101
,
1010
1001
0110
0101
1010
0110
2002
3003
,
0101
0101
1010
1010
0110
0101
1010
1001
,
0110
1100
0110
0011
0101
1010
0220
0330
,
1100
0011
1100
0011
0110
1001
0110
1001
,
1010
0101
1010
0101
0110
1100
0022
0033
,
1100
0101
1010
0011
0110
1001
0101
1010
,
1100
0000
0000
0000
0000
0000
0011
0000
0000
0000
0000
0000
0110
0000
0000
0000
0000
0000
1001
0000
0000
0000
0000
0000
1001
0000
0000
0000
0000
0000
0101
0000
0000
0000
0000
0000
1000
0000
0001
0000
1000
0000
0002
0000
0000
0003
0000
0000
,
1010
0000
0000
0101
0000
0000
0110
0000
0000
0000
1001
0000
0110
0000
0101
0000
,
2200
3300
0000
0220
0330
0000
0022
0000
0033
0000
1100
0000
0101
0000
1001
0000
,
1010
0000
0000
0110
0000
0000
1001
0000
0000
0000
0101
0000
0110
0000
1010
0000
,
0101
0000
0000
1100
0000
0000
1001
0000
0110
0000
1010
0000
0101
0000
1001
0000
,
1100
0000
0000
0011
0000
0000
1100
0000
0000
0000
1001
0000
0110
0000
1001
0000
,
0101
0000
0000
1010
0000
0000
1001
0000
0000
0000
0011
0000
0110
0000
1100
0000
,
0001
0010
0100
1000
0001
0010
0100
1000
0001
0010
0100
1000
0001
0010
0100
1000
,
0100
0010
0001
1000
0100
0010
0001
1000
0100
0010
0001
1000
0100
0010
0001
1000
,
0110
0101
0110
0101
0110
0101
0110
0101
,
0110
1010
0110
1010
0110
1001
2002
3003
,
1100
0110
1100
0011
1100
0110
1100
0011
,
0101
1010
0101
0110
0101
0110
2002
3003
,
0110
0110
0110
0110
0110
0110
0110
0110
,
1001
1001
1001
1001
1001
1001
2002
3003
,
0110
1100
0110
0011
0110
1100
0110
0011
,
1010
0110
1010
0110
0101
0110
0202
0303
,
1100
0020
0032
0203
,
2300
0000
0000
3200
0000
0000
0320
0000
,
0031
0010
0100
0010
0001
0100
0001
0010
0100
0010
0001
0100
0020
0000
2030
0000
,
3010
0100
0001
0100
0010
0100
0001
0100
0010
0100
0001
0100
0020
0000
0230
0000
,
1300
1000
1000
2000
0000
0000
3001
0001
,
0010
0010
0010
0020
0000
0000
1030
0001
,
1000
0000
0100
0000
1000
0000
0100
0000
1000
0000
0000
0000
0000
0000
0000
0000
0000
0000
0010
0000
0100
0000
0010
0000
0100
0000
0010
0000
0000
0000
0000
0000
0000
0000
0000
0000
0001
0000
0000
0010
0000
0000
0100
0000
1000
0000
0010
0000
,
0001
1000
0001
1000
0001
1000
0001
1000
0010
0100
0010
0100
0010
0100
0010
0100
,
1001
0101
1001
1010
1001
0101
1001
1010
,
0110
0101
0110
1010
0110
0101
0110
1010
,
0110
0110
0202
0303
1100
1100
2020
3030
,
0001
0000
0010
0000
0100
0000
1000
0000
0010
0100
0001
0100
0010
0100
0001
0000
,
1000
0100
0010
0001
0010
0100
1000
0001
1000
0100
0010
0001
0010
0100
1000
0010
,
0200
0320
0000
2030
3200
0320
0032
2003
,
3110
0000
1000
0001
1000
0001
0110
0000
0001
1000
0001
1000
0110
0000
0110
0000
,
1000
0010
0100
0001
0100
0010
0100
0001
0100
0010
1000
0010
0200
0000
0000
0000
,
0320
0000
0000
2030
0000
0000
3200
0000
,
0320
0000
0000
0032
0000
0000
0203
0000
,
0320
0000
0000
2030
0000
0000
3200
0000
,
0320
0000
0000
0032
0000
0000
0203
0000
,
2300
0000
0000
3020
0000
0000
0032
0000
,
0203
0000
0000
0320
0000
0000
2030
0000
,
3200
0000
0320
0000
,
1030
0001
1000
0001
1000
0001
1000
0001
1000
0001
1000
0001
1000
0001
1000
0000
,
0020
0000
0000
2030
0000
0000
3020
0000
,
0230
0000
0000
0320
0000
0000
2030
0000
,
3200
0000
0000
0320
0000
0000
0032
0000
,
0203
0000
0000
0320
0000
0000
2030
0000
,
3002
0000
0000
2003
0000
0000
3020
0000
,
0230
0000
0000
0302
0000
0000
0023
0000
,
2030
0000
0000
3200
0000
0000
0000
0000
,
1301
0000
0101
1010
0000
0110
1001
0101
,
1001
0000
1001
0000
0010
0100
0010
0000
1100
0000
0011
0000
1000
0100
1000
0000
,
0101
0000
1010
0000
0100
0001
0010
0000
1100
0000
0110
0000
0001
1000
0100
0000
,
0001
0010
0100
0010
0001
0100
0010
1000
0100
0010
0100
1000
0010
0100
0001
0010
,
0100
0010
0001
0100
0010
1000
0100
0010
0100
1000
0100
0010
0001
0010
0100
0000
,
1010
0000
0101
0000
1000
0010
1000
0000
0110
0000
0011
0000
1000
0100
1000
0000
,
0101
0000
1010
0000
0001
1000
0100
0000
1001
0000
0101
0000
1000
0010
0100
0000
,
0010
1000
0001
0100
0010
1000
0001
0100
0010
1000
0100
0010
0001
0010
0100
1000
,
0001
0100
0010
1000
0100
0010
0001
0100
0010
1000
0010
1000
0010
0100
0001
0010
,
1100
0000
0011
0000
0100
0010
1000
0000
0101
0000
1010
0000
0001
1000
0100
0000
,
1001
0000
0101
0000
1000
0010
1000
0000
0110
0000
0101
0000
1000
0010
0100
0000
,
1001
0000
0110
0000
0001
1000
0001
0000
1010
0000
1100
0000
0001
0010
0001
0000
,
0110
0000
0101
0000
1000
0100
1000
0000
0110
0000
0101
0000
1000
0010
1000
0000
,
0101
1000
0001
1100
0010
1000
0110
0010
,
0101
0100
1001
1010
0001
1000
1001
0010
,
1001
0000
0000
0010
0000
0000
1000
0000
,
0100
0000
0000
0001
0000
0000
0100
0000
,
1000
0100
0010
0001
0010
0100
1000
0010
0100
0001
0100
0010
1000
0010
0100
0001
,
0100
0010
1000
0100
0010
0001
0010
0100
1000
0001
1000
0010
0100
0001
1000
0001
,
0010
0100
1000
0100
0010
0001
0100
0001
1000
0100
0010
0100
1000
0001
0100
0001
,
1000
0010
0100
0001
0100
0010
1000
0010
0100
0001
0010
0100
1000
0010
0100
0001
,
0010
0100
1000
0010
0100
0001
0010
0100
1000
0010
0100
0001
0010
0100
1000
0001
,
1000
0001
0010
0100
1000
0100
0010
0001
1000
0010
0100
0001
1000
0100
0010
0001
,
1000
0100
0010
0100
1000
0010
0100
0010
1000
0100
0010
0100
1000
0010
0100
0010
,
0100
0001
0010
0100
0010
0001
0100
0010
0100
0001
0010
0100
0010
0001
0100
0010
,
1000
0001
0100
0010
1000
0010
0100
0001
0100
0001
0100
0010
1000
0010
1000
0100
,
0010
0001
0010
0100
1000
0001
0100
0010
1000
0010
0100
0001
0010
0100
0010
0001
,
0100
0010
0100
0001
0010
0100
0010
0001
0100
0010
0100
1000
0100
0010
0100
1000
,
0010
0100
0010
1000
0100
0010
0100
1000
0010
0100
0010
1000
0100
0010
0001
0100
,
1001
0010
1000
0101
0010
0100
1010
0001
,
0110
0101
1000
1010
0100
0001
0110
0100
,
2002
0000
0000
0000
,
0000
3003
0000
1010
,
0101
1000
0001
0110
0001
0100
1010
0010
,
0101
1010
0001
0110
1000
0010
1001
0100
,
0202
0000
0000
0000
0000
0000
0000
0000
0303
1010
0000
0000
,
0101
0000
0000
1000
0000
0000
0010
0000
,
0010
1000
0001
0100
0010
1000
0100
0010
0001
0010
0100
1000
0010
0100
0001
0100
,
0010
1000
0001
0010
0100
1000
0100
0010
0001
1000
0010
0100
0001
1000
0001
0010
,
0100
1000
0100
0010
0001
0010
0100
1000
0010
0100
0001
0100
0010
1000
0010
0100
,
0001
1000
0001
1000
0010
0100
0001
0100
0010
1000
0100
0010
0001
0010
0100
1000
,
0010
0100
0001
0100
0010
1000
0010
0100
0001
0010
0100
1000
0100
0010
0001
1000
,
0100
0010
0100
1000
0010
0100
0010
1000
0100
0010
0100
1000
0010
0100
0001
0010
,
0100
0010
0001
0100
0010
0100
0001
0010
0100
0010
0001
0100
0010
1000
0100
0010
,
0001
0100
0001
0100
0010
1000
0010
1000
0100
0010
0001
0010
0100
1000
0001
0100
,
0010
1000
0100
0010
0001
0010
0100
1000
0010
0100
0010
1000
0100
0010
0001
0010
,
0100
1000
0010
0100
0001
0100
0010
1000
0100
0010
0001
0100
0010
1000
0001
1000
,
0020
0000
0000
2030
0000
0000
3002
0000
,
0203
0000
0320
2030
,
3001
0010
0100
0010
0001
0100
0010
1000
0100
0010
0100
1000
0010
0100
0001
0010
,
0100
0010
0001
0100
0010
1000
0100
0010
0100
1000
0001
0100
0010
1000
0001
0010
,
0100
1000
0100
1000
0100
1000
0100
0010
0001
0010
0001
0010
0001
0010
0100
1000
,
0020
0000
2030
3002
,
1013
0100
0011
0100
,
1001
0100
0101
1000
,
0010
0100
0001
0010
1000
0000
0000
0000
0100
0010
1000
0100
0001
0000
0000
0000
,
0101
1000
0010
0100
0001
1000
0001
1000
0010
0100
0001
1000
0001
1000
0010
0100
,
0001
0010
0100
1000
0100
0010
0001
0100
0010
1000
0010
0100
0001
0010
0100
0010
,
2002
0000
0000
0000
,
0000
0000
0000
0000
,
0000
0000
3003
0000
0010
0100
0010
0100
0010
0100
0010
0100
0010
0100
0010
0100
,
0010
0100
0010
0100
0010
0100
0010
0100
0010
0100
0010
0100
,
0010
0100
0010
0100
0010
0100
0010
0100
,
0010
0000
0000
0000
0000
0000
0000
0000
0000
0000
0000
0000
0000
0000
0000
0000
0100
0000
0000
0000
0000
0000
0000
0000
0000
0000
0000
0000
0000
0000
0000
0000
0000
0000
0000
0000
0000
0000
0000
0000
2002
0000
0000
0000
0000
0000
0000
0000
0000
0000
0000
0000
0000
0000
0000
3003
1001
0000
0000
0000
0000
0000
0000
0000
,
0000
0000
0020
0030
;

//---------------dance-single - ----------------
#NOTES:
     dance-single:
     :
     Challenge:
     15:
     1.000,1.000,1.000,0.606,1.000,4317.000,1239.000,290.000,0.000,89.000:
0101
1000
1000
0110
0001
0001
1010
0100
,
0011
1000
1000
0110
0001
0001
0110
1000
,
0101
1000
1000
0110
0001
0001
1010
0100
,
0011
0100
0100
1010
0001
0001
0110
1000
,
0110
0001
0001
1100
0010
0010
1001
0100
,
1010
0100
0100
0011
1000
1000
0110
0001
,
1100
0010
0010
0101
1000
1000
0110
0001
,
1100
0010
0010
1001
0100
0100
0011
1000
,
0110
0100
0100
0101
0001
0001
0011
0010
,
0110
0100
0100
1100
1000
1000
1010
0010
,
0011
0001
0001
0101
0100
0100
1100
1000
,
1001
0001
0001
0101
0100
0100
1100
1000
,
1100
0100
0100
0110
0010
0010
0011
0001
,
0101
0100
0100
0110
0010
0010
1010
1000
,
1100
0100
0100
0110
0010
0010
0011
0001
,
1001
1000
1000
1010
0010
0010
0110
0001
,
1010
1010
1010
1010
1100
0110
0011
0000
,
0011
0011
0011
0011
0101
0101
1010
0000
,
0110
0110
0110
0110
0011
0110
1100
0000
,
1100
1100
1100
1100
1010
1010
1001
0000
,
1001
1001
1001
1001
0110
0101
1010
0000
,
1010
1010
1010
1010
1100
1100
0110
0000
,
0110
0110
0110
0110
0011
0110
1100
0000
,
1100
1100
1100
1100
0110
0110
1001
0000
,
0110
0110
0110
0101
0101
0101
1010
1010
,
1100
1100
1100
0110
0110
0110
0101
0101
,
1001
1001
1001
0110
0110
0110
0101
0101
,
1010
1010
1010
1100
1100
1100
0110
0110
,
0101
0101
0101
1001
1001
1001
1100
1100
,
0011
0011
0011
0110
0110
0110
1010
1010
,
1100
1100
1100
0110
0110
0110
1001
1001
,
0101
0101
0101
1010
1010
1010
1100
1100
,
0001
0010
1000
0100
0001
0010
1000
0100
0001
0010
1000
0100
0001
0010
1000
0100
,
1001
0101
1010
0110
,
0001
0100
0010
1000
0100
0010
0001
1000
0100
0010
1000
0001
0100
0010
1000
0010
,
0001
0100
1000
0010
0001
0100
0001
0010
0100
1000
0100
0010
1000
0100
0001
0100
,
0010
1000
0001
0100
1000
0100
0010
0001
0010
1000
0100
0001
0010
1000
0010
0001
,
0100
1000
0001
0100
0010
1000
0001
0100
0010
0100
0010
0100
0010
0100
0010
0100
,
0001
0010
0100
1000
0010
0001
0010
1000
0010
0100
0001
1000
0010
0100
0001
0010
,
1000
0100
0010
1000
0001
0010
0100
0001
1000
0010
0100
0001
1000
0001
0010
0100
,
0001
1000
0100
0010
1000
0010
0100
0001
1000
0001
0010
0100
0010
1000
0001
0100
,
1000
0010
0100
0001
1000
0100
0001
0010
0100
0010
0100
0010
0100
0010
0100
0010
,
1000
0100
0001
0010
1000
0100
0010
1000
0001
0010
0100
0001
1000
0010
0001
0010
,
1000
0100
0010
0001
1000
0010
0100
0001
0010
0100
1000
0100
0001
0010
1000
0100
,
0001
0100
0010
1000
0010
0100
0001
1000
0010
0100
0001
0010
1000
0100
0010
0100
,
0001
1000
0100
0010
0001
0010
1000
0001
0010
0100
0010
0100
0010
0100
0010
0100
,
0010
1000
0100
0010
0001
0010
0100
1000
0001
0010
0100
0010
0001
0100
0010
0100
,
1000
0100
0010
0100
1000
0010
0100
0010
0001
0010
1000
0100
0010
1000
0001
0100
,
0001
1000
0001
1000
0001
1000
0001
1000
0001
1000
0001
1000
0001
1000
0001
1000
,
0010
0100
0010
0100
0010
0100
0010
0100
0010
0100
0010
0100
0010
0100
0010
0100
,
1001
0000
0000
0000
,
1100
0000
0110
0000
0011
0100
1001
0000
0110
0000
1001
0000
0110
0001
1100
0000
,
0110
0000
0011
0000
0101
0010
1001
0000
1001
0000
0101
0000
1010
0100
1001
0000
,
0110
0000
1001
0000
0110
0001
1100
0000
0110
0000
0101
0000
1010
0100
1001
0000
,
0110
0000
0011
0000
1100
0010
0101
0000
1010
0000
1001
0000
0110
0001
1010
0000
,
0101
0000
1001
0000
0110
1000
0101
0000
1001
0000
0101
0000
1010
0100
1001
0000
,
0011
0000
0110
0000
1010
0100
1001
0000
0110
0000
0011
0000
1100
0010
0101
0000
,
1010
0000
0101
0000
1010
0100
1001
0000
0011
0000
0110
0000
1010
0100
1001
0000
,
0011
1000
0010
1000
0010
0000
1100
0010
1000
0010
1000
0000
0110
0000
0000
0000
,
0101
0000
1010
0000
1001
0010
1100
0000
0110
0000
0101
0000
1010
0100
1001
0000
,
0110
0000
0011
0000
1100
0010
0101
0000
1010
0000
1001
0000
0110
0001
1100
0000
,
0110
0000
0101
0000
1010
0100
1001
0000
0110
0000
0011
0000
1100
0001
1010
0000
,
1001
0000
0110
0000
0011
1000
0110
0000
0101
0000
1010
0000
0101
0010
1001
0000
,
1010
0000
0101
0000
1001
0010
1001
0000
0110
0000
1100
0000
0011
1000
0011
0000
,
0110
0000
1010
0000
0101
0010
1001
0000
0110
0000
1100
0000
0011
0100
1001
0000
,
0110
0000
0101
0000
1010
0100
0011
0000
0110
0000
1001
0000
0110
1000
0011
0000
,
1100
0000
0110
0000
0011
0000
1000
0100
0001
0010
1000
0100
0010
0001
0010
0100
,
1000
0010
0001
0010
1000
0100
0001
0010
1000
0100
0010
0001
0100
0010
1000
0001
,
0100
0010
1000
0001
0010
1000
0010
0100
0001
0010
0100
0001
0010
0100
0001
1000
,
0101
0000
1010
0000
0101
0010
1100
0000
0110
0000
0101
0000
1010
0100
1001
0000
,
0110
0000
0011
0000
1100
0010
0101
0000
1001
0000
0101
0000
1010
0100
0011
0000
,
1000
0100
0001
0100
1000
0100
0001
0010
1000
0010
0001
0010
1000
0001
0100
0010
,
1000
0100
0010
0100
1000
0010
0100
1000
0010
0001
0100
0010
0001
0100
1000
0010
,
1001
0000
0101
0000
1010
0100
0011
0000
0110
0000
1010
0000
0110
0001
0110
0000
,
1000
0010
1000
0010
1000
0010
1000
0010
0100
0001
0100
0001
0100
0001
0100
0001
,
1100
0000
0110
0000
0011
1000
0110
0000
0101
0000
1010
0000
0110
0001
1100
0000
,
0110
0000
0011
0000
1100
0010
0101
0000
1010
0000
0011
0000
0110
1000
0011
0000
,
1000
0100
0001
0010
1000
0100
0001
0010
1000
0010
0001
0100
1000
0010
0001
1000
,
0100
0010
0100
1000
0010
0100
1000
0010
0001
0100
0010
0001
0100
1000
0001
0100
,
1001
0000
0101
0000
1010
0100
1001
0000
0110
0000
0011
0000
1100
0010
0101
0000
,
1010
0000
0101
0000
1010
0100
0011
0000
0110
0000
1010
0000
0110
0001
1100
0000
,
0001
0010
0100
0001
0010
0100
0001
1000
0100
0010
1000
0100
0010
1000
0010
0100
,
0001
0010
0100
0001
1000
0100
0010
0100
0010
1000
0010
0001
0100
1000
0001
0100
,
1010
1010
1010
1010
1100
1100
1100
1100
,
0110
0110
0110
0110
0101
0101
0101
0101
,
1001
1001
1001
1001
0110
0110
0110
0110
,
0011
0011
0011
0011
1100
1100
1100
1100
,
0101
1000
0001
0100
0001
0100
1010
0001
0100
0010
1000
0001
0110
1000
0100
0010
,
0101
0010
0100
1000
0010
0001
1100
0001
0110
1000
0100
0010
1001
0100
1000
0010
,
0101
0000
0000
1000
0000
0000
0010
0000
,
0100
0000
0000
0001
0000
0000
0010
0000
,
1001
0010
1000
0010
0100
0001
0100
0010
1000
0010
0001
0010
0100
0010
1000
0001
,
0100
0010
1000
0001
0010
0100
1000
0001
1000
0010
0100
0001
0010
1000
0001
0100
,
1000
0001
0100
1000
0010
0001
0100
1000
0001
0010
1000
0100
0001
0100
1000
0010
,
0100
0001
1000
0001
0010
0100
1000
0010
0100
0001
1000
0001
0010
1000
0100
0010
,
0001
1000
0010
0100
0001
1000
0001
0100
1000
0010
0001
1000
0100
0001
0010
1000
,
0001
0100
0010
1000
0100
0001
0100
1000
0010
0100
0001
0010
1000
0100
0010
1000
,
0001
1000
0001
1000
0010
0100
0001
1000
0010
0100
0001
0010
1000
0010
0100
0001
,
1000
0010
0100
0010
0100
1000
0001
0100
0010
1000
0010
0100
0001
1000
0001
0010
,
0100
0001
1000
0010
0100
0001
1000
0001
0100
1000
0010
0001
0100
1000
0010
1000
,
0001
0010
0100
0010
1000
0010
0100
1000
0001
0010
1000
0010
0100
0001
0010
1000
,
0010
0100
0001
1000
0001
0010
1000
0100
0010
0001
0100
0010
1000
0001
0100
0010
,
1000
0001
0100
0010
1000
0010
0100
0001
0010
1000
0001
1000
0110
0001
1000
0100
,
0011
0100
1000
0010
0100
0001
1100
0010
0001
1000
0100
0010
1001
0100
0010
1000
,
0101
0010
1100
0001
0010
0100
1010
0100
0001
0010
0100
1000
0110
0001
0100
1000
,
0101
0010
1000
0010
0001
0010
1000
0010
0001
0010
1000
0010
1001
0100
0010
0100
,
1001
0000
0000
1000
0000
0000
0010
0000
,
1100
0000
1100
0101
1100
0101
0011
1010
,
0011
1100
0110
1001
0101
0110
1010
0101
,
0000
0110
1100
1100
0011
0110
1001
0101
,
1010
0110
0011
1100
0110
0011
1100
0220
,
0000
1331
0101
1010
0110
1010
1100
0110
,
0011
1010
0101
1010
0110
0011
0110
1010
,
0000
0101
1010
0110
0011
1100
0110
1001
,
0000
0110
0101
0110
1010
0110
0101
1001
,
0000
0110
0101
1010
0110
1100
0110
0011
,
1100
0000
0110
0000
1001
0000
0101
0000
0011
0000
0110
0001
1100
0000
0220
0000
,
0000
1331
0110
0110
0101
1010
1001
0011
,
0110
1010
0110
0101
0101
1010
0110
2002
,
0000
3113
0101
1010
0110
0011
0110
1100
,
0110
0011
0110
1001
0101
1010
0110
1001
,
0000
1010
0101
1010
0101
1010
0101
1001
,
0000
1001
0110
0011
0110
1010
0101
2020
,
0000
0000
0000
0000
,
3132
0003
0002
0003
0002
0003
0002
0003
0002
0003
0002
0003
0002
0003
0002
0003
0002
0003
0002
0003
0002
0003
0002
0003
0002
0003
0002
0003
0002
0003
0002
0003
,
0201
0300
0200
0300
0200
0300
0200
0300
0200
0300
0200
0300
0200
0300
0200
0300
0200
0300
0200
0300
0200
0300
0200
0300
0200
0300
0200
0300
0200
0300
0200
0300
,
1001
0000
0101
0000
1010
0100
0011
0000
0110
0000
1010
0000
0101
1000
0011
0000
,
0110
0000
0101
0000
1010
0100
1001
0000
0110
0000
0011
0000
1100
0010
0101
0000
,
1001
0000
0101
0000
1010
0100
0011
0000
0110
0000
1001
0000
0101
1000
0110
0000
,
0101
0000
1010
0000
0110
0001
0110
0000
1100
0000
0110
0000
0101
1000
0011
0000
,
0110
0000
0101
0000
1010
0100
0011
0000
1100
0000
0110
0000
0011
0100
1001
0000
,
0110
0000
0101
0000
1010
0100
0011
0000
0101
0000
0110
0000
1100
0010
0101
0000
,
1010
0101
1010
0101
1010
0101
1010
0101
,
1001
0010
0100
0010
0100
0010
0100
0010
1001
0100
0010
0100
0010
0100
0010
0100
,
1001
0000
0101
0000
1010
0100
1001
0000
0110
0000
0011
0000
1100
0010
0101
0000
,
0110
0000
1010
0000
0101
0010
1001
0000
0011
0000
0110
0000
1010
0100
0011
0000
,
0110
0000
0011
0000
0110
1000
0101
0000
0110
0000
1001
0000
0110
1000
0101
0000
,
0011
0000
0110
0000
1010
0100
0011
0000
1001
0000
0101
0000
1010
0100
0011
0000
,
1100
0000
0011
0000
0110
0001
1010
0000
0101
0000
1010
0000
0110
0001
0110
0000
,
1100
0000
0110
0000
0011
1000
0101
0000
1010
0000
0110
0000
0011
1000
0110
0000
,
1010
1010
0000
0101
0101
0000
0110
0110
,
0000
0000
1001
0000
1001
0000
0000
0000
0001
0010
0100
1000
0100
0010
0001
1000
,
0010
0001
0100
1000
0010
0001
0100
1000
0100
0010
0001
0100
1000
0010
0100
0001
,
1000
0010
0100
0001
1000
0010
0100
0001
1000
0001
0010
1000
0100
0010
0001
1000
,
0101
0000
1001
0000
1010
0100
0011
0000
0110
0000
1010
0000
0101
0010
1100
0000
,
0110
0000
0101
0000
1010
0100
1010
0000
0101
0000
1100
0000
0110
0001
1100
0000
,
0001
0010
1000
0100
0010
0001
0010
0100
1000
0010
0001
1000
0010
0100
0001
0010
,
0100
1000
0010
0100
0001
0010
1000
0010
0100
0001
1000
0001
0010
1000
0010
0001
,
1010
0000
0101
0000
1001
0010
1100
0000
0011
0000
0110
0000
1010
0100
0011
0000
,
1000
0010
1000
0010
1000
0010
1000
0010
0100
0001
0100
0001
0100
0001
0100
0001
,
1010
0000
1001
0000
0011
0100
1010
0000
0110
0000
1001
0000
0110
0001
0110
0000
,
1010
0000
0101
0000
0011
0100
1010
0000
1001
0000
0110
0000
0101
1000
0101
0000
,
0010
1000
0010
0100
0001
0100
0010
1000
0100
0001
0010
1000
0010
0001
0010
0100
,
1000
0010
0100
0001
0010
0100
1000
0010
0100
0001
0100
0010
1000
0001
0010
1000
,
0110
0000
0101
0000
1010
0100
1001
0000
0110
0000
0011
0000
0110
1000
0101
0000
,
1010
0000
0101
0000
1001
0010
0101
0000
0011
0000
1100
0000
0110
1000
0101
0000
,
1000
0100
0010
0001
1000
0001
0010
0100
1000
0001
0100
1000
0010
0001
1000
0010
,
0100
0010
1000
0001
1000
0010
0100
0001
1000
0010
0100
1000
0010
0100
1000
0001
,
1100
1100
1100
1100
0110
0110
0110
0110
,
0101
0101
0101
0101
1010
1010
1010
1010
,
1001
1001
1001
1001
0110
0110
0110
0110
,
0011
0011
0011
0011
1100
1100
1100
1100
,
1001
0100
0010
0100
0001
0010
1100
0010
0001
0100
0010
1000
0011
0100
1000
0010
,
1001
0100
0010
0001
0110
1000
0101
1000
0010
0100
0001
0010
1001
0100
0010
0100
,
1001
0000
0000
1000
0000
0000
0010
0000
,
0001
0000
0000
0000
0000
0000
0100
0000
1000
0100
0010
0001
0010
0100
1000
0010
,
1100
0010
0001
0100
0010
1000
0001
0010
1000
0100
0001
0010
1000
0100
0010
1000
,
0100
0010
0001
0100
0001
0010
0100
0001
0010
0100
1000
0010
0100
0001
1000
0010
,
0100
0001
1000
0010
0100
0001
0100
1000
0010
0100
0001
1000
0001
0010
1000
0010
,
0001
1000
0100
0010
0001
0010
0100
1000
0010
0100
0001
0100
0010
1000
0010
0001
,
0010
0100
1000
0010
0001
0010
1000
0100
0001
0100
1000
0010
0100
0001
0010
0100
,
1000
0010
1000
0010
0100
0001
0100
0001
0010
0100
0010
0100
1000
0100
1000
0100
,
0010
0001
1000
0010
0001
0010
1000
0100
0010
0100
0001
0010
0100
0010
1000
0001
,
0100
0010
1000
0001
0100
0001
0010
1000
0010
0100
0010
0100
0010
0100
0010
0100
,
1000
0010
0100
1000
0001
0010
0100
0001
0010
0100
0010
0100
0010
0100
1000
0100
,
0010
1000
0100
0010
0001
0100
1000
0010
0100
1000
0010
0100
0001
0100
0010
0001
,
0010
0100
1000
0010
0100
0001
0010
0100
1000
0100
0010
0001
1000
0010
0100
0001
,
1000
0100
0010
0001
0010
0100
1000
0100
0010
0001
0010
0100
1000
0100
0010
0001
,
1010
0100
0001
1000
0010
1000
0101
0010
1000
0100
0010
0100
1001
0010
0001
1000
,
0110
0001
0110
1000
0010
0100
1001
0010
1000
0010
0001
1000
0101
0010
0100
0001
,
1010
0001
0100
0001
0100
0001
0100
0001
0100
0001
0100
0001
1010
0100
0001
0100
,
1010
0000
0000
0001
0000
0000
0010
0000
,
1010
0101
0011
1100
0110
0101
1010
0101
,
0011
1100
0110
0101
1010
0110
1001
0101
,
0000
0000
0101
1010
0110
0011
0110
1100
,
0110
0101
1010
0101
0011
0101
1010
2002
,
0000
0000
3113
0110
0101
1010
0101
0011
,
1100
0110
0101
1010
0101
1001
0110
1001
,
0000
0000
0101
1010
0110
0011
0110
1100
,
0000
1010
0110
0101
0110
1010
0110
0101
,
0000
1100
0110
1100
0110
0011
0110
0011
,
0110
1100
0110
0011
0110
1100
0110
0202
,
0000
1000
1313
1010
0101
0101
0110
1010
,
0110
0011
0110
1100
0110
0101
1010
2002
,
0000
0000
3113
0101
1010
0110
0011
0110
,
1100
0110
0101
1001
0110
1010
0101
1001
,
0000
1100
0110
0011
0110
1100
0110
0011
,
0000
0011
0110
1100
0110
0011
0110
2200
,
0000
0000
0000
0000
,
3322
0000
0000
0000
,
2233
0000
0000
0000
,
3311
0011
0011
0011
0101
0110
1010
0000
,
1010
1010
1010
1010
1100
0110
0011
0000
,
1001
1001
1001
1001
1010
0101
0110
0000
,
0110
0110
0110
0110
0101
1010
1100
0000
,
1100
1100
1100
1100
0110
0101
1001
0000
,
1010
1010
1010
1010
1100
0110
0011
0000
,
0011
0011
0011
0011
0101
0110
1010
0000
,
0110
0110
0110
0110
1100
0011
1001
0000
,
1100
1100
1100
0011
0011
0011
1010
1010
,
0101
0000
0101
0000
0101
0000
1010
0000
1010
0000
1010
0000
0110
0000
0110
1000
,
0011
0011
0011
1100
1100
1100
0110
0110
,
1001
0000
1001
0000
1001
0000
0101
0000
0101
0000
0101
0000
1010
0000
1010
0001
,
0110
0110
0110
0101
0101
0101
1010
1010
,
1100
0000
1100
0000
1100
0000
0110
0000
0110
0000
0110
0000
0011
0000
0011
0100
,
1001
1001
1001
0101
0101
0101
1010
1010
,
1100
1100
1100
0110
0110
0110
0101
0101
,
2000
3200
0000
0320
0032
0023
2030
0000
,
3020
0000
0230
0000
0000
0000
0302
0000
0023
0230
2300
0000
3020
0000
0000
0000
,
2030
0000
3002
0000
0000
0000
0203
0000
0320
0032
2003
0000
3200
0000
0320
0000
,
0032
2003
3020
0000
2030
0000
3020
0000
0032
0000
0000
0000
0203
0000
0000
0000
,
0310
1000
0010
1000
0010
1000
0010
1000
0100
0001
0100
0001
0100
0001
0100
0001
,
1000
0100
1000
0100
1000
0100
1000
0100
0010
0001
0010
0100
0010
0001
0010
0100
,
2000
3020
0000
0230
0302
0023
0230
2300
,
3020
0000
0032
0000
0000
0000
2003
0000
3020
0230
0302
0203
0320
0000
0000
0000
,
1030
0100
0010
0001
0010
0100
1000
0100
0020
0000
0031
0100
0010
1000
0001
1000
,
0100
0001
0100
1000
0010
0001
0010
0100
1000
0010
1000
0100
0020
0000
0000
0000
,
1030
0001
0100
1000
0010
0001
1000
0010
0200
0000
0301
1000
0010
1000
0001
0010
,
2000
0000
3100
0010
0001
0010
0100
0010
0001
1000
0100
0010
1000
0001
0010
0100
,
1000
0100
0010
0001
1000
0001
0010
1000
0010
0001
1000
0100
0001
0100
1000
0010
0100
0001
1000
0010
0100
0001
0010
1000
,
0100
0010
0001
1000
0001
0010
1000
0010
0001
1000
0100
0001
0100
1000
0010
0100
0001
0010
0100
1000
0100
0001
0010
1000
,
0010
0100
0001
0100
0010
0100
0001
0100
0010
1000
0010
0100
0010
1000
0010
0100
0001
0010
0100
1000
0100
0010
0001
1000
,
0010
0100
0010
0100
0010
0100
0010
0100
0010
0100
0001
0010
0100
1000
0100
0010
0001
0010
0100
1000
0100
0010
0001
1000
,
0010
0100
0001
0010
0100
1000
0100
0010
0001
1000
0001
0100
1000
0100
0010
0001
,
0100
1000
0100
1000
0010
0001
0100
0010
2000
0000
0000
0000
3002
2003
0000
0000
,
3010
0010
0010
0010
0010
0000
0001
0000
0100
0100
0100
0100
0100
0000
0010
0000
,
1000
1000
1000
1000
1000
0000
0100
0000
0010
0010
0010
0010
0010
0010
0010
0010
,
1000
0100
0010
0001
1000
0001
0010
1000
0001
0010
1000
0100
0001
1000
0100
0001
,
0010
0000
1000
0000
0100
0000
0001
0000
0100
0000
1000
0000
0010
0000
1000
0000
0020
0030
0020
0030
0020
0030
0020
0030
0020
0030
0020
0030
0020
0030
0020
0030
,
1000
0100
0010
0001
1000
0001
1000
0010
0100
0001
1000
0100
0001
0100
1000
0010
,
0001
1000
0010
0100
0001
0010
1000
0010
0001
0010
1000
0100
0001
0100
1000
0010
,
0101
0000
0101
0000
,
1010
0000
1010
0000
,
2002
0000
0000
0000
,
3103
0010
0100
1000
0010
0100
0001
0010
1000
0100
0010
0001
1000
0010
0100
0001
0010
1000
0010
1000
0100
0001
0010
1000
,
0100
0010
0001
1000
0010
0100
0001
0010
0100
0001
0010
0100
0010
1000
0100
0010
1000
0100
0010
0100
0001
0010
1000
0010
,
0202
2323
3232
1313
2200
3322
2233
3311
,
1000
0100
0010
0001
0020
0000
0000
0000
0031
0010
0100
1000
0020
0000
0000
0000
,
1030
0100
0010
0001
1000
0001
0010
1000
0020
0000
0230
0000
0320
0000
0230
0000
,
0301
0010
0001
0010
0100
1000
0100
1000
0020
0000
0230
0000
0302
0000
2003
0000
,
3020
0230
0302
2003
0000
3020
0230
0302
,
0023
0000
0230
0000
2300
0000
3200
0000
0320
0032
0023
0032
0023
0032
0023
2030
,
3202
0000
0000
0303
0022
0000
0000
0033
0202
0000
0000
0303
0022
0033
1100
0000
,
0110
0101
1010
0202
0000
2323
0000
0000
,
3031
0010
0100
1000
0001
0010
0100
1000
0010
0100
0001
0100
0010
1000
0010
0100
,
0001
0100
1000
0100
0001
0000
0010
0000
0100
0000
1000
0000
0010
0100
0001
1000
,
0010
0100
0001
0010
0100
1000
0100
0010
0001
1000
0010
0100
0001
0010
0100
1000
0001
0100
1000
0010
1000
0001
0010
1000
,
0100
0001
0010
1000
0100
0001
0010
1000
0100
0010
0001
0010
0100
1000
0010
0001
0100
1000
0010
0100
0001
0010
0100
1000
,
0002
0000
0023
0000
0230
0000
2300
3020
0230
0302
0203
0320
2030
3200
0320
0032
,
2003
3200
0320
0032
0203
0000
0000
0000
,
0310
1000
0001
0010
1000
0010
0001
0100
1000
0100
0001
0010
1000
0010
0100
0001
,
0010
0001
1000
0100
1000
0001
0100
0001
1000
0010
1000
0001
0010
0100
1000
0001
,
1000
0100
0010
0001
0100
0000
0010
0000
1000
0000
0001
0000
0010
0000
1000
0000
,
0010
0001
0010
1000
0200
0000
0000
0000
,
1300
0100
0010
0001
0010
0100
1000
0100
0010
0001
0010
0100
1000
0100
0010
0001
,
0010
0100
0010
0100
0010
0100
0001
0010
0001
0010
0001
1000
0100
0010
0001
1000
,
0002
0023
0230
2300
3020
0000
0230
0000
0302
0000
0023
0000
0230
0000
2300
0000
,
3020
0230
0302
0203
0320
2030
3002
0000
0000
0000
0000
0000
0000
0000
0000
0000
,
1003
0100
0010
1000
0100
0010
1000
0100
0010
1000
0100
0010
1000
0100
0010
1000
,
0100
0010
1000
0100
0010
1000
0100
0010
1000
0100
0010
1000
0200
0000
0000
0000
,
0301
0010
0100
0001
0010
0100
0001
0010
0100
0001
0010
0100
0001
0010
0100
0001
,
0010
0100
0001
0010
0100
0001
0010
0100
0001
0010
0100
0001
0020
0000
0000
0000
,
1030
0100
0001
1000
0100
0001
1000
0100
0001
1000
0100
0001
1000
0100
0001
1000
,
0100
0001
1000
0100
0001
1000
0100
0001
1000
0100
0001
1000
0200
0000
0000
0000
,
0301
0010
1000
0001
0010
1000
0001
0010
1000
0001
0010
1000
0001
0010
1000
0001
,
0010
0000
1000
0000
0001
0000
0010
0000
1000
0000
0001
0000
0010
0000
1000
0000
0001
0000
0010
0000
1000
0000
0001
0000
0020
0230
0320
0230
0320
0230
0320
0230
,
1301
0000
0000
0101
0000
0000
1010
0000
0000
0000
0110
0000
0110
0000
0101
0000
,
1010
0000
0000
0011
0000
0000
1100
0000
0000
0000
0011
0000
1100
0000
0101
0000
,
1010
0000
0000
1001
0000
0000
0110
0000
0000
0000
0011
0000
1100
0000
0011
0000
,
1100
0011
0000
1010
0101
1010
0101
0110
,
1100
0000
0000
0011
0000
0000
0110
0000
0000
0000
0101
0000
1010
0000
1001
0000
,
0011
0000
0000
1100
0000
0000
0110
0000
0000
0000
1010
0000
0101
0000
1001
0000
,
0101
1000
0010
1000
0010
0100
0001
0010
1000
0100
0010
1000
0010
0100
0001
0010
,
1100
0001
0010
0100
1000
0010
0100
0001
1000
0100
0001
1000
0010
0100
0001
0010
,
1000
0001
0010
1000
0001
0010
1000
0001
0010
1000
0001
0010
1000
0001
0010
1000
,
0001
0010
1000
0001
0010
1000
0001
0010
1000
0001
0010
1000
0002
0000
0000
0000
,
0013
0100
1000
0010
0100
1000
0010
0100
1000
0010
0100
1000
0010
0100
1000
0010
,
0100
1000
0010
0100
1000
0010
0100
1000
0010
0100
1000
0010
2000
0000
0000
0000
,
3100
0010
0001
0100
0010
0001
0100
0010
0001
0100
0010
0001
0100
0010
0001
0100
,
0010
0001
0100
0010
0001
0100
0010
0001
0100
0010
0001
0100
0020
0000
0000
0000
,
0031
0010
0001
1000
0100
1000
0001
0010
0001
1000
0100
1000
0001
0010
0001
1000
,
0100
0000
1000
0000
0001
0000
0010
0000
0001
0000
1000
0000
0100
0000
1000
0000
0001
0000
0010
0000
0001
0000
1000
0000
0200
0320
0230
0320
0230
0320
0230
0320
,
1031
0101
1010
0101
,
1001
0000
0000
0110
0000
0000
0101
0000
,
1000
0100
0010
0001
0010
0001
1000
0100
0001
0100
1000
0010
0001
1000
0100
0010
,
1000
0001
0010
0100
0001
1000
0010
0100
0001
0010
1000
0010
0100
0001
1000
0010
,
1100
1100
1100
1100
0000
0110
0101
1010
,
0101
0101
0101
0101
0000
1100
0110
1100
,
1010
0100
0001
0010
0100
0001
0010
1000
0100
0001
1000
0010
0001
0100
1000
0010
,
0100
1000
0100
1000
0100
1000
0001
0100
0001
0100
0001
0100
0010
1000
0001
0100
,
1010
1010
1010
1010
0101
0101
0101
0101
,
0110
0110
0110
0110
1100
1100
1100
1100
,
0110
0110
0202
0000
1313
1010
2200
0000
,
3310
0001
0010
0001
0010
1000
0010
1000
0010
0001
0010
0001
0010
1000
0010
1000
,
0010
0100
0001
1000
0010
0100
0001
0010
0100
1000
0100
0010
0001
0010
1000
0010
,
0100
0001
1000
0010
0100
0001
0010
0100
1000
0010
0100
0001
1000
0100
0001
0100
,
1010
0100
0001
0100
0010
1000
0101
0010
1000
0001
0100
0001
1010
0100
0001
1000
,
0110
1000
0001
0010
0100
1000
0010
0100
0001
0010
0100
1000
0020
0000
0000
0000
,
2130
0000
0000
3102
0000
0000
0123
0000
,
2130
0000
0000
3210
0000
0000
0312
0000
,
0123
0000
0000
2031
0000
0000
3120
0000
,
2130
0000
0000
3210
0000
0000
1302
0000
,
0123
0000
0000
1230
0000
0000
0321
0000
,
2130
0000
0000
3210
0000
0000
0312
0000
,
2013
0000
3102
0000
,
1000
0100
1000
0100
1000
0100
1000
0100
0010
1000
0010
1000
0010
1000
0010
1000
,
0213
0000
0000
1302
0000
0000
0213
0000
,
2310
0000
0000
3210
0000
0000
2301
0000
,
3210
0000
0000
0312
0000
0000
2013
0000
,
3102
0000
0000
2103
0000
0000
3210
0000
,
0312
0000
0000
2013
0000
0000
3210
0000
,
0312
0000
0000
2013
0000
0000
3210
0000
,
2302
0000
3223
0000
,
0000
0000
0000
0000
,
1331
0000
0011
0000
1001
0010
0101
0000
1010
0000
0101
0000
0110
0001
1100
0000
,
0110
0000
1001
0000
0011
0100
1010
0000
0101
0000
1010
0000
1001
0010
0101
0000
,
1000
0100
0010
0001
0010
0100
1000
0010
0100
0001
0100
0010
1000
0010
0100
0001
,
0010
1000
0010
0001
0010
1000
0100
0001
0100
1000
0010
0100
0001
0010
1000
0100
,
0011
0000
1100
0000
0110
0001
1010
0000
0110
0000
0011
0000
1100
0010
1001
0000
,
0101
0000
1010
0000
0110
0001
1100
0000
0110
0000
0101
0000
1010
0100
0011
0000
,
0100
0010
1000
0100
0010
0001
0100
0010
1000
0100
0001
0100
1000
0010
0001
1000
,
0010
0100
0001
0010
0100
0001
0100
0010
0001
1000
0010
0100
1000
0010
1000
0100
,
1001
1001
1001
1001
0110
0110
0110
0110
,
1010
1010
1010
1010
0101
0101
0101
0101
,
1100
1100
1100
1100
0011
0011
0011
0011
,
1010
1010
1010
1010
0101
0101
0101
0101
,
1001
0010
0100
1000
0010
1000
0101
0010
1000
0001
0010
0100
1010
0100
0001
1000
,
0110
1000
0100
0010
0101
0010
1100
0001
0010
1000
0010
0001
0110
1000
0100
0010
,
1001
0010
0001
0110
1000
0010
0101
1000
,
0110
0001
0010
1100
0010
0100
1001
0100
,
0001
0010
1000
0100
0010
1000
0010
0100
0001
0010
1000
0100
0010
0001
1000
0100
,
0001
0010
1000
0010
0100
0001
0010
1000
0010
0100
0001
0100
1000
0010
0100
0001
,
0010
1000
0010
0100
0001
0010
0100
1000
0010
0100
0001
1000
0010
0100
0001
1000
,
0010
0100
0001
0100
0010
1000
0010
0001
0010
1000
0100
0001
0100
1000
0010
0100
,
0001
0010
0100
1000
0100
0010
0001
1000
0100
0001
0100
1000
0010
0001
1000
0010
,
0100
0001
1000
0010
0100
0010
1000
0010
0100
0010
0100
0001
0010
0100
1000
0100
,
0001
0010
0100
1000
0010
0100
0001
1000
0010
0001
1000
0100
0010
1000
0001
0010
,
1000
0100
1000
0100
1000
0100
0010
0001
0010
0001
0010
0001
1000
0010
1000
0010
,
1001
0010
1000
0100
0001
0100
1000
0010
0001
0010
0100
1000
0100
0010
0001
1000
,
0010
0100
0001
0100
1000
0010
0001
1000
0010
0100
0001
0010
0100
1000
0010
0100
,
1000
0010
0100
0010
0001
0010
1000
0010
0100
0001
1000
0010
0100
0001
0010
0100
,
1000
0100
0010
0001
0010
0100
1000
0100
0010
0001
0010
0100
1001
0100
0010
0100
,
1001
0100
0010
0001
1000
0100
1001
0010
0100
0001
0010
0100
1010
0100
0001
0010
,
1100
0010
0101
1000
0010
0100
0011
0100
1000
0010
0100
0001
1010
0100
0001
0100
,
2020
0100
0100
0100
0100
0100
0100
0100
,
3130
0001
0100
0010
1000
0010
0100
0001
0100
0010
1000
0010
1001
0100
0010
0100
,
1001
0010
0100
1000
0100
0010
0101
0010
1000
0010
0100
0010
1100
0010
0001
0100
,
1010
0100
1001
0010
1000
0100
1010
0001
0100
1000
0010
0100
1001
0010
0100
0010
,
2002
0100
0010
3113
,
1001
0000
0000
0100
0000
0000
0001
0000
,
1000
0010
0001
0010
1000
0100
0001
0100
1000
0010
0100
0001
0010
0100
1000
0100
,
0010
0001
1000
0010
0001
0010
1000
0100
0001
0100
1000
0010
0100
0001
0100
1000
,
0100
0010
0001
0010
0100
1000
0010
0001
0010
1000
0010
1000
0100
0001
0100
1000
,
0010
0100
0010
0100
0010
0100
0010
0100
0001
0010
0001
0010
0100
1000
0100
1000
,
0001
0010
0100
1000
0100
0010
0001
1000
0010
0001
0010
1000
0001
0010
0100
0001
,
1000
0100
0010
1000
0010
0100
0001
0010
0100
1000
0100
0010
0001
0010
1000
0001
,
1000
0100
0010
0001
1000
0010
0100
0001
0010
1000
0010
0001
1000
0100
0001
0100
,
1000
0010
0100
0001
1000
0001
0010
0100
0001
1000
0100
0010
1000
0010
0100
0001
,
1010
0100
0001
0010
0100
1000
0010
0100
0001
1000
0010
0100
0001
0100
1000
0010
,
0001
1000
0100
0001
1000
0010
0100
1000
0010
0100
0001
0010
0100
1000
0001
0100
,
0010
1000
0001
0100
1000
0100
0010
0001
1000
0010
0001
0010
1000
0100
0010
0001
,
0010
1000
0010
1000
0010
1000
0010
1000
0100
1000
0100
1000
0100
0001
0100
0001
,
1000
0100
0001
0100
1000
0010
0001
0010
1000
0010
0100
0001
0010
0100
1000
0100
,
0010
0001
1000
0010
0100
0001
1000
0010
0001
0100
1000
0010
0100
0001
0010
0100
,
1000
0100
0010
1000
0100
0010
0001
0010
0100
0001
0010
0100
1000
0001
1000
0001
,
0220
0000
1331
1001
,
2200
0010
3322
0100
,
2233
0010
3322
0100
,
1133
0010
0001
0010
1100
0000
0000
0000
0011
0100
1000
0100
0011
0000
0000
0000
,
1010
0100
0001
0100
0010
1000
0001
0010
1000
0010
0001
0010
1000
0100
0010
0001
,
1000
0010
0100
0001
1000
0010
0001
0010
0100
0001
0010
1000
0100
0010
1000
0100
,
0002
0000
0000
0000
,
0000
0000
0000
0000
,
0000
0000
0000
0000
0010
0100
1000
0010
0100
1000
0010
0100
1000
0010
0100
1000
,
0010
0100
1000
0010
0100
1000
0010
0100
1000
0010
0100
1000
,
0010
0100
1000
0010
0100
1000
0010
0100
,
1000
0000
0000
0000
0000
0223
0000
2332
,
0000
0000
3023
0030
;
